[4K电影] 特雷弗·诺亚:派翠莎是我老妈[简繁中字](2022)4K高清版本下载

[复制链接]

主题

帖子

0

积分

超级版主

Rank: 8Rank: 8

积分
0
 楼主| 发表于 2022-12-4 21:47:49 | 显示全部楼层 |阅读模式
本帖最后由 最爱4K哟 于 2022-12-4 23:25 编辑

QQ图片20221204232016_副本.png

◎译  名 特雷弗·诺亚:派翠莎是我老妈
◎片  名 Trevor Noah: Son of Patricia
◎年  代 2018
◎产  地 美国
◎类  别 喜剧
◎语  言 英语
◎上映日期 2018-11-20(美国)
◎IMDb评分 7.3/10 from 4274 users 更新 : 2022-12-02
◎IMDb链接 https://www.imdb.com/title/tt9170648
◎豆瓣评分 8.8/10 from 5052 users 更新 : 2022-12-04
◎豆瓣链接 https://movie.douban.com/subject/30377161/
◎片  长 63分钟
◎导  演 David Paul Meyer
◎编  剧 特雷弗·诺亚 Trevor Noah
◎主  演 特雷弗·诺亚 Trevor Noah


◎简  介

  诺亚的南非血统和成长经历融入了他最近在美国的经历,让人联想到有趣和人性的并置和观察。

◎获奖情况

  第10届美国评论家选择电视奖(2020)
  最佳喜剧节目(提名)

Video
ID : 1
Format : HEVC
Format/Info : High Efficiency Video Coding
Format profile : Main 10@L5@Main
HDR format : Dolby Vision, Version 1.0, dvhe.08.06, BL+RPU, HDR10 compatible / SMPTE ST 2086, HDR10 compatible
Codec ID : V_MPEGH/ISO/HEVC
Duration : 1 h 3 min
Bit rate : 16.1 Mb/s
Width : 3 840 pixels
Height : 2 160 pixels
Display aspect ratio : 16:9
Frame rate mode : Constant
Frame rate : 23.976 (24000/1001) FPS
Color space : YUV
Chroma subsampling : 4:2:0 (Type 2)
Bit depth : 10 bits
Bits/(Pixel*Frame) : 0.081
Stream size : 7.17 GiB (96%)
Default : Yes
Forced : No
Color range : Limited
Color primaries : BT.2020
Transfer characteristics : PQ
Matrix coefficients : BT.2020 non-constant
Mastering display color primaries : Display P3
Mastering display luminance : min: 0.0020 cd/m2, max: 1000 cd/m2
Maximum Content Light Level : 1235 cd/m2
Maximum Frame-Average Light Level : 886 cd/m2

Audio
ID : 2
Format : E-AC-3
Format/Info : Enhanced AC-3
Commercial name : Dolby Digital Plus
Codec ID : A_EAC3
Duration : 1 h 3 min
Bit rate mode : Constant
Bit rate : 640 kb/s
Channel(s) : 6 channels
Channel layout : L R C LFE Ls Rs
Sampling rate : 48.0 kHz
Frame rate : 31.250 FPS (1536 SPF)
Compression mode : Lossy
Stream size : 293 MiB (4%)
Language : English
Service kind : Complete Main
Default : Yes
Forced : No

Text #1
ID : 3
Format : UTF-8
Codec ID : S_TEXT/UTF8
Codec ID/Info : UTF-8 Plain Text
Duration : 1 h 3 min
Bit rate : 113 b/s
Frame rate : 0.366 FPS
Count of elements : 1396
Stream size : 52.7 KiB (0%)
Language : English
Default : No
Forced : No

Text #2
ID : 4
Format : UTF-8
Codec ID : S_TEXT/UTF8
Codec ID/Info : UTF-8 Plain Text
Duration : 1 h 3 min
Bit rate : 118 b/s
Frame rate : 0.392 FPS
Count of elements : 1501
Stream size : 55.4 KiB (0%)
Title : SDH
Language : English
Default : No
Forced : No

Text #3
ID : 5
Format : UTF-8
Codec ID : S_TEXT/UTF8
Codec ID/Info : UTF-8 Plain Text
Duration : 1 h 3 min
Bit rate : 177 b/s
Frame rate : 0.378 FPS
Count of elements : 1443
Stream size : 82.6 KiB (0%)
Language : Arabic
Default : No
Forced : No

Text #4
ID : 6
Format : UTF-8
Codec ID : S_TEXT/UTF8
Codec ID/Info : UTF-8 Plain Text
Duration : 1 h 3 min
Bit rate : 102 b/s
Frame rate : 0.378 FPS
Count of elements : 1443
Stream size : 47.9 KiB (0%)
Title : 简体中字
Language : Chinese

Default : No
Forced : No

Text #5
ID : 7
Format : UTF-8
Codec ID : S_TEXT/UTF8
Codec ID/Info : UTF-8 Plain Text
Duration : 1 h 3 min
Bit rate : 114 b/s
Frame rate : 0.377 FPS
Count of elements : 1438
Stream size : 53.2 KiB (0%)
Title : 繁体中字
Language : Chinese

Default : No
Forced : No

Text #6
ID : 8
Format : UTF-8
Codec ID : S_TEXT/UTF8
Codec ID/Info : UTF-8 Plain Text
Duration : 1 h 3 min
Bit rate : 92 b/s
Frame rate : 0.262 FPS
Count of elements : 998
Stream size : 43.2 KiB (0%)
Language : Danish
Default : No
Forced : No

Text #7
ID : 9
Format : UTF-8
Codec ID : S_TEXT/UTF8
Codec ID/Info : UTF-8 Plain Text
Duration : 1 h 3 min
Bit rate : 99 b/s
Frame rate : 0.343 FPS
Count of elements : 1311
Stream size : 46.2 KiB (0%)
Language : Dutch
Default : No
Forced : No

Text #8
ID : 10
Format : UTF-8
Codec ID : S_TEXT/UTF8
Codec ID/Info : UTF-8 Plain Text
Duration : 1 h 3 min
Bit rate : 90 b/s
Frame rate : 0.378 FPS
Count of elements : 1443
Stream size : 42.3 KiB (0%)
Language : Finnish
Default : No
Forced : No

Text #9
ID : 11
Format : UTF-8
Codec ID : S_TEXT/UTF8
Codec ID/Info : UTF-8 Plain Text
Duration : 1 h 3 min
Bit rate : 77 b/s
Frame rate : 0.378 FPS
Count of elements : 1443
Stream size : 36.3 KiB (0%)
Language : French
Default : No
Forced : No

Text #10
ID : 12
Format : UTF-8
Codec ID : S_TEXT/UTF8
Codec ID/Info : UTF-8 Plain Text
Duration : 1 h 3 min
Bit rate : 97 b/s
Frame rate : 0.330 FPS
Count of elements : 1261
Stream size : 45.6 KiB (0%)
Language : German
Default : No
Forced : No

Text #11
ID : 13
Format : UTF-8
Codec ID : S_TEXT/UTF8
Codec ID/Info : UTF-8 Plain Text
Duration : 1 h 3 min
Bit rate : 143 b/s
Frame rate : 0.306 FPS
Count of elements : 1166
Stream size : 67.0 KiB (0%)
Language : Greek
Default : No
Forced : No

Text #12
ID : 14
Format : UTF-8
Codec ID : S_TEXT/UTF8
Codec ID/Info : UTF-8 Plain Text
Duration : 1 h 3 min
Bit rate : 177 b/s
Frame rate : 0.320 FPS
Count of elements : 1223
Stream size : 82.6 KiB (0%)
Language : Hebrew
Default : No
Forced : No

Text #13
ID : 15
Format : UTF-8
Codec ID : S_TEXT/UTF8
Codec ID/Info : UTF-8 Plain Text
Duration : 1 h 3 min
Bit rate : 81 b/s
Frame rate : 0.370 FPS
Count of elements : 1414
Stream size : 38.0 KiB (0%)
Language : Indonesian
Default : No
Forced : No

Text #14
ID : 16
Format : UTF-8
Codec ID : S_TEXT/UTF8
Codec ID/Info : UTF-8 Plain Text
Duration : 1 h 3 min
Bit rate : 100 b/s
Frame rate : 0.298 FPS
Count of elements : 1136
Stream size : 46.8 KiB (0%)
Language : Italian
Default : No
Forced : No

Text #15
ID : 17
Format : UTF-8
Codec ID : S_TEXT/UTF8
Codec ID/Info : UTF-8 Plain Text
Duration : 1 h 3 min
Bit rate : 88 b/s
Frame rate : 0.301 FPS
Count of elements : 1150
Stream size : 41.3 KiB (0%)
Language : Japanese
Default : No
Forced : No

Text #16
ID : 18
Format : UTF-8
Codec ID : S_TEXT/UTF8
Codec ID/Info : UTF-8 Plain Text
Duration : 1 h 3 min
Bit rate : 128 b/s
Frame rate : 0.378 FPS
Count of elements : 1444
Stream size : 59.7 KiB (0%)
Language : Korean
Default : No
Forced : No

Text #17
ID : 19
Format : UTF-8
Codec ID : S_TEXT/UTF8
Codec ID/Info : UTF-8 Plain Text
Duration : 1 h 3 min
Bit rate : 89 b/s
Frame rate : 0.336 FPS
Count of elements : 1281
Stream size : 41.8 KiB (0%)
Language : Norwegian Bokmal
Default : No
Forced : No

Text #18
ID : 20
Format : UTF-8
Codec ID : S_TEXT/UTF8
Codec ID/Info : UTF-8 Plain Text
Duration : 1 h 3 min
Bit rate : 94 b/s
Frame rate : 0.367 FPS
Count of elements : 1399
Stream size : 44.1 KiB (0%)
Language : Polish
Default : No
Forced : No

Text #19
ID : 21
Format : UTF-8
Codec ID : S_TEXT/UTF8
Codec ID/Info : UTF-8 Plain Text
Duration : 1 h 3 min
Bit rate : 96 b/s
Frame rate : 0.378 FPS
Count of elements : 1442
Stream size : 45.0 KiB (0%)
Title : Brazilian
Language : Portuguese
Default : No
Forced : No

Text #20
ID : 22
Format : UTF-8
Codec ID : S_TEXT/UTF8
Codec ID/Info : UTF-8 Plain Text
Duration : 1 h 3 min
Bit rate : 113 b/s
Frame rate : 0.378 FPS
Count of elements : 1443
Stream size : 52.9 KiB (0%)
Title : Iberian
Language : Portuguese
Default : No
Forced : No

Text #21
ID : 23
Format : UTF-8
Codec ID : S_TEXT/UTF8
Codec ID/Info : UTF-8 Plain Text
Duration : 1 h 3 min
Bit rate : 97 b/s
Frame rate : 0.378 FPS
Count of elements : 1442
Stream size : 45.6 KiB (0%)
Language : Romanian
Default : No
Forced : No

Text #22
ID : 24
Format : UTF-8
Codec ID : S_TEXT/UTF8
Codec ID/Info : UTF-8 Plain Text
Duration : 1 h 3 min
Bit rate : 82 b/s
Frame rate : 0.320 FPS
Count of elements : 1221
Stream size : 38.4 KiB (0%)
Title : Castilian
Language : Spanish
Default : No
Forced : No

Text #23
ID : 25
Format : UTF-8
Codec ID : S_TEXT/UTF8
Codec ID/Info : UTF-8 Plain Text
Duration : 1 h 3 min
Bit rate : 99 b/s
Frame rate : 0.337 FPS
Count of elements : 1285
Stream size : 46.5 KiB (0%)
Title : Latin American
Language : Spanish
Default : No
Forced : No

Text #24
ID : 26
Format : UTF-8
Codec ID : S_TEXT/UTF8
Codec ID/Info : UTF-8 Plain Text
Duration : 1 h 3 min
Bit rate : 101 b/s
Frame rate : 0.286 FPS
Count of elements : 1092
Stream size : 47.5 KiB (0%)
Language : Swedish
Default : No
Forced : No

Text #25
ID : 27
Format : UTF-8
Codec ID : S_TEXT/UTF8
Codec ID/Info : UTF-8 Plain Text
Duration : 1 h 3 min
Bit rate : 256 b/s
Frame rate : 0.378 FPS
Count of elements : 1443
Stream size : 119 KiB (0%)
Language : Thai
Default : No
Forced : No

Text #26
ID : 28
Format : UTF-8
Codec ID : S_TEXT/UTF8
Codec ID/Info : UTF-8 Plain Text
Duration : 1 h 3 min
Bit rate : 96 b/s
Frame rate : 0.349 FPS
Count of elements : 1331
Stream size : 44.9 KiB (0%)
Language : Turkish
Default : No
Forced : No

推荐使用qBittorrent、uTorrent、BitComet等下载软件,有条件的推荐115或会员软件下载!

下载地址


游客,如果您要查看本帖隐藏内容请回复







上一篇:玛丽莲·梦露之谜:首次现世的录音[简繁中字](2021)4K高清下载
下一篇:山怪巨魔 [简繁中字] / Troll (2022) 4K高清版本下载
回复

使用道具 举报

0

主题

27

帖子

367

积分

新手上路

Rank: 1

积分
367
发表于 2022-12-5 12:27:19 | 显示全部楼层
先谢楼主分享!
回复 支持 反对

使用道具 举报

您需要登录后才可以回帖 登录 | 立即注册

本版积分规则

精彩图文
Archiver|手机版|TAG|Sitemap|新帖|专题|联系我们:邮箱: 4kjia.com@gmail.com   

4k家园   ©2019