[4K电影] 山怪巨魔 [简繁中字] / Troll (2022) 4K高清版本下载

[复制链接]

主题

帖子

0

积分

超级版主

Rank: 8Rank: 8

积分
0
 楼主| 发表于 2022-12-4 21:56:54 | 显示全部楼层 |阅读模式
本帖最后由 最爱4K哟 于 2022-12-4 23:25 编辑

QQ图片20221204231926_副本.png

◎标  题 山怪巨魔
◎译  名 山精 / 巨魔
◎片  名 Troll
◎年  代 2022
◎产  地 挪威
◎类  别 动作 / 奇幻 / 冒险
◎语  言 挪威语
◎上映日期 2022-12-01(挪威网络)
◎IMDb评分 6.0/10 from 9934 users 更新 : 2022-12-04
◎IMDb链接 https://www.imdb.com/title/tt11116912/
◎豆瓣评分 5.4/10 from 1653 users  更新 : 2022-12-04
◎豆瓣链接 https://movie.douban.com/subject/34967910/
◎片  长 101分钟
◎导  演 罗阿尔·乌索格 Roar Uthaug
◎编  剧 罗阿尔·乌索格 Roar Uthaug
◎演  员 伊内·玛丽·维尔曼 Ine Marie Wilmann
       金·法尔克·约根森 Kim S. Falck-Jørgensen
       麦德斯·斯加德·彼得森 Mads Sjøgård Pettersen
       加德·B·艾兹沃尔德 Gard B. Eidsvold
       帕尔·安德斯·诺德维 Pål Anders Nordvi


◎简  介


  一只古老的巨怪在挪威的山中苏醒后,乌合之众的一班英雄必须团结一心,努力阻止巨怪造成致命浩劫。

Video
ID : 1
Format : HEVC
Format/Info : High Efficiency Video Coding
Format profile : Main 10@L5.1@High
HDR format : Dolby Vision, Version 1.0, dvhe.08.06, BL+RPU, HDR10 compatible / SMPTE ST 2086, HDR10 compatible
Codec ID : V_MPEGH/ISO/HEVC
Duration : 1 h 41 min
Bit rate : 22.2 Mb/s
Width : 3 840 pixels
Height : 2 160 pixels
Display aspect ratio : 16:9
Frame rate mode : Constant
Frame rate : 24.000 FPS
Color space : YUV
Chroma subsampling : 4:2:0 (Type 2)
Bit depth : 10 bits
Bits/(Pixel*Frame) : 0.111
Stream size : 15.8 GiB (94%)
Default : Yes
Forced : No
Color range : Limited
Color primaries : BT.2020
Transfer characteristics : PQ
Matrix coefficients : BT.2020 non-constant
Mastering display color primaries : Display P3
Mastering display luminance : min: 0.0001 cd/m2, max: 1000 cd/m2
Maximum Content Light Level : 832 cd/m2
Maximum Frame-Average Light Level : 106 cd/m2

Audio #1
ID : 2
Format : E-AC-3 JOC
Format/Info : Enhanced AC-3 with Joint Object Coding
Commercial name : Dolby Digital Plus with Dolby Atmos
Codec ID : A_EAC3
Duration : 1 h 43 min
Bit rate mode : Constant
Bit rate : 768 kb/s
Channel(s) : 6 channels
Channel layout : L R C LFE Ls Rs
Sampling rate : 48.0 kHz
Frame rate : 31.250 FPS (1536 SPF)
Compression mode : Lossy
Stream size : 570 MiB (3%)
Title : Norwegian Bokmal
Language : Norwegian Bokmal
Service kind : Complete Main
Default : Yes
Forced : No
Complexity index : 16
Number of dynamic objects : 15
Bed channel count : 1 channel
Bed channel configuration : LFE

Audio #2
ID : 3
Format : E-AC-3
Format/Info : Enhanced AC-3
Commercial name : Dolby Digital Plus
Codec ID : A_EAC3
Duration : 1 h 43 min
Bit rate mode : Constant
Bit rate : 640 kb/s
Channel(s) : 6 channels
Channel layout : L R C LFE Ls Rs
Sampling rate : 48.0 kHz
Frame rate : 31.250 FPS (1536 SPF)
Compression mode : Lossy
Stream size : 475 MiB (3%)
Title : English
Language : English
Service kind : Complete Main
Default : No
Forced : No

Text #1
ID : 4
Format : UTF-8
Codec ID : S_TEXT/UTF8
Codec ID/Info : UTF-8 Plain Text
Duration : 2 s 0 ms
Bit rate : 124 b/s
Frame rate : 0.500 FPS
Count of elements : 1
Stream size : 31.0 Bytes (0%)
Title : Forced
Language : Norwegian Bokmal
Default : Yes
Forced : Yes

Text #2
ID : 5
Format : UTF-8
Codec ID : S_TEXT/UTF8
Codec ID/Info : UTF-8 Plain Text
Duration : 1 h 41 min
Bit rate : 70 b/s
Frame rate : 0.191 FPS
Count of elements : 1160
Stream size : 51.9 KiB (0%)
Language : Arabic
Default : No
Forced : No

Text #3
ID : 6
Format : UTF-8
Codec ID : S_TEXT/UTF8
Codec ID/Info : UTF-8 Plain Text
Duration : 1 h 41 min
Bit rate : 41 b/s
Frame rate : 0.191 FPS
Count of elements : 1158
Stream size : 31.1 KiB (0%)
Language : Catalan
Default : No
Forced : No

Text #4
ID : 7
Format : UTF-8
Codec ID : S_TEXT/UTF8
Codec ID/Info : UTF-8 Plain Text
Duration : 1 h 41 min
Bit rate : 42 b/s
Frame rate : 0.177 FPS
Count of elements : 1079
Stream size : 31.6 KiB (0%)
Language : Czech
Default : No
Forced : No

Text #5
ID : 8
Format : UTF-8
Codec ID : S_TEXT/UTF8
Codec ID/Info : UTF-8 Plain Text
Duration : 1 h 41 min
Bit rate : 39 b/s
Frame rate : 0.174 FPS
Count of elements : 1056
Stream size : 29.5 KiB (0%)
Language : Danish
Default : No
Forced : No

Text #6
ID : 9
Format : UTF-8
Codec ID : S_TEXT/UTF8
Codec ID/Info : UTF-8 Plain Text
Duration : 1 h 41 min
Bit rate : 44 b/s
Frame rate : 0.168 FPS
Count of elements : 1018
Stream size : 33.3 KiB (0%)
Language : German
Default : No
Forced : No

Text #7
ID : 10
Format : UTF-8
Codec ID : S_TEXT/UTF8
Codec ID/Info : UTF-8 Plain Text
Duration : 1 h 41 min
Bit rate : 68 b/s
Frame rate : 0.192 FPS
Count of elements : 1166
Stream size : 51.2 KiB (0%)
Language : Greek
Default : No
Forced : No

Text #8
ID : 11
Format : UTF-8
Codec ID : S_TEXT/UTF8
Codec ID/Info : UTF-8 Plain Text
Duration : 1 h 41 min
Bit rate : 62 b/s
Frame rate : 0.281 FPS
Count of elements : 1703
Stream size : 46.3 KiB (0%)
Title : SDH
Language : English
Default : No
Forced : No

Text #9
ID : 12
Format : UTF-8
Codec ID : S_TEXT/UTF8
Codec ID/Info : UTF-8 Plain Text
Duration : 1 h 40 min
Bit rate : 39 b/s
Frame rate : 0.180 FPS
Count of elements : 1087
Stream size : 29.3 KiB (0%)
Language : English
Default : No
Forced : No

Text #10
ID : 13
Format : UTF-8
Codec ID : S_TEXT/UTF8
Codec ID/Info : UTF-8 Plain Text
Duration : 1 h 33 min
Bit rate : 52 b/s
Frame rate : 0.223 FPS
Count of elements : 1254
Stream size : 35.8 KiB (0%)
Language : English
Default : No
Forced : No

Text #11
ID : 14
Format : UTF-8
Codec ID : S_TEXT/UTF8
Codec ID/Info : UTF-8 Plain Text
Duration : 1 h 33 min
Bit rate : 45 b/s
Frame rate : 0.199 FPS
Count of elements : 1118
Stream size : 31.2 KiB (0%)
Language : Spanish
Default : No
Forced : No

Text #12
ID : 15
Format : UTF-8
Codec ID : S_TEXT/UTF8
Codec ID/Info : UTF-8 Plain Text
Duration : 1 h 40 min
Bit rate : 41 b/s
Frame rate : 0.187 FPS
Count of elements : 1132
Stream size : 31.0 KiB (0%)
Title : Europe
Language : Spanish
Default : No
Forced : No

Text #13
ID : 16
Format : UTF-8
Codec ID : S_TEXT/UTF8
Codec ID/Info : UTF-8 Plain Text
Duration : 1 h 40 min
Bit rate : 42 b/s
Frame rate : 0.193 FPS
Count of elements : 1166
Stream size : 31.1 KiB (0%)
Language : Basque
Default : No
Forced : No

Text #14
ID : 17
Format : UTF-8
Codec ID : S_TEXT/UTF8
Codec ID/Info : UTF-8 Plain Text
Duration : 1 h 41 min
Bit rate : 42 b/s
Frame rate : 0.166 FPS
Count of elements : 1010
Stream size : 31.2 KiB (0%)
Language : Finnish
Default : No
Forced : No

Text #15
ID : 18
Format : UTF-8
Codec ID : S_TEXT/UTF8
Codec ID/Info : UTF-8 Plain Text
Duration : 1 h 41 min
Bit rate : 43 b/s
Frame rate : 0.192 FPS
Count of elements : 1165
Stream size : 32.0 KiB (0%)
Language : fil
Default : No
Forced : No

Text #16
ID : 19
Format : UTF-8
Codec ID : S_TEXT/UTF8
Codec ID/Info : UTF-8 Plain Text
Duration : 1 h 41 min
Bit rate : 46 b/s
Frame rate : 0.178 FPS
Count of elements : 1079
Stream size : 34.7 KiB (0%)
Language : French
Default : No
Forced : No

Text #17
ID : 20
Format : UTF-8
Codec ID : S_TEXT/UTF8
Codec ID/Info : UTF-8 Plain Text
Duration : 1 h 41 min
Bit rate : 38 b/s
Frame rate : 0.193 FPS
Count of elements : 1172
Stream size : 28.4 KiB (0%)
Language : Galician
Default : No
Forced : No

Text #18
ID : 21
Format : UTF-8
Codec ID : S_TEXT/UTF8
Codec ID/Info : UTF-8 Plain Text
Duration : 1 h 41 min
Bit rate : 64 b/s
Frame rate : 0.182 FPS
Count of elements : 1104
Stream size : 47.9 KiB (0%)
Language : Hebrew
Default : No
Forced : No

Text #19
ID : 22
Format : UTF-8
Codec ID : S_TEXT/UTF8
Codec ID/Info : UTF-8 Plain Text
Duration : 1 h 40 min
Bit rate : 34 b/s
Frame rate : 0.193 FPS
Count of elements : 1166
Stream size : 25.8 KiB (0%)
Language : Croatian
Default : No
Forced : No

Text #20
ID : 23
Format : UTF-8
Codec ID : S_TEXT/UTF8
Codec ID/Info : UTF-8 Plain Text
Duration : 1 h 41 min
Bit rate : 43 b/s
Frame rate : 0.187 FPS
Count of elements : 1135
Stream size : 32.4 KiB (0%)
Language : Hungarian
Default : No
Forced : No

Text #21
ID : 24
Format : UTF-8
Codec ID : S_TEXT/UTF8
Codec ID/Info : UTF-8 Plain Text
Duration : 1 h 41 min
Bit rate : 41 b/s
Frame rate : 0.182 FPS
Count of elements : 1108
Stream size : 31.1 KiB (0%)
Language : Indonesian
Default : No
Forced : No

Text #22
ID : 25
Format : UTF-8
Codec ID : S_TEXT/UTF8
Codec ID/Info : UTF-8 Plain Text
Duration : 1 h 41 min
Bit rate : 39 b/s
Frame rate : 0.186 FPS
Count of elements : 1131
Stream size : 29.4 KiB (0%)
Language : Italian
Default : No
Forced : No

Text #23
ID : 26
Format : UTF-8
Codec ID : S_TEXT/UTF8
Codec ID/Info : UTF-8 Plain Text
Duration : 1 h 41 min
Bit rate : 42 b/s
Frame rate : 0.172 FPS
Count of elements : 1046
Stream size : 31.2 KiB (0%)
Language : Japanese
Default : No
Forced : No

Text #24
ID : 27
Format : UTF-8
Codec ID : S_TEXT/UTF8
Codec ID/Info : UTF-8 Plain Text
Duration : 1 h 41 min
Bit rate : 51 b/s
Frame rate : 0.191 FPS
Count of elements : 1161
Stream size : 37.9 KiB (0%)
Language : Korean
Default : No
Forced : No

Text #25
ID : 28
Format : UTF-8
Codec ID : S_TEXT/UTF8
Codec ID/Info : UTF-8 Plain Text
Duration : 1 h 40 min
Bit rate : 41 b/s
Frame rate : 0.189 FPS
Count of elements : 1144
Stream size : 30.5 KiB (0%)
Language : Malay
Default : No
Forced : No

Text #26
ID : 29
Format : UTF-8
Codec ID : S_TEXT/UTF8
Codec ID/Info : UTF-8 Plain Text
Duration : 1 h 41 min
Bit rate : 38 b/s
Frame rate : 0.163 FPS
Count of elements : 992
Stream size : 28.5 KiB (0%)
Language : Dutch
Default : No
Forced : No

Text #27
ID : 30
Format : UTF-8
Codec ID : S_TEXT/UTF8
Codec ID/Info : UTF-8 Plain Text
Duration : 1 h 41 min
Bit rate : 39 b/s
Frame rate : 0.176 FPS
Count of elements : 1069
Stream size : 29.3 KiB (0%)
Language : Polish
Default : No
Forced : No

Text #28
ID : 31
Format : UTF-8
Codec ID : S_TEXT/UTF8
Codec ID/Info : UTF-8 Plain Text
Duration : 1 h 41 min
Bit rate : 43 b/s
Frame rate : 0.191 FPS
Count of elements : 1161
Stream size : 32.0 KiB (0%)
Language : Portuguese
Default : No
Forced : No

Text #29
ID : 32
Format : UTF-8
Codec ID : S_TEXT/UTF8
Codec ID/Info : UTF-8 Plain Text
Duration : 1 h 40 min
Bit rate : 40 b/s
Frame rate : 0.189 FPS
Count of elements : 1144
Stream size : 30.1 KiB (0%)
Title : Brazil
Language : Portuguese
Default : No
Forced : No

Text #30
ID : 33
Format : UTF-8
Codec ID : S_TEXT/UTF8
Codec ID/Info : UTF-8 Plain Text
Duration : 1 h 40 min
Bit rate : 45 b/s
Frame rate : 0.185 FPS
Count of elements : 1120
Stream size : 33.8 KiB (0%)
Language : Romanian
Default : No
Forced : No

Text #31
ID : 34
Format : UTF-8
Codec ID : S_TEXT/UTF8
Codec ID/Info : UTF-8 Plain Text
Duration : 1 h 40 min
Bit rate : 68 b/s
Frame rate : 0.185 FPS
Count of elements : 1121
Stream size : 50.7 KiB (0%)
Language : Russian
Default : No
Forced : No

Text #32
ID : 35
Format : UTF-8
Codec ID : S_TEXT/UTF8
Codec ID/Info : UTF-8 Plain Text
Duration : 1 h 41 min
Bit rate : 39 b/s
Frame rate : 0.178 FPS
Count of elements : 1081
Stream size : 29.6 KiB (0%)
Language : Swedish
Default : No
Forced : No

Text #33
ID : 36
Format : UTF-8
Codec ID : S_TEXT/UTF8
Codec ID/Info : UTF-8 Plain Text
Duration : 1 h 41 min
Bit rate : 106 b/s
Frame rate : 0.191 FPS
Count of elements : 1162
Stream size : 79.0 KiB (0%)
Language : Thai
Default : No
Forced : No

Text #34
ID : 37
Format : UTF-8
Codec ID : S_TEXT/UTF8
Codec ID/Info : UTF-8 Plain Text
Duration : 1 h 40 min
Bit rate : 42 b/s
Frame rate : 0.178 FPS
Count of elements : 1076
Stream size : 31.5 KiB (0%)
Language : Turkish
Default : No
Forced : No

Text #35
ID : 38
Format : UTF-8
Codec ID : S_TEXT/UTF8
Codec ID/Info : UTF-8 Plain Text
Duration : 1 h 41 min
Bit rate : 65 b/s
Frame rate : 0.188 FPS
Count of elements : 1144
Stream size : 48.7 KiB (0%)
Language : Ukrainian
Default : No
Forced : No

Text #36
ID : 39
Format : UTF-8
Codec ID : S_TEXT/UTF8
Codec ID/Info : UTF-8 Plain Text
Duration : 1 h 41 min
Bit rate : 59 b/s
Frame rate : 0.193 FPS
Count of elements : 1172
Stream size : 43.8 KiB (0%)
Language : Vietnamese
Default : No
Forced : No

Text #37
ID : 40
Format : UTF-8
Codec ID : S_TEXT/UTF8
Codec ID/Info : UTF-8 Plain Text
Duration : 1 h 40 min
Bit rate : 46 b/s
Frame rate : 0.194 FPS
Count of elements : 1172
Stream size : 34.2 KiB (0%)
Title : 简体中字
Language : Chinese

Default : No
Forced : No

Text #38
ID : 41
Format : UTF-8
Codec ID : S_TEXT/UTF8
Codec ID/Info : UTF-8 Plain Text
Duration : 1 h 40 min
Bit rate : 44 b/s
Frame rate : 0.192 FPS
Count of elements : 1164
Stream size : 32.7 KiB (0%)
Title : 繁体中字
Language : Chinese

Default : No
Forced : No

推荐使用qBittorrent、uTorrent、BitComet等下载软件,有条件的推荐115或会员软件下载!

下载地址


游客,如果您要查看本帖隐藏内容请回复





上一篇:特雷弗·诺亚:派翠莎是我老妈[简繁中字](2022)4K高清版本下载
下一篇:领地 [简繁中字] / The Territoryl (2022) 4K高清版本下载
回复

使用道具 举报

主题

帖子

0

积分

新手上路

Rank: 1

积分
0
发表于 2022-12-5 11:48:27 | 显示全部楼层
开心开心
回复

使用道具 举报

主题

帖子

0

积分

新手上路

Rank: 1

积分
0
发表于 2022-12-5 20:06:28 | 显示全部楼层
不错不错,看看
回复 支持 反对

使用道具 举报

0

主题

4

帖子

15

积分

新手上路

Rank: 1

积分
15
发表于 2022-12-6 13:29:00 来自手机 | 显示全部楼层
感谢楼主分享
回复 支持 反对

使用道具 举报

0

主题

10

帖子

30

积分

新手上路

Rank: 1

积分
30
发表于 2022-12-6 19:00:59 | 显示全部楼层
感谢楼主分享
回复 支持 反对

使用道具 举报

0

主题

5

帖子

177

积分

4K家园VIP

Rank: 9Rank: 9Rank: 9

积分
177
发表于 2022-12-6 19:58:17 | 显示全部楼层
111111
回复

使用道具 举报

0

主题

1

帖子

6

积分

新手上路

Rank: 1

积分
6
发表于 2022-12-7 18:03:43 来自手机 | 显示全部楼层
棒棒的
回复

使用道具 举报

0

主题

2

帖子

9

积分

新手上路

Rank: 1

积分
9
发表于 2022-12-8 23:12:46 来自手机 | 显示全部楼层
感谢楼主
回复

使用道具 举报

0

主题

1

帖子

6

积分

新手上路

Rank: 1

积分
6
发表于 2022-12-9 18:46:09 | 显示全部楼层
不错不错!
回复

使用道具 举报

0

主题

225

帖子

1010

积分

4K家园VIP

Rank: 9Rank: 9Rank: 9

积分
1010
发表于 2022-12-9 19:55:41 | 显示全部楼层
让 江小白 来看看帖子里藏了啥好东西~~~
回复 支持 反对

使用道具 举报

您需要登录后才可以回帖 登录 | 立即注册

本版积分规则

精彩图文
Archiver|手机版|TAG|Sitemap|新帖|专题|联系我们:邮箱: 4kjia.com@gmail.com   

4k家园   ©2019