[4K电影] 天鹅绒圆锯 [简繁中字] / Velvet Buzzsaw (2019) 4K高清版本下载

[复制链接]

主题

帖子

0

积分

超级版主

Rank: 8Rank: 8

积分
0
 楼主| 发表于 2022-12-4 22:21:05 | 显示全部楼层 |阅读模式
本帖最后由 最爱4K哟 于 2022-12-4 23:23 编辑

QQ图片20221204232108_副本.png

◎标  题 天鹅绒圆锯
◎译  名 艺海疑魂(港) / 丝绒电锯(台)
◎片  名 Velvet Buzzsaw
◎年  代 2019
◎产  地 美国
◎类  别 剧情 / 悬疑 / 惊悚
◎语  言 英语
◎上映日期 2019-01-27(圣丹斯电影节) / 2019-02-01(美国)
◎IMDb评分 5.7/10 from 61942 users 更新 : 2022-12-03
◎IMDb链接 https://www.imdb.com/title/tt7043012/
◎豆瓣评分 5.7/10 from 5236 users 更新 : 2022-12-04
◎豆瓣链接 https://movie.douban.com/subject/27135946/
◎片  长 109分钟(圣丹斯电影节)
◎导  演 丹·吉尔罗伊 Dan Gilroy
◎编  剧 丹·吉尔罗伊 Dan Gilroy
◎演  员 杰克·吉伦哈尔 Jake Gyllenhaal
       蕾妮·罗素 Rene Russo
       托妮·科莱特 Toni Collette
       约翰·马尔科维奇 John Malkovich
       扎威·阿什顿 Zawe Ashton
       汤姆·斯图里奇 Tom Sturridge
       娜塔莉·戴尔 Natalia Dyer
       戴维德·迪格斯 Daveed Diggs
       比利·马格努森 Billy Magnussen
       彼得·加迪尔特 Peter Gadiot
       凯文·卡罗尔 Kevin Carroll
       詹姆斯·帕克斯顿 James Paxton
       卡桑德拉·沃亚齐斯 Kassandra Voyagis
       帕特·希利 Pat Healy
       约翰·弗利克 John Fleck
       马克·斯达格 Mark Steger
       安德莉亚·马尔科维奇 Andrea Marcovicci
       克里斯托弗·达尔加 Christopher Darga
       马尔科·罗德里格斯 Marco Rodríguez
       克里斯汀·瑞克斯 Kristen Rakes
       索尔·洛佩斯 Sal Lopez
       泰姆·温特斯 Time Winters
       斯科特·皮特 Scott Peat
       伊恩·阿尔达 Ian Alda
       曾爱媚 Amy Tsang
       斯特凡·马克斯 Stefan Marks
       罗伯特·阿尔茨 Robert Artz
       野村祐人 Eugene Nomura
       皮塞·堡 Pisay Pao
       大卫·艾伦·格拉夫 David Alan Graf
       米格·马卡里奥 Mig Macario
       G·拉里·巴特勒 G. Larry Butler
       埃莉斯·法兰加 Elise Falanga
       布兰登·考夫曼 Brendan Kaufmann
       尼克·科尼特 Nic Cornett
       小萨达尔·苏拉特 Sedale Threatt Jr.
       坎迪丝·拉米雷兹 Candice Ramirez
       卡诺阿·古 Kanoa Goo
       詹妮弗·福克斯 Jennifer Fox
       马可·贝尔崔米 Marco Beltrami
       巴克·桑德斯 Buck Sanders
       崔茜·萨默维尔 Trish Summerville


◎简  介


  美国洛杉矶未来艺术展览会上, 画廊主、经纪人、艺术家、收藏家、评论家、艺术顾问以及多金买主觥筹交错,谈笑风生,言必称的艺术,离不开的金钱。艺术圈的小女子约瑟芬那(扎威·阿什顿 Zawe Ashton 饰),某天发现住在同一栋公寓的无名艺术家意外死亡。在偶然走进对方的家中时,约瑟芬那被大量未公之于众的艺术作品所倾倒。她将画作拿给有男女关系的评论家莫弗(杰克·吉伦哈尔 Jake Gyllenhaal 饰),对方敏锐地意识到了这些作品背后的巨大价值。在此之后,所有业内相关人士如同苍蝇闻见了腐肉,对这批神秘作品趋之若鹜。而莫非则开始调查这个名叫维特利尔·迪斯的神秘画家的过往。
维特利尔的画作仿佛具有无穷的魔力和生命,人们被它们吸引,命运也为之所左右……

Video
ID : 1
Format : HEVC
Format/Info : High Efficiency Video Coding
Format profile : Main 10@L5@Main
HDR format : Dolby Vision, Version 1.0, dvhe.08.06, BL+RPU, HDR10 compatible / SMPTE ST 2086, HDR10 compatible
Codec ID : V_MPEGH/ISO/HEVC
Duration : 1 h 52 min
Bit rate : 15.4 Mb/s
Width : 3 840 pixels
Height : 2 160 pixels
Display aspect ratio : 16:9
Frame rate mode : Constant
Frame rate : 24.000 FPS
Color space : YUV
Chroma subsampling : 4:2:0 (Type 2)
Bit depth : 10 bits
Bits/(Pixel*Frame) : 0.077
Stream size : 12.1 GiB (93%)
Default : Yes
Forced : No
Color range : Limited
Color primaries : BT.2020
Transfer characteristics : PQ
Matrix coefficients : BT.2020 non-constant
Mastering display color primaries : Display P3
Mastering display luminance : min: 0.0050 cd/m2, max: 4000 cd/m2
Maximum Content Light Level : 4375 cd/m2
Maximum Frame-Average Light Level : 1129 cd/m2

Audio
ID : 2
Format : E-AC-3 JOC
Format/Info : Enhanced AC-3 with Joint Object Coding
Commercial name : Dolby Digital Plus with Dolby Atmos
Codec ID : A_EAC3
Duration : 1 h 52 min
Bit rate mode : Constant
Bit rate : 768 kb/s
Channel(s) : 6 channels
Channel layout : L R C LFE Ls Rs
Sampling rate : 48.0 kHz
Frame rate : 31.250 FPS (1536 SPF)
Compression mode : Lossy
Stream size : 618 MiB (5%)
Language : English
Service kind : Complete Main
Default : Yes
Forced : No
Complexity index : 16
Number of dynamic objects : 15
Bed channel count : 1 channel
Bed channel configuration : LFE

Text #1
ID : 3
Format : UTF-8
Codec ID : S_TEXT/UTF8
Codec ID/Info : UTF-8 Plain Text
Language : English
Default : No
Forced : No

Text #2
ID : 4
Format : UTF-8
Codec ID : S_TEXT/UTF8
Codec ID/Info : UTF-8 Plain Text
Title : SDH
Language : English
Default : No
Forced : No

Text #3
ID : 5
Format : UTF-8
Codec ID : S_TEXT/UTF8
Codec ID/Info : UTF-8 Plain Text
Language : Arabic
Default : No
Forced : No

Text #4
ID : 6
Format : UTF-8
Codec ID : S_TEXT/UTF8
Codec ID/Info : UTF-8 Plain Text
Title : 简体中字
Language : Chinese

Default : No
Forced : No

Text #5
ID : 7
Format : UTF-8
Codec ID : S_TEXT/UTF8
Codec ID/Info : UTF-8 Plain Text
Title : 繁体中字
Language : Chinese

Default : No
Forced : No

Text #6
ID : 8
Format : UTF-8
Codec ID : S_TEXT/UTF8
Codec ID/Info : UTF-8 Plain Text
Language : Czech
Default : No
Forced : No

Text #7
ID : 9
Format : UTF-8
Codec ID : S_TEXT/UTF8
Codec ID/Info : UTF-8 Plain Text
Language : Danish
Default : No
Forced : No

Text #8
ID : 10
Format : UTF-8
Codec ID : S_TEXT/UTF8
Codec ID/Info : UTF-8 Plain Text
Language : Dutch
Default : No
Forced : No

Text #9
ID : 11
Format : UTF-8
Codec ID : S_TEXT/UTF8
Codec ID/Info : UTF-8 Plain Text
Language : Finnish
Default : No
Forced : No

Text #10
ID : 12
Format : UTF-8
Codec ID : S_TEXT/UTF8
Codec ID/Info : UTF-8 Plain Text
Language : French
Default : No
Forced : No

Text #11
ID : 13
Format : UTF-8
Codec ID : S_TEXT/UTF8
Codec ID/Info : UTF-8 Plain Text
Language : German
Default : No
Forced : No

Text #12
ID : 14
Format : UTF-8
Codec ID : S_TEXT/UTF8
Codec ID/Info : UTF-8 Plain Text
Language : Greek
Default : No
Forced : No

Text #13
ID : 15
Format : UTF-8
Codec ID : S_TEXT/UTF8
Codec ID/Info : UTF-8 Plain Text
Language : Hebrew
Default : No
Forced : No

Text #14
ID : 16
Format : UTF-8
Codec ID : S_TEXT/UTF8
Codec ID/Info : UTF-8 Plain Text
Language : Hungarian
Default : No
Forced : No

Text #15
ID : 17
Format : UTF-8
Codec ID : S_TEXT/UTF8
Codec ID/Info : UTF-8 Plain Text
Language : Indonesian
Default : No
Forced : No

Text #16
ID : 18
Format : UTF-8
Codec ID : S_TEXT/UTF8
Codec ID/Info : UTF-8 Plain Text
Language : Italian
Default : No
Forced : No

Text #17
ID : 19
Format : UTF-8
Codec ID : S_TEXT/UTF8
Codec ID/Info : UTF-8 Plain Text
Language : Japanese
Default : No
Forced : No

Text #18
ID : 20
Format : UTF-8
Codec ID : S_TEXT/UTF8
Codec ID/Info : UTF-8 Plain Text
Language : Korean
Default : No
Forced : No

Text #19
ID : 21
Format : UTF-8
Codec ID : S_TEXT/UTF8
Codec ID/Info : UTF-8 Plain Text
Language : Norwegian Bokmal
Default : No
Forced : No

Text #20
ID : 22
Format : UTF-8
Codec ID : S_TEXT/UTF8
Codec ID/Info : UTF-8 Plain Text
Language : Polish
Default : No
Forced : No

Text #21
ID : 23
Format : UTF-8
Codec ID : S_TEXT/UTF8
Codec ID/Info : UTF-8 Plain Text
Title : Brazilian
Language : Portuguese
Default : No
Forced : No

Text #22
ID : 24
Format : UTF-8
Codec ID : S_TEXT/UTF8
Codec ID/Info : UTF-8 Plain Text
Title : Iberian
Language : Portuguese
Default : No
Forced : No

Text #23
ID : 25
Format : UTF-8
Codec ID : S_TEXT/UTF8
Codec ID/Info : UTF-8 Plain Text
Language : Romanian
Default : No
Forced : No

Text #24
ID : 26
Format : UTF-8
Codec ID : S_TEXT/UTF8
Codec ID/Info : UTF-8 Plain Text
Language : Russian
Default : No
Forced : No

Text #25
ID : 27
Format : UTF-8
Codec ID : S_TEXT/UTF8
Codec ID/Info : UTF-8 Plain Text
Title : Castilian
Language : Spanish
Default : No
Forced : No

Text #26
ID : 28
Format : UTF-8
Codec ID : S_TEXT/UTF8
Codec ID/Info : UTF-8 Plain Text
Title : Latin American
Language : Spanish
Default : No
Forced : No

Text #27
ID : 29
Format : UTF-8
Codec ID : S_TEXT/UTF8
Codec ID/Info : UTF-8 Plain Text
Language : Swedish
Default : No
Forced : No

Text #28
ID : 30
Format : UTF-8
Codec ID : S_TEXT/UTF8
Codec ID/Info : UTF-8 Plain Text
Language : Thai
Default : No
Forced : No

Text #29
ID : 31
Format : UTF-8
Codec ID : S_TEXT/UTF8
Codec ID/Info : UTF-8 Plain Text
Language : Turkish
Default : No
Forced : No

Text #30
ID : 32
Format : UTF-8
Codec ID : S_TEXT/UTF8
Codec ID/Info : UTF-8 Plain Text
Language : Vietnamese
Default : No
Forced : No

推荐使用qBittorrent、uTorrent、BitComet等下载软件,有条件的推荐115或会员软件下载!

下载地址


游客,如果您要查看本帖隐藏内容请回复








上一篇:领地 [简繁中字] / The Territoryl (2022) 4K高清版本下载
下一篇:“白”热:A&F的起与落[简繁中字](2022) 4K高清版本下载
回复

使用道具 举报

您需要登录后才可以回帖 登录 | 立即注册

本版积分规则

精彩图文
Archiver|手机版|TAG|Sitemap|新帖|专题|联系我们:邮箱: 4kjia.com@gmail.com   

4k家园   ©2019