[4K电影] 盗贼 / Bandit (2022) 4K高清版本下载

  [复制链接]

主题

帖子

0

积分

超级版主

Rank: 8Rank: 8

积分
0
 楼主| 发表于 2022-12-5 20:20:47 | 显示全部楼层 |阅读模式
QQ图片20221205195030_副本.png

◎标  题 盗贼
◎片  名 Bandit
◎年  代 2022
◎产  地 加拿大
◎类  别 动作 / 惊悚 / 犯罪
◎语  言 英语
◎上映日期 2022-09-23(美国)
◎IMDb评分 6.3/10 from 4058 users 更新 : 2022-12-03
◎IMDb链接 https://www.imdb.com/title/tt9853500/
◎豆瓣评分 6.2/10 from 267 users 更新 : 2022-12-05
◎豆瓣链接 https://movie.douban.com/subject/35284113/
◎片  长 126分钟
◎导  演 阿伦·安加 Allan Ungar
◎编  剧 克莱格·温曼 Kraig Wenman
◎演  员 梅尔·吉布森 Mel Gibson
       伊丽莎·库斯伯特 Elisha Cuthbert
       奥利薇亚·阿波 Olivia d'Abo
       乔什·杜哈明 Josh Duhamel
       内斯特·卡博内尔 Nestor Carbonell
       海雷·韦伯 Haley Webb
       克莱尔·布朗森 Claire Bronson
       斯温·特梅尔 Swen Temmel
       莱斯莉·斯特拉顿 Leslie Stratton
       基思·阿瑟·鲍顿 Keith Arthur Bolden
       齐雅拉·德安布罗西奥 Chiara D'Ambrosio
       蕾切尔·马卡里兰 Rachael Markarian
       迪伦·弗拉施纳 Dylan Flashner
       杰森·韦尔 Jason Vail
       杰西卡·卢扎 Jessica Luza
       利安德·苏莱曼 Leander Suleiman
       格雷格·科贝特 Greg Corbett
       巴迪·沃特金斯 Buddy Watkins
       查理·萨拉 Charlie Sara
       B·J·温弗里 B.J. Winfrey


◎简  介


   职业罪犯小吉尔伯特·加尔文(杜哈明饰)从美国监狱逃出并越过边境进入加拿大,在加拿大,他化名为罗伯特·怀特曼,有了新的身份。在坠入爱河并结婚后,他声称接受了一份旅行安全顾问的工作,但他大胆的犯罪行为仍在继续。在他向终身黑帮成员汤米(吉布森)寻求投资后,他的事业变得更加复杂,他卷入了加拿大历史上最大的抢劫案,这使他成为跨国追捕的核心人物。

Video
ID : 1
Format : HEVC
Format/Info : High Efficiency Video Coding
Format profile : Main@L5@Main
Codec ID : V_MPEGH/ISO/HEVC
Duration : 2 h 5 min
Bit rate : 14.6 Mb/s
Width : 3 840 pixels
Height : 2 160 pixels
Display aspect ratio : 16:9
Frame rate mode : Constant
Frame rate : 23.976 (24000/1001) FPS
Color space : YUV
Chroma subsampling : 4:2:0
Bit depth : 8 bits
Bits/(Pixel*Frame) : 0.073
Stream size : 12.8 GiB (96%)
Writing library : x265 3.5hy:[Linux][GCC 7.5.0][64 bit] 8bit
Encoding settings : cpuid=1111039 / frame-threads=2 / wpp / no-pmode / no-pme / no-psnr / no-ssim / log-level=2 / input-csp=1 / input-res=3840x2160 / interlace=0 / total-frames=0 / level-idc=0 / high-tier=1 / uhd-bd=0 / ref=4 / no-allow-non-conformance / repeat-headers / annexb / aud / hrd / info / hash=0 / no-temporal-layers / no-open-gop / min-keyint=48 / keyint=48 / gop-lookahead=0 / bframes=4 / b-adapt=2 / b-pyramid / bframe-bias=0 / rc-lookahead=48 / lookahead-slices=4 / scenecut=0 / hist-scenecut=0 / radl=0 / no-splice / no-intra-refresh / ctu=64 / min-cu-size=8 / rect / no-amp / max-tu-size=32 / tu-inter-depth=1 / tu-intra-depth=1 / limit-tu=0 / rdoq-level=2 / dynamic-rd=0.00 / no-ssim-rd / signhide / no-tskip / nr-intra=100 / nr-inter=200 / no-constrained-intra / strong-intra-smoothing / max-merge=3 / limit-refs=3 / limit-modes / me=3 / subme=3 / merange=57 / temporal-mvp / no-frame-dup / no-hme / weightp / no-weightb / no-analyze-src-pics / deblock=0:0 / no-sao / no-sao-non-deblock / rd=4 / selective-sao=0 / no-early-skip / no-rskip / no-fast-intra / no-tskip-fast / no-cu-lossless / no-b-intra / no-splitrd-skip / rdpenalty=0 / psy-rd=0.00 / psy-rdoq=10.00 / no-rd-refine / no-lossless / cbqpoffs=0 / crqpoffs=0 / rc=abr / bitrate=15000 / qcomp=0.60 / qpstep=1 / stats-write=0 / stats-read=2 / cplxblur=20.0 / qblur=0.5 / vbv-maxrate=18000 / vbv-bufsize=12000 / vbv-init=0.6 / min-vbv-fullness=50.0 / max-vbv-fullness=80.0 / vbv-end=0.6 / vbv-end-fr-adj=0.0 / ipratio=1.10 / pbratio=1.00 / aq-mode=0 / aq-strength=0.00 / no-cutree / zone-count=0 / no-strict-cbr / qg-size=32 / rc-grain / qpmax=69 / qpmin=0 / const-vbv / sar=0 / overscan=0 / videoformat=5 / range=0 / colorprim=1 / transfer=1 / colormatrix=1 / chromaloc=0 / display-window=0 / cll=0,0 / min-luma=0 / max-luma=255 / log2-max-poc-lsb=8 / vui-timing-info / vui-hrd-info / no-concatenation / slices=1 / no-opt-qp-pps / no-opt-ref-list-length-pps / no-multi-pass-opt-rps / scenecut-bias=0.05 / hist-threshold=0.03 / no-opt-cu-delta-qp / no-aq-motion / no-hdr10 / no-hdr10-opt / no-dhdr10-opt / no-idr-recovery-sei / analysis-reuse-level=0 / analysis-save-reuse-level=0 / analysis-load-reuse-level=0 / scale-factor=0 / refine-intra=0 / refine-inter=0 / refine-mv=1 / refine-ctu-distortion=0 / no-limit-sao / ctu-info=0 / no-lowpass-dct / refine-analysis-type=0 / copy-pic=1 / max-ausize-factor=1.0 / no-dynamic-refine / no-single-sei / no-hevc-aq / no-svt / no-field / qp-adaptation-range=1.00 / scenecut-aware-qp=0conformance-window-offsets / right=0 / bottom=0 / decoder-max-rate=0 / no-vbv-live-multi-pass
Language : English
Default : Yes
Forced : No
Color range : Limited
Color primaries : BT.709
Transfer characteristics : BT.709
Matrix coefficients : BT.709

Audio
ID : 2
Format : E-AC-3
Format/Info : Enhanced AC-3
Commercial name : Dolby Digital Plus
Codec ID : A_EAC3
Duration : 2 h 5 min
Bit rate mode : Constant
Bit rate : 640 kb/s
Channel(s) : 6 channels
Channel layout : L R C LFE Ls Rs
Sampling rate : 48.0 kHz
Frame rate : 31.250 FPS (1536 SPF)
Compression mode : Lossy
Stream size : 576 MiB (4%)
Title : English
Language : English
Service kind : Complete Main
Default : Yes
Forced : No

Text #1
ID : 3
Format : UTF-8
Codec ID : S_TEXT/UTF8
Codec ID/Info : UTF-8 Plain Text
Duration : 1 h 56 min
Bit rate : 63 b/s
Frame rate : 0.292 FPS
Count of elements : 2050
Stream size : 54.6 KiB (0%)
Language : English
Default : No
Forced : No

Text #2
ID : 4
Format : UTF-8
Codec ID : S_TEXT/UTF8
Codec ID/Info : UTF-8 Plain Text
Duration : 1 h 58 min
Bit rate : 74 b/s
Frame rate : 0.349 FPS
Count of elements : 2480
Stream size : 64.8 KiB (0%)
Title : SDH
Language : English
Default : No
Forced : No

推荐使用qBittorrent、uTorrent、BitComet等下载软件,有条件的推荐115或会员软件下载!

下载地址


游客,如果您要查看本帖隐藏内容请回复







上一篇:酒乡 [简繁中字] Wine Country (2019) 4K高清版本下载
下一篇:德翁·科尔:永远是你的儿子[简繁中字] (2022) 4K高清版本下载
回复

使用道具 举报

0

主题

2

帖子

9

积分

新手上路

Rank: 1

积分
9
发表于 2022-12-6 08:38:18 | 显示全部楼层


Q 776 7 75 829 出 学~~~生 良~~~家 各~~种 类~~型 楼~~凤 信~~息


Q 776 7 75 829 出 学~~~生 良~~~家 各~~种 类~~型 楼~~凤 信~~息


Q 776 7 75 829 出 学~~~生 良~~~家 各~~种 类~~型 楼~~凤 信~~息


Q 776 7 75 829 出 学~~~生 良~~~家 各~~种 类~~型 楼~~凤 信~~息
回复 支持 反对

使用道具 举报

0

主题

1

帖子

6

积分

新手上路

Rank: 1

积分
6
发表于 2022-12-6 10:05:46 | 显示全部楼层
下载 盗贼 / Bandit (2022) 4K高清版本下载
回复 支持 反对

使用道具 举报

0

主题

1

帖子

6

积分

新手上路

Rank: 1

积分
6
发表于 2022-12-6 14:29:43 | 显示全部楼层
A谢谢分享!
回复

使用道具 举报

0

主题

4

帖子

17

积分

新手上路

Rank: 1

积分
17
发表于 2022-12-6 16:06:35 来自手机 | 显示全部楼层
谢谢分享
回复

使用道具 举报

0

主题

4

帖子

17

积分

新手上路

Rank: 1

积分
17
发表于 2022-12-6 16:06:58 来自手机 | 显示全部楼层
感谢分享
回复

使用道具 举报

主题

帖子

0

积分

新手上路

Rank: 1

积分
0
发表于 2022-12-6 17:11:58 | 显示全部楼层

感謝分享
回复

使用道具 举报

0

主题

2

帖子

12

积分

4K家园VIP

Rank: 9Rank: 9Rank: 9

积分
12
发表于 2022-12-6 20:34:46 | 显示全部楼层
感谢分享
回复

使用道具 举报

0

主题

2

帖子

21

积分

新手上路

Rank: 1

积分
21
发表于 2022-12-8 12:19:59 | 显示全部楼层
谢谢分享111
回复 支持 反对

使用道具 举报

0

主题

226

帖子

1016

积分

4K家园VIP

Rank: 9Rank: 9Rank: 9

积分
1016
发表于 2022-12-9 19:55:41 | 显示全部楼层
让 江小白 来看看帖子里藏了啥好东西~~~
回复 支持 反对

使用道具 举报

您需要登录后才可以回帖 登录 | 立即注册

本版积分规则

精彩图文
Archiver|手机版|TAG|Sitemap|新帖|专题|联系我们:邮箱: 4kjia.com@gmail.com   

4k家园   ©2019