[4K电影] 石中剑 [简繁中字] / The Sword in the Stone (1963) 4K高清版本下载

[复制链接]

主题

帖子

0

积分

超级版主

Rank: 8Rank: 8

积分
0
 楼主| 发表于 2022-12-8 13:36:23 | 显示全部楼层 |阅读模式
本帖最后由 最爱4K哟 于 2022-12-8 17:45 编辑

石中剑.png

◎标  题 石中剑
◎译  名 La espada en la piedra
◎片  名 The Sword in the Stone
◎年  代 1963
◎产  地 美国
◎类  别 动画 / 家庭 / 荒诞
◎语  言 英语
◎上映日期 1963-12-25(美国)
◎IMDb评分 7.1/10 from 99299 users 更新 : 2022-12-04
◎IMDb链接 https://www.imdb.com/title/tt0057546/
◎豆瓣评分 8.1/10 from 5247 users 更新 : 2022-12-08
◎豆瓣链接 https://movie.douban.com/subject/1306873/
◎片  长 80分钟
◎导  演 沃夫冈·雷瑟曼 Wolfgang Reitherman
◎编  剧 比尔·皮特 Bill Peet / T·H·怀特 T.H. White
◎演  员 塞巴斯蒂安·卡伯特 Sebastian Cabot
       卡尔·斯温森 Karl Swenson
       瑞奇·索伦森 Rickie Sorensen
       玛莎·温特沃思 Martha Wentworth
       瑟尔·莱文斯克洛福特 Thurl Ravenscroft
       阿兰·纳皮尔 Alan Napier
       James MacDonald James MacDonald
       芭芭拉·乔·艾伦 Barbara Jo Allen
       诺曼·阿尔登 Norman Alden
       朱尼乌斯·马修斯 Junius Matthews


◎简  介


  当小华特从屋顶掉进了梅林法师的家中时,就已注定他传奇的命运了。神奇的梅林法师是如何教导华特的呢?不小心撞进女巫家的华特会不会有危险呢?伦敦的比武大赛就要开始了,谁有能力拔起石头中的剑便能成为国王,这个消息传遍全国,一些武士也希望自己有一天能成为国王,而纷纷到广场拔剑。对小华特而言,他的奇遇才刚开始,他轻而易举的将石中剑拔起,因之成为日后的亚瑟王。

Video
ID : 1
Format : HEVC
Format/Info : High Efficiency Video Coding
Format profile : Main 10@L5@High
HDR format : Dolby Vision, Version 1.0, dvhe.08.06, BL+RPU, HDR10 compatible
Codec ID : V_MPEGH/ISO/HEVC
Duration : 1 h 19 min
Bit rate : 16.6 Mb/s
Width : 3 840 pixels
Height : 2 160 pixels
Display aspect ratio : 16:9
Frame rate mode : Constant
Frame rate : 23.976 (24000/1001) FPS
Color space : YUV
Chroma subsampling : 4:2:0
Bit depth : 10 bits
Bits/(Pixel*Frame) : 0.083
Stream size : 9.22 GiB (79%)
Default : Yes
Forced : No
Color range : Limited
Color primaries : BT.2020
Transfer characteristics : PQ
Matrix coefficients : BT.2020 non-constant

Audio #1
ID : 2
Format : DTS XLL
Format/Info : Digital Theater Systems
Commercial name : DTS-HD Master Audio
Codec ID : A_DTS
Duration : 1 h 19 min
Bit rate mode : Variable
Bit rate : 3 313 kb/s
Channel(s) : 6 channels
Channel layout : C L R Ls Rs LFE
Sampling rate : 48.0 kHz
Frame rate : 93.750 FPS (512 SPF)
Bit depth : 24 bits
Compression mode : Lossless
Delay relative to video : 1 ms
Stream size : 1.84 GiB (16%)
Language : English
Default : Yes
Forced : No

Audio #2
ID : 3
Format : AC-3
Format/Info : Audio Coding 3
Commercial name : Dolby Digital
Codec ID : A_AC3
Duration : 1 h 19 min
Bit rate mode : Constant
Bit rate : 640 kb/s
Channel(s) : 6 channels
Channel layout : L R C LFE Ls Rs
Sampling rate : 48.0 kHz
Frame rate : 31.250 FPS (1536 SPF)
Compression mode : Lossy
Stream size : 364 MiB (3%)
Language : English
Service kind : Complete Main
Default : No
Forced : No

Audio #3
ID : 4
Format : FLAC
Format/Info : Free Lossless Audio Codec
Codec ID : A_FLAC
Duration : 1 h 19 min
Bit rate mode : Variable
Bit rate : 383 kb/s
Channel(s) : 2 channels
Sampling rate : 48.0 kHz
Frame rate : 11.719 FPS (4096 SPF)
Bit depth : 16 bits
Compression mode : Lossless
Delay relative to video : 65 ms
Stream size : 218 MiB (2%)
Writing library : libFLAC 1.3.3 (UTC 2019-08-04)
Language : English
Default : No
Forced : No

Text #1
ID : 5
Format : UTF-8
Codec ID : S_TEXT/UTF8
Codec ID/Info : UTF-8 Plain Text
Duration : 1 h 17 min
Bit rate : 65 b/s
Frame rate : 0.244 FPS
Count of elements : 1139
Stream size : 37.4 KiB (0%)
Language : English
Default : Yes
Forced : No

Text #2
ID : 6
Format : UTF-8
Codec ID : S_TEXT/UTF8
Codec ID/Info : UTF-8 Plain Text
Duration : 1 h 17 min
Bit rate : 70 b/s
Frame rate : 0.280 FPS
Count of elements : 1306
Stream size : 40.3 KiB (0%)
Title : SDH
Language : English
Default : No
Forced : No

Text #3
ID : 7
Format : UTF-8
Codec ID : S_TEXT/UTF8
Codec ID/Info : UTF-8 Plain Text
Duration : 1 h 14 min
Bit rate : 81 b/s
Frame rate : 0.226 FPS
Count of elements : 1009
Stream size : 44.4 KiB (0%)
Language : Arabic
Default : No
Forced : No

Text #4
ID : 8
Format : UTF-8
Codec ID : S_TEXT/UTF8
Codec ID/Info : UTF-8 Plain Text
Duration : 1 h 19 min
Bit rate : 107 b/s
Frame rate : 0.218 FPS
Count of elements : 1040
Stream size : 62.6 KiB (0%)
Language : Bulgarian
Default : No
Forced : No

Text #5
ID : 9
Format : UTF-8
Codec ID : S_TEXT/UTF8
Codec ID/Info : UTF-8 Plain Text
Duration : 1 h 19 min
Bit rate : 55 b/s
Frame rate : 0.229 FPS
Count of elements : 1089
Stream size : 31.9 KiB (0%)
Title : 粤语中字
Language : Chinese

Default : No
Forced : No

Text #6
ID : 10
Format : UTF-8
Codec ID : S_TEXT/UTF8
Codec ID/Info : UTF-8 Plain Text
Duration : 1 h 19 min
Bit rate : 53 b/s
Frame rate : 0.233 FPS
Count of elements : 1109
Stream size : 31.3 KiB (0%)
Title : 简体中字
Language : Chinese

Default : No
Forced : No

Text #7
ID : 11
Format : UTF-8
Codec ID : S_TEXT/UTF8
Codec ID/Info : UTF-8 Plain Text
Duration : 1 h 19 min
Bit rate : 56 b/s
Frame rate : 0.230 FPS
Count of elements : 1097
Stream size : 32.8 KiB (0%)
Title : 繁体中字
Language : Chinese

Default : No
Forced : No

Text #8
ID : 12
Format : UTF-8
Codec ID : S_TEXT/UTF8
Codec ID/Info : UTF-8 Plain Text
Duration : 1 h 19 min
Bit rate : 66 b/s
Frame rate : 0.232 FPS
Count of elements : 1106
Stream size : 38.7 KiB (0%)
Language : Czech
Default : No
Forced : No

Text #9
ID : 13
Format : UTF-8
Codec ID : S_TEXT/UTF8
Codec ID/Info : UTF-8 Plain Text
Duration : 1 h 17 min
Bit rate : 56 b/s
Frame rate : 0.166 FPS
Count of elements : 775
Stream size : 32.4 KiB (0%)
Language : Danish
Default : No
Forced : No

Text #10
ID : 14
Format : UTF-8
Codec ID : S_TEXT/UTF8
Codec ID/Info : UTF-8 Plain Text
Duration : 1 h 19 min
Bit rate : 52 b/s
Frame rate : 0.169 FPS
Count of elements : 802
Stream size : 30.5 KiB (0%)
Language : Dutch
Default : No
Forced : No

Text #11
ID : 15
Format : UTF-8
Codec ID : S_TEXT/UTF8
Codec ID/Info : UTF-8 Plain Text
Duration : 1 h 19 min
Bit rate : 54 b/s
Frame rate : 0.163 FPS
Count of elements : 775
Stream size : 31.4 KiB (0%)
Language : Finnish
Default : No
Forced : No

Text #12
ID : 16
Format : UTF-8
Codec ID : S_TEXT/UTF8
Codec ID/Info : UTF-8 Plain Text
Duration : 1 h 19 min
Bit rate : 69 b/s
Frame rate : 0.180 FPS
Count of elements : 858
Stream size : 40.5 KiB (0%)
Language : French
Default : No
Forced : No

Text #13
ID : 17
Format : UTF-8
Codec ID : S_TEXT/UTF8
Codec ID/Info : UTF-8 Plain Text
Duration : 1 h 19 min
Bit rate : 61 b/s
Frame rate : 0.168 FPS
Count of elements : 800
Stream size : 35.6 KiB (0%)
Language : German
Default : No
Forced : No

Text #14
ID : 18
Format : UTF-8
Codec ID : S_TEXT/UTF8
Codec ID/Info : UTF-8 Plain Text
Duration : 1 h 19 min
Bit rate : 98 b/s
Frame rate : 0.232 FPS
Count of elements : 1106
Stream size : 57.0 KiB (0%)
Language : Greek
Default : No
Forced : No

Text #15
ID : 19
Format : UTF-8
Codec ID : S_TEXT/UTF8
Codec ID/Info : UTF-8 Plain Text
Duration : 1 h 19 min
Bit rate : 72 b/s
Frame rate : 0.203 FPS
Count of elements : 962
Stream size : 41.8 KiB (0%)
Language : Hebrew
Default : No
Forced : No

Text #16
ID : 20
Format : UTF-8
Codec ID : S_TEXT/UTF8
Codec ID/Info : UTF-8 Plain Text
Duration : 1 h 19 min
Bit rate : 63 b/s
Frame rate : 0.233 FPS
Count of elements : 1107
Stream size : 37.0 KiB (0%)
Language : Hungarian
Default : No
Forced : No

Text #17
ID : 21
Format : UTF-8
Codec ID : S_TEXT/UTF8
Codec ID/Info : UTF-8 Plain Text
Duration : 1 h 17 min
Bit rate : 54 b/s
Frame rate : 0.203 FPS
Count of elements : 943
Stream size : 30.9 KiB (0%)
Language : Icelandic
Default : No
Forced : No

Text #18
ID : 22
Format : UTF-8
Codec ID : S_TEXT/UTF8
Codec ID/Info : UTF-8 Plain Text
Duration : 1 h 17 min
Bit rate : 64 b/s
Frame rate : 0.239 FPS
Count of elements : 1116
Stream size : 36.6 KiB (0%)
Language : Indonesian
Default : No
Forced : No

Text #19
ID : 23
Format : UTF-8
Codec ID : S_TEXT/UTF8
Codec ID/Info : UTF-8 Plain Text
Duration : 1 h 19 min
Bit rate : 58 b/s
Frame rate : 0.168 FPS
Count of elements : 796
Stream size : 34.1 KiB (0%)
Language : Italian
Default : No
Forced : No

Text #20
ID : 24
Format : UTF-8
Codec ID : S_TEXT/UTF8
Codec ID/Info : UTF-8 Plain Text
Duration : 1 h 17 min
Bit rate : 51 b/s
Frame rate : 0.211 FPS
Count of elements : 980
Stream size : 29.5 KiB (0%)
Language : Japanese
Default : No
Forced : No

Text #21
ID : 25
Format : UTF-8
Codec ID : S_TEXT/UTF8
Codec ID/Info : UTF-8 Plain Text
Duration : 1 h 19 min
Bit rate : 63 b/s
Frame rate : 0.223 FPS
Count of elements : 1059
Stream size : 37.1 KiB (0%)
Language : Korean
Default : No
Forced : No

Text #22
ID : 26
Format : UTF-8
Codec ID : S_TEXT/UTF8
Codec ID/Info : UTF-8 Plain Text
Duration : 1 h 19 min
Bit rate : 65 b/s
Frame rate : 0.235 FPS
Count of elements : 1119
Stream size : 38.0 KiB (0%)
Language : Malay
Default : No
Forced : No

Text #23
ID : 27
Format : UTF-8
Codec ID : S_TEXT/UTF8
Codec ID/Info : UTF-8 Plain Text
Duration : 1 h 17 min
Bit rate : 53 b/s
Frame rate : 0.166 FPS
Count of elements : 773
Stream size : 30.5 KiB (0%)
Language : Norwegian
Default : No
Forced : No

Text #24
ID : 28
Format : UTF-8
Codec ID : S_TEXT/UTF8
Codec ID/Info : UTF-8 Plain Text
Duration : 1 h 19 min
Bit rate : 52 b/s
Frame rate : 0.228 FPS
Count of elements : 1086
Stream size : 30.8 KiB (0%)
Language : Polish
Default : No
Forced : No

Text #25
ID : 29
Format : UTF-8
Codec ID : S_TEXT/UTF8
Codec ID/Info : UTF-8 Plain Text
Duration : 1 h 19 min
Bit rate : 64 b/s
Frame rate : 0.235 FPS
Count of elements : 1117
Stream size : 37.6 KiB (0%)
Title : Brazilian
Language : Portuguese
Default : No
Forced : No

Text #26
ID : 30
Format : UTF-8
Codec ID : S_TEXT/UTF8
Codec ID/Info : UTF-8 Plain Text
Duration : 1 h 19 min
Bit rate : 57 b/s
Frame rate : 0.201 FPS
Count of elements : 958
Stream size : 33.6 KiB (0%)
Title : Iberian
Language : Portuguese
Default : No
Forced : No

Text #27
ID : 31
Format : UTF-8
Codec ID : S_TEXT/UTF8
Codec ID/Info : UTF-8 Plain Text
Duration : 1 h 19 min
Bit rate : 62 b/s
Frame rate : 0.233 FPS
Count of elements : 1107
Stream size : 36.4 KiB (0%)
Language : Romanian
Default : No
Forced : No

Text #28
ID : 32
Format : UTF-8
Codec ID : S_TEXT/UTF8
Codec ID/Info : UTF-8 Plain Text
Duration : 1 h 19 min
Bit rate : 105 b/s
Frame rate : 0.233 FPS
Count of elements : 1107
Stream size : 61.5 KiB (0%)
Language : Russian
Default : No
Forced : No

Text #29
ID : 33
Format : UTF-8
Codec ID : S_TEXT/UTF8
Codec ID/Info : UTF-8 Plain Text
Duration : 1 h 19 min
Bit rate : 58 b/s
Frame rate : 0.170 FPS
Count of elements : 807
Stream size : 34.0 KiB (0%)
Title : Castilian
Language : Spanish
Default : No
Forced : No

Text #30
ID : 34
Format : UTF-8
Codec ID : S_TEXT/UTF8
Codec ID/Info : UTF-8 Plain Text
Duration : 1 h 19 min
Bit rate : 59 b/s
Frame rate : 0.225 FPS
Count of elements : 1072
Stream size : 34.5 KiB (0%)
Title : Latin American
Language : Spanish
Default : No
Forced : No

Text #31
ID : 35
Format : UTF-8
Codec ID : S_TEXT/UTF8
Codec ID/Info : UTF-8 Plain Text
Duration : 1 h 17 min
Bit rate : 57 b/s
Frame rate : 0.166 FPS
Count of elements : 773
Stream size : 32.5 KiB (0%)
Language : Swedish
Default : No
Forced : No

Text #32
ID : 36
Format : UTF-8
Codec ID : S_TEXT/UTF8
Codec ID/Info : UTF-8 Plain Text
Duration : 1 h 19 min
Bit rate : 124 b/s
Frame rate : 0.232 FPS
Count of elements : 1106
Stream size : 72.5 KiB (0%)
Language : Thai
Default : No
Forced : No

Text #33
ID : 37
Format : UTF-8
Codec ID : S_TEXT/UTF8
Codec ID/Info : UTF-8 Plain Text
Duration : 1 h 19 min
Bit rate : 65 b/s
Frame rate : 0.233 FPS
Count of elements : 1107
Stream size : 37.9 KiB (0%)
Language : Turkish
Default : No
Forced : No

推荐使用qBittorrent、uTorrent、BitComet等下载软件,有条件的推荐115或会员软件下载!

下载地址


游客,如果您要查看本帖隐藏内容请回复










上一篇:风的另一边 [简繁中字] (2018) 4K高清版本下载
下一篇:致所有的男孩:爱你永远 [简繁中字] (2021) 4K高清版本下载
回复

使用道具 举报

主题

帖子

0

积分

新手上路

Rank: 1

积分
0
发表于 2022-12-9 07:35:03 | 显示全部楼层
如果有中文配音就好了
回复 支持 反对

使用道具 举报

0

主题

23

帖子

90

积分

4K家园VIP

Rank: 9Rank: 9Rank: 9

积分
90
发表于 2022-12-19 12:49:03 | 显示全部楼层
谢谢楼主分享
回复 支持 反对

使用道具 举报

您需要登录后才可以回帖 登录 | 立即注册

本版积分规则

精彩图文
Archiver|手机版|TAG|Sitemap|新帖|专题|联系我们:邮箱: 4kjia.com@gmail.com   

4k家园   ©2019