[4K电影] 蕨间访谈:电影版 [简繁中字] (2021) 4K高清版本下载

[复制链接]

主题

帖子

0

积分

超级版主

Rank: 8Rank: 8

积分
0
 楼主| 发表于 2022-12-8 13:53:58 | 显示全部楼层 |阅读模式
本帖最后由 最爱4K哟 于 2022-12-8 17:47 编辑

蕨间访谈:电影版.png

◎译  名 蕨间访谈大电影 / 双蕨之间(台) / 两棵树,两把口(港)
◎片  名 Between Two Ferns: The Movie
◎年  代 2019
◎产  地 美国
◎类  别 喜剧
◎语  言 英语
◎上映日期 2019-09-20(美国)
◎IMDb评分 6.1/10 from 33231 users 更新 : 2022-12-06
◎IMDb链接 https://www.imdb.com/title/tt9398640/
◎豆瓣评分 6.2/10 from 1524 users 更新 : 2022-12-08
◎豆瓣链接 https://movie.douban.com/subject/33400271/
◎片  长 82分钟
◎导  演 斯科特·奥克尔曼 Scott Aukerman
◎编  剧 斯科特·奥克尔曼 Scott Aukerman / 扎克·加利凡纳基斯 Zach Galifianakis
◎演  员 扎克·加利凡纳基斯 Zach Galifianakis
       马修·麦康纳 Matthew McConaughey
       菲尔·亨德里 Phil Hendrie
       玛丽·希尔 Mary Scheer
       马特·贝瑟 Matt Besser
       玛丽·霍兰 Mary Holland
       布鲁斯·威利斯 Bruce Willis
       基努·里维斯 Keanu Reeves
       克洛伊·韦珀 Chloe Wepper
       威尔·法瑞尔 Will Ferrell
       钱斯勒 Chance The Rapper
       劳伦·拉普库斯 Lauren Lapkus
       瑞安·高卢 Ryan Gaul
       拉什达·琼斯 Rashida Jones
       亚当·斯科特 Adam Scott
       约翰·赵 John Cho
       詹森·舒瓦兹曼 Jason Schwartzman
       艾迪·帕特森 Edi Patterson
       布丽·拉尔森 Brie Larson
       大卫·莱特曼 David Letterman
          克莉丝汀·泰根 Chrissy Teigen
        A·D·迈尔斯 A.D. Miles
       约翰·传奇 John Legend
       乔恩·哈姆 Jon Hamm
       海莉·斯坦菲尔德 Hailee Steinfeld
       奥卡菲娜 Awkwafina
       蒂凡尼·哈迪斯 Tiffany Haddish
       布莱克·克拉克 Blake Clark
       保罗·鲁斯特 Paul Rust
       本尼迪克特·康伯巴奇 Benedict Cumberbatch
       泰莎·汤普森 Tessa Thompson
       彼特·丁拉基 Peter Dinklage
       保罗·F·汤普金斯 Paul F. Tompkins
       玛丽·索恩 Mary Sohn
       盖尔·加朵 Gal Gadot
       曼德尔·莫恩 Mandell Maughan
       金格·贡萨加 Ginger Gonzaga
       珍妮·哈达德·汤普金斯 Janie Haddad Tompkins
       菲尔·艾布拉姆斯 Phil Abrams
       罗伯特·R·谢弗 Robert R. Shafer


◎简  介


    扎克·加利凡纳基斯梦想成为一名明星。威尔·法瑞尔发现了扎克的公共电视节目《蕨间访谈》,并将其上传到 Funny or Die 网站,扎克因此成为了风靡一时的笑料。如今,扎克和他的团队正踏上公路旅行,独立完成一部关于名人访谈的剧集,并以此来恢复自己的声誉。《蕨间访谈:电影版》是一部爆笑喜剧片,让观众对扎克·加利凡纳基斯多年来塑造的乖僻却讨喜的形象有了新的认识。本片由斯科特·奥克曼担任导演。

Video
ID : 1
Format : HEVC
Format/Info : High Efficiency Video Coding
Format profile : Main 10@L5@Main
HDR format : Dolby Vision, Version 1.0, dvhe.08.06, BL+RPU, HDR10 compatible / SMPTE ST 2086, HDR10 compatible
Codec ID : V_MPEGH/ISO/HEVC
Duration : 1 h 22 min
Bit rate : 15.4 Mb/s
Width : 3 840 pixels
Height : 2 160 pixels
Display aspect ratio : 16:9
Frame rate mode : Constant
Frame rate : 24.000 FPS
Color space : YUV
Chroma subsampling : 4:2:0 (Type 2)
Bit depth : 10 bits
Bits/(Pixel*Frame) : 0.077
Stream size : 8.88 GiB (94%)
Default : Yes
Forced : No
Color range : Limited
Color primaries : BT.2020
Transfer characteristics : PQ
Matrix coefficients : BT.2020 non-constant
Mastering display color primaries : Display P3
Mastering display luminance : min: 0.0001 cd/m2, max: 1000 cd/m2
Maximum Content Light Level : 1159 cd/m2
Maximum Frame-Average Light Level : 530 cd/m2

Audio
ID : 2
Format : E-AC-3
Format/Info : Enhanced AC-3
Commercial name : Dolby Digital Plus
Codec ID : A_EAC3
Duration : 1 h 22 min
Bit rate mode : Constant
Bit rate : 640 kb/s
Channel(s) : 6 channels
Channel layout : L R C LFE Ls Rs
Sampling rate : 48.0 kHz
Frame rate : 31.250 FPS (1536 SPF)
Compression mode : Lossy
Stream size : 379 MiB (4%)
Language : English
Service kind : Complete Main
Default : Yes
Forced : No

Text #1
ID : 3
Format : UTF-8
Codec ID : S_TEXT/UTF8
Codec ID/Info : UTF-8 Plain Text
Language : English
Default : No
Forced : No

Text #2
ID : 4
Format : UTF-8
Codec ID : S_TEXT/UTF8
Codec ID/Info : UTF-8 Plain Text
Title : SDH
Language : English
Default : No
Forced : No

Text #3
ID : 5
Format : UTF-8
Codec ID : S_TEXT/UTF8
Codec ID/Info : UTF-8 Plain Text
Language : Arabic
Default : No
Forced : No

Text #4
ID : 6
Format : UTF-8
Codec ID : S_TEXT/UTF8
Codec ID/Info : UTF-8 Plain Text
Title : 简体中字
Language : Chinese

Default : No
Forced : No

Text #5
ID : 7
Format : UTF-8
Codec ID : S_TEXT/UTF8
Codec ID/Info : UTF-8 Plain Text
Title : 繁体中字
Language : Chinese

Default : No
Forced : No

Text #6
ID : 8
Format : UTF-8
Codec ID : S_TEXT/UTF8
Codec ID/Info : UTF-8 Plain Text
Language : Czech
Default : No
Forced : No

Text #7
ID : 9
Format : UTF-8
Codec ID : S_TEXT/UTF8
Codec ID/Info : UTF-8 Plain Text
Language : Danish
Default : No
Forced : No

Text #8
ID : 10
Format : UTF-8
Codec ID : S_TEXT/UTF8
Codec ID/Info : UTF-8 Plain Text
Language : Dutch
Default : No
Forced : No

Text #9
ID : 11
Format : UTF-8
Codec ID : S_TEXT/UTF8
Codec ID/Info : UTF-8 Plain Text
Language : Finnish
Default : No
Forced : No

Text #10
ID : 12
Format : UTF-8
Codec ID : S_TEXT/UTF8
Codec ID/Info : UTF-8 Plain Text
Language : French
Default : No
Forced : No

Text #11
ID : 13
Format : UTF-8
Codec ID : S_TEXT/UTF8
Codec ID/Info : UTF-8 Plain Text
Language : German
Default : No
Forced : No

Text #12
ID : 14
Format : UTF-8
Codec ID : S_TEXT/UTF8
Codec ID/Info : UTF-8 Plain Text
Language : Greek
Default : No
Forced : No

Text #13
ID : 15
Format : UTF-8
Codec ID : S_TEXT/UTF8
Codec ID/Info : UTF-8 Plain Text
Language : Hebrew
Default : No
Forced : No

Text #14
ID : 16
Format : UTF-8
Codec ID : S_TEXT/UTF8
Codec ID/Info : UTF-8 Plain Text
Language : Hindi
Default : No
Forced : No

Text #15
ID : 17
Format : UTF-8
Codec ID : S_TEXT/UTF8
Codec ID/Info : UTF-8 Plain Text
Language : Hungarian
Default : No
Forced : No

Text #16
ID : 18
Format : UTF-8
Codec ID : S_TEXT/UTF8
Codec ID/Info : UTF-8 Plain Text
Language : Indonesian
Default : No
Forced : No

Text #17
ID : 19
Format : UTF-8
Codec ID : S_TEXT/UTF8
Codec ID/Info : UTF-8 Plain Text
Language : Italian
Default : No
Forced : No

Text #18
ID : 20
Format : UTF-8
Codec ID : S_TEXT/UTF8
Codec ID/Info : UTF-8 Plain Text
Language : Japanese
Default : No
Forced : No

Text #19
ID : 21
Format : UTF-8
Codec ID : S_TEXT/UTF8
Codec ID/Info : UTF-8 Plain Text
Language : Korean
Default : No
Forced : No

Text #20
ID : 22
Format : UTF-8
Codec ID : S_TEXT/UTF8
Codec ID/Info : UTF-8 Plain Text
Language : Norwegian Bokmal
Default : No
Forced : No

Text #21
ID : 23
Format : UTF-8
Codec ID : S_TEXT/UTF8
Codec ID/Info : UTF-8 Plain Text
Language : Polish
Default : No
Forced : No

Text #22
ID : 24
Format : UTF-8
Codec ID : S_TEXT/UTF8
Codec ID/Info : UTF-8 Plain Text
Title : Brazilian
Language : Portuguese
Default : No
Forced : No

Text #23
ID : 25
Format : UTF-8
Codec ID : S_TEXT/UTF8
Codec ID/Info : UTF-8 Plain Text
Title : Iberian
Language : Portuguese
Default : No
Forced : No

Text #24
ID : 26
Format : UTF-8
Codec ID : S_TEXT/UTF8
Codec ID/Info : UTF-8 Plain Text
Language : Romanian
Default : No
Forced : No

Text #25
ID : 27
Format : UTF-8
Codec ID : S_TEXT/UTF8
Codec ID/Info : UTF-8 Plain Text
Language : Russian
Default : No
Forced : No

Text #26
ID : 28
Format : UTF-8
Codec ID : S_TEXT/UTF8
Codec ID/Info : UTF-8 Plain Text
Title : Castilian
Language : Spanish
Default : No
Forced : No

Text #27
ID : 29
Format : UTF-8
Codec ID : S_TEXT/UTF8
Codec ID/Info : UTF-8 Plain Text
Title : Latin American
Language : Spanish
Default : No
Forced : No

Text #28
ID : 30
Format : UTF-8
Codec ID : S_TEXT/UTF8
Codec ID/Info : UTF-8 Plain Text
Language : Swedish
Default : No
Forced : No

Text #29
ID : 31
Format : UTF-8
Codec ID : S_TEXT/UTF8
Codec ID/Info : UTF-8 Plain Text
Language : Thai
Default : No
Forced : No

Text #30
ID : 32
Format : UTF-8
Codec ID : S_TEXT/UTF8
Codec ID/Info : UTF-8 Plain Text
Language : Turkish
Default : No
Forced : No

Text #31
ID : 33
Format : UTF-8
Codec ID : S_TEXT/UTF8
Codec ID/Info : UTF-8 Plain Text
Language : Vietnamese
Default : No
Forced : No

推荐使用qBittorrent、uTorrent、BitComet等下载软件,有条件的推荐115或会员软件下载!

下载地址


游客,如果您要查看本帖隐藏内容请回复





上一篇:致所有的男孩:爱你永远 [简繁中字] (2021) 4K高清版本下载
下一篇:饶恕我们的罪 [简繁中字] (2022) 4K高清版本下载
回复

使用道具 举报

您需要登录后才可以回帖 登录 | 立即注册

本版积分规则

精彩图文
Archiver|手机版|TAG|Sitemap|新帖|专题|联系我们:邮箱: 4kjia.com@gmail.com   

4k家园   ©2019