[4K电影] 饶恕我们的罪 [简繁中字] (2022) 4K高清版本下载

[复制链接]

主题

帖子

0

积分

超级版主

Rank: 8Rank: 8

积分
0
 楼主| 发表于 2022-12-8 17:02:21 | 显示全部楼层 |阅读模式
本帖最后由 最爱4K哟 于 2022-12-8 17:48 编辑

饶恕我们的罪.png

◎标  题 饶恕我们的罪
◎片  名 Forgive Us Our Trespasses
◎年  代 2022
◎产  地 美国
◎类  别 剧情 / 短片
◎语  言 英语
◎上映日期 2022-02-17(美国)
◎IMDb评分 6.4/10 from 1709 users 更新 : 2022-12-07
◎IMDb链接 https://www.imdb.com/title/tt17162524/
◎豆瓣评分 5.7/10 from 104 users 更新 : 2022-12-08
◎豆瓣链接 https://movie.douban.com/subject/35760151/
◎片  长 17分钟
◎演  员 汉娜克·塔波特 Hanneke Talbot


◎简  介


  在纳粹追捕和杀害残障人士的过程中,一名肢体残疾的男孩在逃命时做出了一个大胆的决定

Video
ID : 1
Format : HEVC
Format/Info : High Efficiency Video Coding
Format profile : Main 10@L5@Main
HDR format : Dolby Vision, Version 1.0, dvhe.08.06, BL+RPU, HDR10 compatible / SMPTE ST 2086, HDR10 compatible
Codec ID : V_MPEGH/ISO/HEVC
Duration : 13 min 1 s
Bit rate : 12.6 Mb/s
Width : 3 840 pixels
Height : 2 160 pixels
Display aspect ratio : 16:9
Frame rate mode : Constant
Frame rate : 23.976 (24000/1001) FPS
Color space : YUV
Chroma subsampling : 4:2:0 (Type 2)
Bit depth : 10 bits
Bits/(Pixel*Frame) : 0.063
Stream size : 1.15 GiB (95%)
Default : Yes
Forced : No
Color range : Limited
Color primaries : BT.2020
Transfer characteristics : PQ
Matrix coefficients : BT.2020 non-constant
Mastering display color primaries : Display P3
Mastering display luminance : min: 0.0001 cd/m2, max: 1000 cd/m2
Maximum Content Light Level : 1010 cd/m2
Maximum Frame-Average Light Level : 97 cd/m2

Audio
ID : 2
Format : E-AC-3
Format/Info : Enhanced AC-3
Commercial name : Dolby Digital Plus
Codec ID : A_EAC3
Duration : 13 min 1 s
Bit rate mode : Constant
Bit rate : 640 kb/s
Channel(s) : 6 channels
Channel layout : L R C LFE Ls Rs
Sampling rate : 48.0 kHz
Frame rate : 31.250 FPS (1536 SPF)
Compression mode : Lossy
Stream size : 59.6 MiB (5%)
Language : English
Service kind : Complete Main
Default : Yes
Forced : No

Text #1
ID : 3
Format : UTF-8
Codec ID : S_TEXT/UTF8
Codec ID/Info : UTF-8 Plain Text
Duration : 8 min 16 s
Bit rate : 39 b/s
Frame rate : 0.129 FPS
Count of elements : 64
Stream size : 2.40 KiB (0%)
Language : English
Default : No
Forced : No

Text #2
ID : 4
Format : UTF-8
Codec ID : S_TEXT/UTF8
Codec ID/Info : UTF-8 Plain Text
Duration : 10 min 10 s
Bit rate : 53 b/s
Frame rate : 0.184 FPS
Count of elements : 112
Stream size : 3.95 KiB (0%)
Title : SDH
Language : English
Default : No
Forced : No

Text #3
ID : 5
Format : UTF-8
Codec ID : S_TEXT/UTF8
Codec ID/Info : UTF-8 Plain Text
Duration : 12 min 48 s
Bit rate : 41 b/s
Frame rate : 0.100 FPS
Count of elements : 77
Stream size : 3.93 KiB (0%)
Language : Arabic
Default : No
Forced : No

Text #4
ID : 6
Format : UTF-8
Codec ID : S_TEXT/UTF8
Codec ID/Info : UTF-8 Plain Text
Duration : 12 min 48 s
Bit rate : 24 b/s
Frame rate : 0.099 FPS
Count of elements : 76
Stream size : 2.26 KiB (0%)
Title : 简体中字
Language : Chinese

Default : No
Forced : No

Text #5
ID : 7
Format : UTF-8
Codec ID : S_TEXT/UTF8
Codec ID/Info : UTF-8 Plain Text
Duration : 12 min 48 s
Bit rate : 23 b/s
Frame rate : 0.100 FPS
Count of elements : 77
Stream size : 2.23 KiB (0%)
Title : 繁体中字
Language : Chinese

Default : No
Forced : No

Text #6
ID : 8
Format : UTF-8
Codec ID : S_TEXT/UTF8
Codec ID/Info : UTF-8 Plain Text
Duration : 12 min 48 s
Bit rate : 20 b/s
Frame rate : 0.100 FPS
Count of elements : 77
Stream size : 1.97 KiB (0%)
Language : Croatian
Default : No
Forced : No

Text #7
ID : 9
Format : UTF-8
Codec ID : S_TEXT/UTF8
Codec ID/Info : UTF-8 Plain Text
Duration : 10 min 7 s
Bit rate : 42 b/s
Frame rate : 0.161 FPS
Count of elements : 98
Stream size : 3.16 KiB (0%)
Language : Czech
Default : No
Forced : No

Text #8
ID : 10
Format : UTF-8
Codec ID : S_TEXT/UTF8
Codec ID/Info : UTF-8 Plain Text
Duration : 12 min 48 s
Bit rate : 22 b/s
Frame rate : 0.092 FPS
Count of elements : 71
Stream size : 2.10 KiB (0%)
Language : Danish
Default : No
Forced : No

Text #9
ID : 11
Format : UTF-8
Codec ID : S_TEXT/UTF8
Codec ID/Info : UTF-8 Plain Text
Duration : 10 min 7 s
Bit rate : 30 b/s
Frame rate : 0.112 FPS
Count of elements : 68
Stream size : 2.28 KiB (0%)
Language : Dutch
Default : No
Forced : No

Text #10
ID : 12
Format : UTF-8
Codec ID : S_TEXT/UTF8
Codec ID/Info : UTF-8 Plain Text
Duration : 12 min 48 s
Bit rate : 23 b/s
Frame rate : 0.095 FPS
Count of elements : 73
Stream size : 2.24 KiB (0%)
Language : Finnish
Default : No
Forced : No

Text #11
ID : 13
Format : UTF-8
Codec ID : S_TEXT/UTF8
Codec ID/Info : UTF-8 Plain Text
Duration : 10 min 7 s
Bit rate : 48 b/s
Frame rate : 0.163 FPS
Count of elements : 99
Stream size : 3.61 KiB (0%)
Language : French
Default : No
Forced : No

Text #12
ID : 14
Format : UTF-8
Codec ID : S_TEXT/UTF8
Codec ID/Info : UTF-8 Plain Text
Duration : 12 min 45 s
Bit rate : 24 b/s
Frame rate : 0.093 FPS
Count of elements : 71
Stream size : 2.27 KiB (0%)
Language : German
Default : No
Forced : No

Text #13
ID : 15
Format : UTF-8
Codec ID : S_TEXT/UTF8
Codec ID/Info : UTF-8 Plain Text
Duration : 12 min 48 s
Bit rate : 40 b/s
Frame rate : 0.100 FPS
Count of elements : 77
Stream size : 3.79 KiB (0%)
Language : Greek
Default : No
Forced : No

Text #14
ID : 16
Format : UTF-8
Codec ID : S_TEXT/UTF8
Codec ID/Info : UTF-8 Plain Text
Duration : 12 min 48 s
Bit rate : 37 b/s
Frame rate : 0.100 FPS
Count of elements : 77
Stream size : 3.56 KiB (0%)
Language : Hebrew
Default : No
Forced : No

Text #15
ID : 17
Format : UTF-8
Codec ID : S_TEXT/UTF8
Codec ID/Info : UTF-8 Plain Text
Duration : 12 min 48 s
Bit rate : 90 b/s
Frame rate : 0.143 FPS
Count of elements : 110
Stream size : 8.48 KiB (0%)
Language : Hindi
Default : No
Forced : No

Text #16
ID : 18
Format : UTF-8
Codec ID : S_TEXT/UTF8
Codec ID/Info : UTF-8 Plain Text
Duration : 10 min 7 s
Bit rate : 46 b/s
Frame rate : 0.168 FPS
Count of elements : 102
Stream size : 3.48 KiB (0%)
Language : Hungarian
Default : No
Forced : No

Text #17
ID : 19
Format : UTF-8
Codec ID : S_TEXT/UTF8
Codec ID/Info : UTF-8 Plain Text
Duration : 12 min 48 s
Bit rate : 48 b/s
Frame rate : 0.153 FPS
Count of elements : 118
Stream size : 4.54 KiB (0%)
Language : Indonesian
Default : No
Forced : No

Text #18
ID : 20
Format : UTF-8
Codec ID : S_TEXT/UTF8
Codec ID/Info : UTF-8 Plain Text
Duration : 10 min 10 s
Bit rate : 67 b/s
Frame rate : 0.193 FPS
Count of elements : 118
Stream size : 5.01 KiB (0%)
Language : Italian
Default : No
Forced : No

Text #19
ID : 21
Format : UTF-8
Codec ID : S_TEXT/UTF8
Codec ID/Info : UTF-8 Plain Text
Duration : 12 min 48 s
Bit rate : 24 b/s
Frame rate : 0.095 FPS
Count of elements : 73
Stream size : 2.26 KiB (0%)
Language : Japanese
Default : No
Forced : No

Text #20
ID : 22
Format : UTF-8
Codec ID : S_TEXT/UTF8
Codec ID/Info : UTF-8 Plain Text
Duration : 12 min 48 s
Bit rate : 29 b/s
Frame rate : 0.100 FPS
Count of elements : 77
Stream size : 2.77 KiB (0%)
Language : Korean
Default : No
Forced : No

Text #21
ID : 23
Format : UTF-8
Codec ID : S_TEXT/UTF8
Codec ID/Info : UTF-8 Plain Text
Duration : 12 min 48 s
Bit rate : 23 b/s
Frame rate : 0.095 FPS
Count of elements : 73
Stream size : 2.19 KiB (0%)
Language : Malay
Default : No
Forced : No

Text #22
ID : 24
Format : UTF-8
Codec ID : S_TEXT/UTF8
Codec ID/Info : UTF-8 Plain Text
Duration : 12 min 48 s
Bit rate : 21 b/s
Frame rate : 0.095 FPS
Count of elements : 73
Stream size : 2.04 KiB (0%)
Language : Norwegian Bokmal
Default : No
Forced : No

Text #23
ID : 25
Format : UTF-8
Codec ID : S_TEXT/UTF8
Codec ID/Info : UTF-8 Plain Text
Duration : 10 min 5 s
Bit rate : 33 b/s
Frame rate : 0.154 FPS
Count of elements : 93
Stream size : 2.48 KiB (0%)
Language : Polish
Default : No
Forced : No

Text #24
ID : 26
Format : UTF-8
Codec ID : S_TEXT/UTF8
Codec ID/Info : UTF-8 Plain Text
Duration : 10 min 7 s
Bit rate : 34 b/s
Frame rate : 0.138 FPS
Count of elements : 84
Stream size : 2.59 KiB (0%)
Title : Brazilian
Language : Portuguese
Default : No
Forced : No

Text #25
ID : 27
Format : UTF-8
Codec ID : S_TEXT/UTF8
Codec ID/Info : UTF-8 Plain Text
Duration : 10 min 16 s
Bit rate : 27 b/s
Frame rate : 0.114 FPS
Count of elements : 70
Stream size : 2.11 KiB (0%)
Title : Iberian
Language : Portuguese
Default : No
Forced : No

Text #26
ID : 28
Format : UTF-8
Codec ID : S_TEXT/UTF8
Codec ID/Info : UTF-8 Plain Text
Duration : 12 min 48 s
Bit rate : 26 b/s
Frame rate : 0.092 FPS
Count of elements : 71
Stream size : 2.48 KiB (0%)
Language : Romanian
Default : No
Forced : No

Text #27
ID : 29
Format : UTF-8
Codec ID : S_TEXT/UTF8
Codec ID/Info : UTF-8 Plain Text
Duration : 10 min 7 s
Bit rate : 72 b/s
Frame rate : 0.171 FPS
Count of elements : 104
Stream size : 5.39 KiB (0%)
Language : Russian
Default : No
Forced : No

Text #28
ID : 30
Format : UTF-8
Codec ID : S_TEXT/UTF8
Codec ID/Info : UTF-8 Plain Text
Duration : 12 min 48 s
Bit rate : 23 b/s
Frame rate : 0.100 FPS
Count of elements : 77
Stream size : 2.17 KiB (0%)
Title : Castilian
Language : Spanish
Default : No
Forced : No

Text #29
ID : 31
Format : UTF-8
Codec ID : S_TEXT/UTF8
Codec ID/Info : UTF-8 Plain Text
Duration : 10 min 6 s
Bit rate : 32 b/s
Frame rate : 0.133 FPS
Count of elements : 81
Stream size : 2.39 KiB (0%)
Title : Latin American
Language : Spanish
Default : No
Forced : No

Text #30
ID : 32
Format : UTF-8
Codec ID : S_TEXT/UTF8
Codec ID/Info : UTF-8 Plain Text
Duration : 12 min 48 s
Bit rate : 25 b/s
Frame rate : 0.098 FPS
Count of elements : 75
Stream size : 2.36 KiB (0%)
Language : Swedish
Default : No
Forced : No

Text #31
ID : 33
Format : UTF-8
Codec ID : S_TEXT/UTF8
Codec ID/Info : UTF-8 Plain Text
Duration : 10 min 7 s
Bit rate : 116 b/s
Frame rate : 0.171 FPS
Count of elements : 104
Stream size : 8.62 KiB (0%)
Language : Thai
Default : No
Forced : No

Text #32
ID : 34
Format : UTF-8
Codec ID : S_TEXT/UTF8
Codec ID/Info : UTF-8 Plain Text
Duration : 12 min 48 s
Bit rate : 57 b/s
Frame rate : 0.178 FPS
Count of elements : 137
Stream size : 5.44 KiB (0%)
Language : Turkish
Default : No
Forced : No

Text #33
ID : 35
Format : UTF-8
Codec ID : S_TEXT/UTF8
Codec ID/Info : UTF-8 Plain Text
Duration : 10 min 7 s
Bit rate : 68 b/s
Frame rate : 0.171 FPS
Count of elements : 104
Stream size : 5.06 KiB (0%)
Language : Ukrainian
Default : No
Forced : No

Text #34
ID : 36
Format : UTF-8
Codec ID : S_TEXT/UTF8
Codec ID/Info : UTF-8 Plain Text
Duration : 12 min 48 s
Bit rate : 32 b/s
Frame rate : 0.098 FPS
Count of elements : 75
Stream size : 3.08 KiB (0%)
Language : Vietnamese
Default : No
Forced : No

推荐使用qBittorrent、uTorrent、BitComet等下载软件,有条件的推荐115或会员软件下载!

下载地址


游客,如果您要查看本帖隐藏内容请回复







上一篇:蕨间访谈:电影版 [简繁中字] (2021) 4K高清版本下载
下一篇:高飞鸟 [简繁中字] / High Flying Bird (2019) 4K高清版本下载
回复

使用道具 举报

0

主题

1

帖子

6

积分

新手上路

Rank: 1

积分
6
发表于 7 天前 | 显示全部楼层
讚啦,感謝大大分享,我要來下載下載了
回复 支持 反对

使用道具 举报

您需要登录后才可以回帖 登录 | 立即注册

本版积分规则

精彩图文
Archiver|手机版|TAG|Sitemap|新帖|专题|联系我们:邮箱: 4kjia.com@gmail.com   

4k家园   ©2019