[4K电影] 高飞鸟 [简繁中字] / High Flying Bird (2019) 4K高清版本下载

[复制链接]

主题

帖子

0

积分

超级版主

Rank: 8Rank: 8

积分
0
 楼主| 发表于 2022-12-8 17:07:55 | 显示全部楼层 |阅读模式
本帖最后由 最爱4K哟 于 2022-12-8 17:49 编辑

高飞鸟.png

◎译  名 空中飞鸟(台) / 球高志远(港)
◎片  名 High Flying Bird
◎年  代 2019
◎产  地 美国
◎类  别 剧情 / 运动
◎语  言 英语
◎上映日期 2019-02-08(美国)
◎IMDb评分 6.2/10 from 8779 users 更新 : 2022-12-07
◎IMDb链接 https://www.imdb.com/title/tt8128188/
◎豆瓣评分 6.1/10 from 743 users 更新 : 2022-12-07
◎豆瓣链接 https://movie.douban.com/subject/30141342/
◎片  长 90分钟
◎导  演 史蒂文·索德伯格 Steven Soderbergh
◎编  剧 塔瑞尔·麦卡尼 Tarell McCraney
◎演  员 安德烈·霍兰 Andre Holland
       莎姬·贝兹 Zazie Beetz
       比尔·杜克 Bill Duke
       梅尔文·格雷格 Melvin Gregg
       索尼娅·孙 Sonja Sohn
       扎克瑞·昆图 Zachary Quinto
       凯尔·麦克拉克伦 Kyle MacLachlan
       格伦·弗莱舍尔 Glenn Fleshler
       凯莱布·麦克劳克林 Caleb McLaughlin
       米歇尔·洪 Michelle Ang
       杰瑞尔·普雷斯科特 Jeryl Prescott
       多诺万·米切尔 Donovan Mitchell
       安德烈·霍兰 Andre Holland
       史蒂文·索德伯格 Steven Soderbergh
       史蒂文·索德伯格 Steven Soderbergh


◎简  介


  史蒂文·索德伯格将执导全新影片[高飞鸟](High Flying Bird,暂译)。塔瑞尔·麦卡尼([月光男孩])打造剧本,安德烈·霍兰将加盟该片。故事讲述在NBA停止时期,体育经纪人迪安(安德烈·霍兰饰)向新秀客户埃里克介绍了一个引人入胜但颇具争议的商业机会。该片将于本月展开拍摄。

Video
ID : 1
Format : HEVC
Format/Info : High Efficiency Video Coding
Format profile : Main 10@L5@Main
HDR format : Dolby Vision, Version 1.0, dvhe.08.06, BL+RPU, HDR10 compatible / SMPTE ST 2086, HDR10 compatible
Codec ID : V_MPEGH/ISO/HEVC
Duration : 1 h 30 min
Bit rate : 12.6 Mb/s
Width : 3 840 pixels
Height : 2 160 pixels
Display aspect ratio : 16:9
Frame rate mode : Constant
Frame rate : 24.000 FPS
Color space : YUV
Chroma subsampling : 4:2:0 (Type 2)
Bit depth : 10 bits
Bits/(Pixel*Frame) : 0.063
Stream size : 7.94 GiB (95%)
Default : Yes
Forced : No
Color range : Limited
Color primaries : BT.2020
Transfer characteristics : PQ
Matrix coefficients : BT.2020 non-constant
Mastering display color primaries : Display P3
Mastering display luminance : min: 0.0001 cd/m2, max: 1000 cd/m2
Maximum Content Light Level : 738 cd/m2
Maximum Frame-Average Light Level : 166 cd/m2

Audio
ID : 2
Format : E-AC-3
Format/Info : Enhanced AC-3
Commercial name : Dolby Digital Plus
Codec ID : A_EAC3
Duration : 1 h 30 min
Bit rate mode : Constant
Bit rate : 640 kb/s
Channel(s) : 6 channels
Channel layout : L R C LFE Ls Rs
Sampling rate : 48.0 kHz
Frame rate : 31.250 FPS (1536 SPF)
Compression mode : Lossy
Stream size : 412 MiB (5%)
Language : English
Service kind : Complete Main
Default : Yes
Forced : No

Text #1
ID : 3
Format : UTF-8
Codec ID : S_TEXT/UTF8
Codec ID/Info : UTF-8 Plain Text
Duration : 1 h 27 min
Bit rate : 92 b/s
Frame rate : 0.300 FPS
Count of elements : 1580
Stream size : 59.7 KiB (0%)
Language : English
Default : No
Forced : No

Text #2
ID : 4
Format : UTF-8
Codec ID : S_TEXT/UTF8
Codec ID/Info : UTF-8 Plain Text
Duration : 1 h 29 min
Bit rate : 99 b/s
Frame rate : 0.317 FPS
Count of elements : 1707
Stream size : 65.3 KiB (0%)
Title : SDH
Language : English
Default : No
Forced : No

Text #3
ID : 5
Format : UTF-8
Codec ID : S_TEXT/UTF8
Codec ID/Info : UTF-8 Plain Text
Duration : 1 h 29 min
Bit rate : 156 b/s
Frame rate : 0.304 FPS
Count of elements : 1636
Stream size : 103 KiB (0%)
Language : Arabic
Default : No
Forced : No

Text #4
ID : 6
Format : UTF-8
Codec ID : S_TEXT/UTF8
Codec ID/Info : UTF-8 Plain Text
Duration : 1 h 29 min
Bit rate : 91 b/s
Frame rate : 0.304 FPS
Count of elements : 1640
Stream size : 60.4 KiB (0%)
Title : 简体中字
Language : Chinese

Default : No
Forced : No

Text #5
ID : 7
Format : UTF-8
Codec ID : S_TEXT/UTF8
Codec ID/Info : UTF-8 Plain Text
Duration : 1 h 29 min
Bit rate : 92 b/s
Frame rate : 0.304 FPS
Count of elements : 1640
Stream size : 60.6 KiB (0%)
Title : 繁体中字
Language : Chinese

Default : No
Forced : No

Text #6
ID : 8
Format : UTF-8
Codec ID : S_TEXT/UTF8
Codec ID/Info : UTF-8 Plain Text
Duration : 1 h 29 min
Bit rate : 83 b/s
Frame rate : 0.303 FPS
Count of elements : 1632
Stream size : 55.2 KiB (0%)
Language : Czech
Default : No
Forced : No

Text #7
ID : 9
Format : UTF-8
Codec ID : S_TEXT/UTF8
Codec ID/Info : UTF-8 Plain Text
Duration : 1 h 29 min
Bit rate : 84 b/s
Frame rate : 0.285 FPS
Count of elements : 1535
Stream size : 55.4 KiB (0%)
Language : Danish
Default : No
Forced : No

Text #8
ID : 10
Format : UTF-8
Codec ID : S_TEXT/UTF8
Codec ID/Info : UTF-8 Plain Text
Duration : 1 h 29 min
Bit rate : 88 b/s
Frame rate : 0.283 FPS
Count of elements : 1526
Stream size : 57.9 KiB (0%)
Language : Dutch
Default : No
Forced : No

Text #9
ID : 11
Format : UTF-8
Codec ID : S_TEXT/UTF8
Codec ID/Info : UTF-8 Plain Text
Duration : 1 h 29 min
Bit rate : 80 b/s
Frame rate : 0.245 FPS
Count of elements : 1320
Stream size : 53.0 KiB (0%)
Language : Finnish
Default : No
Forced : No

Text #10
ID : 12
Format : UTF-8
Codec ID : S_TEXT/UTF8
Codec ID/Info : UTF-8 Plain Text
Duration : 1 h 29 min
Bit rate : 76 b/s
Frame rate : 0.300 FPS
Count of elements : 1615
Stream size : 50.1 KiB (0%)
Language : French
Default : No
Forced : No

Text #11
ID : 13
Format : UTF-8
Codec ID : S_TEXT/UTF8
Codec ID/Info : UTF-8 Plain Text
Duration : 1 h 29 min
Bit rate : 80 b/s
Frame rate : 0.306 FPS
Count of elements : 1649
Stream size : 52.9 KiB (0%)
Language : German
Default : No
Forced : No

Text #12
ID : 14
Format : UTF-8
Codec ID : S_TEXT/UTF8
Codec ID/Info : UTF-8 Plain Text
Duration : 1 h 29 min
Bit rate : 133 b/s
Frame rate : 0.286 FPS
Count of elements : 1542
Stream size : 87.6 KiB (0%)
Language : Greek
Default : No
Forced : No

Text #13
ID : 15
Format : UTF-8
Codec ID : S_TEXT/UTF8
Codec ID/Info : UTF-8 Plain Text
Duration : 1 h 29 min
Bit rate : 137 b/s
Frame rate : 0.303 FPS
Count of elements : 1635
Stream size : 90.6 KiB (0%)
Language : Hebrew
Default : No
Forced : No

Text #14
ID : 16
Format : UTF-8
Codec ID : S_TEXT/UTF8
Codec ID/Info : UTF-8 Plain Text
Duration : 1 h 29 min
Bit rate : 91 b/s
Frame rate : 0.305 FPS
Count of elements : 1641
Stream size : 60.2 KiB (0%)
Language : Hungarian
Default : No
Forced : No

Text #15
ID : 17
Format : UTF-8
Codec ID : S_TEXT/UTF8
Codec ID/Info : UTF-8 Plain Text
Duration : 1 h 29 min
Bit rate : 83 b/s
Frame rate : 0.288 FPS
Count of elements : 1553
Stream size : 54.6 KiB (0%)
Language : Indonesian
Default : No
Forced : No

Text #16
ID : 18
Format : UTF-8
Codec ID : S_TEXT/UTF8
Codec ID/Info : UTF-8 Plain Text
Duration : 1 h 29 min
Bit rate : 83 b/s
Frame rate : 0.265 FPS
Count of elements : 1429
Stream size : 55.1 KiB (0%)
Language : Italian
Default : No
Forced : No

Text #17
ID : 19
Format : UTF-8
Codec ID : S_TEXT/UTF8
Codec ID/Info : UTF-8 Plain Text
Duration : 1 h 29 min
Bit rate : 80 b/s
Frame rate : 0.278 FPS
Count of elements : 1499
Stream size : 52.6 KiB (0%)
Language : Japanese
Default : No
Forced : No

Text #18
ID : 20
Format : UTF-8
Codec ID : S_TEXT/UTF8
Codec ID/Info : UTF-8 Plain Text
Duration : 1 h 29 min
Bit rate : 108 b/s
Frame rate : 0.305 FPS
Count of elements : 1645
Stream size : 71.1 KiB (0%)
Language : Korean
Default : No
Forced : No

Text #19
ID : 21
Format : UTF-8
Codec ID : S_TEXT/UTF8
Codec ID/Info : UTF-8 Plain Text
Duration : 1 h 29 min
Bit rate : 79 b/s
Frame rate : 0.303 FPS
Count of elements : 1631
Stream size : 52.0 KiB (0%)
Language : Norwegian Bokmal
Default : No
Forced : No

Text #20
ID : 22
Format : UTF-8
Codec ID : S_TEXT/UTF8
Codec ID/Info : UTF-8 Plain Text
Duration : 1 h 29 min
Bit rate : 75 b/s
Frame rate : 0.285 FPS
Count of elements : 1537
Stream size : 49.8 KiB (0%)
Language : Polish
Default : No
Forced : No

Text #21
ID : 23
Format : UTF-8
Codec ID : S_TEXT/UTF8
Codec ID/Info : UTF-8 Plain Text
Duration : 1 h 29 min
Bit rate : 87 b/s
Frame rate : 0.296 FPS
Count of elements : 1596
Stream size : 57.8 KiB (0%)
Title : Brazilian
Language : Portuguese
Default : No
Forced : No

Text #22
ID : 24
Format : UTF-8
Codec ID : S_TEXT/UTF8
Codec ID/Info : UTF-8 Plain Text
Duration : 1 h 29 min
Bit rate : 87 b/s
Frame rate : 0.274 FPS
Count of elements : 1478
Stream size : 57.3 KiB (0%)
Title : Iberian
Language : Portuguese
Default : No
Forced : No

Text #23
ID : 25
Format : UTF-8
Codec ID : S_TEXT/UTF8
Codec ID/Info : UTF-8 Plain Text
Duration : 1 h 29 min
Bit rate : 93 b/s
Frame rate : 0.294 FPS
Count of elements : 1582
Stream size : 61.3 KiB (0%)
Language : Romanian
Default : No
Forced : No

Text #24
ID : 26
Format : UTF-8
Codec ID : S_TEXT/UTF8
Codec ID/Info : UTF-8 Plain Text
Duration : 1 h 29 min
Bit rate : 136 b/s
Frame rate : 0.296 FPS
Count of elements : 1596
Stream size : 89.6 KiB (0%)
Language : Russian
Default : No
Forced : No

Text #25
ID : 27
Format : UTF-8
Codec ID : S_TEXT/UTF8
Codec ID/Info : UTF-8 Plain Text
Duration : 1 h 27 min
Bit rate : 79 b/s
Frame rate : 0.276 FPS
Count of elements : 1454
Stream size : 50.8 KiB (0%)
Title : Castilian
Language : Spanish
Default : No
Forced : No

Text #26
ID : 28
Format : UTF-8
Codec ID : S_TEXT/UTF8
Codec ID/Info : UTF-8 Plain Text
Duration : 1 h 27 min
Bit rate : 80 b/s
Frame rate : 0.289 FPS
Count of elements : 1525
Stream size : 51.9 KiB (0%)
Title : Latin American
Language : Spanish
Default : No
Forced : No

Text #27
ID : 29
Format : UTF-8
Codec ID : S_TEXT/UTF8
Codec ID/Info : UTF-8 Plain Text
Duration : 1 h 29 min
Bit rate : 80 b/s
Frame rate : 0.287 FPS
Count of elements : 1545
Stream size : 52.9 KiB (0%)
Language : Swedish
Default : No
Forced : No

Text #28
ID : 30
Format : UTF-8
Codec ID : S_TEXT/UTF8
Codec ID/Info : UTF-8 Plain Text
Duration : 1 h 29 min
Bit rate : 222 b/s
Frame rate : 0.304 FPS
Count of elements : 1640
Stream size : 146 KiB (0%)
Language : Thai
Default : No
Forced : No

Text #29
ID : 31
Format : UTF-8
Codec ID : S_TEXT/UTF8
Codec ID/Info : UTF-8 Plain Text
Duration : 1 h 29 min
Bit rate : 88 b/s
Frame rate : 0.298 FPS
Count of elements : 1603
Stream size : 58.0 KiB (0%)
Language : Turkish
Default : No
Forced : No

Text #30
ID : 32
Format : UTF-8
Codec ID : S_TEXT/UTF8
Codec ID/Info : UTF-8 Plain Text
Duration : 1 h 29 min
Bit rate : 113 b/s
Frame rate : 0.318 FPS
Count of elements : 1714
Stream size : 74.5 KiB (0%)
Language : Vietnamese
Default : No
Forced : No

推荐使用qBittorrent、uTorrent、BitComet等下载软件,有条件的推荐115或会员软件下载!

下载地址


游客,如果您要查看本帖隐藏内容请回复






上一篇:饶恕我们的罪 [简繁中字] (2022) 4K高清版本下载
下一篇:响尾蛇 [简繁中字] / Rattlesnake (2019) 4K高清版本下载
回复

使用道具 举报

您需要登录后才可以回帖 登录 | 立即注册

本版积分规则

精彩图文
Archiver|手机版|TAG|Sitemap|新帖|专题|联系我们:邮箱: 4kjia.com@gmail.com   

4k家园   ©2019