[4K UHD 蓝光原盘] 无敌浩克[内嵌中字] /The Incredible Hulk (2008) 4K蓝光REMUX版本下载

[复制链接]

主题

帖子

0

积分

超级版主

Rank: 8Rank: 8

积分
0
 楼主| 发表于 2022-12-9 11:41:17 | 显示全部楼层 |阅读模式
p2520979495_副本.jpg

◎译  名 新变形侠医(港) / 神奇绿巨人 / 绿巨人2 / 不可思议的绿巨人 / Hulk 2
◎片  名 The Incredible Hulk
◎年  代 2008
◎产  地 美国
◎类  别 动作 / 科幻 / 惊悚
◎语  言 英语 / 葡萄牙语 / 西班牙语
◎上映日期 2008-08-20(中国大陆) / 2008-06-13(美国)
◎IMDb评分 6.6/10 from 493655 users 更新 : 2022-12-08
◎IMDb链接 https://www.imdb.com/title/tt0800080/
◎豆瓣评分 7.1/10 from 219898 users 更新 : 2022-12-08
◎豆瓣链接 https://movie.douban.com/subject/1866475/
◎片  长 112 分钟
◎导  演 路易斯·莱特里尔 Louis Leterrier
◎编  剧 扎克·佩恩 Zak Penn
◎演  员 爱德华·诺顿 Edward Norton
       丽芙·泰勒 Liv Tyler
       蒂姆·罗斯 Tim Roth
       威廉·赫特 William Hurt
       蒂姆·布雷克·尼尔森 Tim Blake Nelson
       马丁·斯塔尔 Martin Starr
       约翰·麦克唐纳 John MacDonald
       姜广涛 Guangtao Jiang
       斯坦·李 Stan Lee
       格兰特·尼克尔斯 Grant Nickalls
       小罗伯特·唐尼 Robert Downey Jr.
       阿尔·维克尔詹 Al Vrkljan
       托尼·纳波 Tony Nappo
       格雷格·布瑞克 Greg Bryk
       托尼·托德 Tony Todd
       克里斯·拉茨 Chris Ratz
       大卫·柯林斯 David Collins


◎简  介


  在高华大学变异的经历总在重演,关于军方通缉的亦围绕在脑海,科学家Bruce Banner(爱德华·诺顿 Edward Norton 饰)就在这样的梦魇下在巴西一边控制着体内的伽马辐射带来的异常,一边努力和纽约的蓝先生寻求解决办法。
在汽水生产厂房的他一日不小心割伤手指,让血滴入了汽水瓶,远销到美国的这瓶汽水暴露了他的行踪。美国军方穷尽能力追捕他,还找来求胜心切的英国霹雳将军Emil Blonsky(蒂姆·罗斯 Tim Roth 饰)。被逼到绝路的Bruce变身为绿巨人,Emil和其他军人都大吃一惊。为了亲手擒住Bruce,Emil建议给自己注入可使基因变异的样本。
Bruce在美国隐匿时遇到旧女友Betty Ross(丽芙·泰勒 Liv Tyler 饰),Betty义无反顾地站在他一边,同时发现,她拥有令他体内绿巨人安稳的力量。

Video
ID : 1
ID in the original source medium : 4113 (0x1011)
Format : HEVC
Format/Info : High Efficiency Video Coding
Format profile : Main 10@L5.1@High
HDR format : SMPTE ST 2086, HDR10 compatible
Codec ID : V_MPEGH/ISO/HEVC
Duration : 1 h 52 min
Bit rate : 57.5 Mb/s
Width : 3 840 pixels
Height : 2 160 pixels
Display aspect ratio : 16:9
Frame rate mode : Constant
Frame rate : 23.976 (24000/1001) FPS
Color space : YUV
Chroma subsampling : 4:2:0 (Type 2)
Bit depth : 10 bits
Bits/(Pixel*Frame) : 0.289
Stream size : 45.0 GiB (84%)
Language : English
Default : No
Forced : No
Color range : Limited
Color primaries : BT.2020
Transfer characteristics : PQ
Matrix coefficients : BT.2020 non-constant
Mastering display color primaries : Display P3
Mastering display luminance : min: 0.0050 cd/m2, max: 1000 cd/m2
Maximum Content Light Level : 915 cd/m2
Maximum Frame-Average Light Level : 258 cd/m2
Original source medium : Blu-ray

Audio #1
ID : 2
ID in the original source medium : 4352 (0x1100)
Format : DTS XLL X
Format/Info : Digital Theater Systems
Commercial name : DTS-HD Master Audio
Codec ID : A_DTS
Duration : 1 h 52 min
Bit rate mode : Variable
Bit rate : 6 787 kb/s
Channel(s) : 8 channels
Channel(s)_Original : Object Based
ChannelLayout_Original : Object Based
Sampling rate : 48.0 kHz
Frame rate : 93.750 FPS (512 SPF)
Bit depth : 24 bits
Stream size : 5.32 GiB (10%)
Title : DTS-X 7.1
Language : English
Default : Yes
Forced : No
Original source medium : Blu-ray

Audio #2
ID : 3
Format : AC-3
Format/Info : Audio Coding 3
Commercial name : Dolby Digital
Codec ID : A_AC3
Duration : 1 h 52 min
Bit rate mode : Constant
Bit rate : 640 kb/s
Channel(s) : 6 channels
Channel layout : L R C LFE Ls Rs
Sampling rate : 48.0 kHz
Frame rate : 31.250 FPS (1536 SPF)
Compression mode : Lossy
Stream size : 514 MiB (1%)
Title : DD 5.1
Language : English
Service kind : Complete Main
Default : No
Forced : No

Audio #3
ID : 4
ID in the original source medium : 4353 (0x1101)
Format : DTS
Format/Info : Digital Theater Systems
Codec ID : A_DTS
Duration : 1 h 52 min
Bit rate mode : Constant
Bit rate : 768 kb/s
Channel(s) : 6 channels
Channel layout : C L R Ls Rs LFE
Sampling rate : 48.0 kHz
Frame rate : 93.750 FPS (512 SPF)
Bit depth : 24 bits
Compression mode : Lossy
Stream size : 616 MiB (1%)
Title : DD 5.1
Language : Italian
Default : No
Forced : No
Original source medium : Blu-ray

Audio #4
ID : 5
ID in the original source medium : 4354 (0x1102)
Format : DTS
Format/Info : Digital Theater Systems
Codec ID : A_DTS
Duration : 1 h 52 min
Bit rate mode : Constant
Bit rate : 768 kb/s
Channel(s) : 6 channels
Channel layout : C L R Ls Rs LFE
Sampling rate : 48.0 kHz
Frame rate : 93.750 FPS (512 SPF)
Bit depth : 24 bits
Compression mode : Lossy
Stream size : 616 MiB (1%)
Title : DD 5.1
Language : Russian
Default : No
Forced : No
Original source medium : Blu-ray

Audio #5
ID : 6
ID in the original source medium : 4355 (0x1103)
Format : DTS
Format/Info : Digital Theater Systems
Codec ID : A_DTS
Duration : 1 h 52 min
Bit rate mode : Constant
Bit rate : 768 kb/s
Channel(s) : 6 channels
Channel layout : C L R Ls Rs LFE
Sampling rate : 48.0 kHz
Frame rate : 93.750 FPS (512 SPF)
Bit depth : 24 bits
Compression mode : Lossy
Stream size : 616 MiB (1%)
Title : DD 5.1
Language : Czech
Default : No
Forced : No
Original source medium : Blu-ray

Audio #6
ID : 7
ID in the original source medium : 4356 (0x1104)
Format : DTS
Format/Info : Digital Theater Systems
Codec ID : A_DTS
Duration : 1 h 52 min
Bit rate mode : Constant
Bit rate : 768 kb/s
Channel(s) : 6 channels
Channel layout : C L R Ls Rs LFE
Sampling rate : 48.0 kHz
Frame rate : 93.750 FPS (512 SPF)
Bit depth : 24 bits
Compression mode : Lossy
Stream size : 616 MiB (1%)
Title : DD 5.1
Language : Polish
Default : No
Forced : No
Original source medium : Blu-ray

Audio #7
ID : 8
ID in the original source medium : 4357 (0x1105)
Format : AC-3
Format/Info : Audio Coding 3
Commercial name : Dolby Digital
Format settings : Dolby Surround
Codec ID : A_AC3
Duration : 1 h 52 min
Bit rate mode : Constant
Bit rate : 192 kb/s
Channel(s) : 2 channels
Channel layout : L R
Sampling rate : 48.0 kHz
Frame rate : 31.250 FPS (1536 SPF)
Compression mode : Lossy
Stream size : 154 MiB (0%)
Title : DD 2.0
Language : English
Service kind : Complete Main
Default : No
Forced : No
Original source medium : Blu-ray

Text #1
ID : 9
Format : UTF-8
Codec ID : S_TEXT/UTF8
Codec ID/Info : UTF-8 Plain Text
Duration : 1 h 41 min
Bit rate : 29 b/s
Frame rate : 0.116 FPS
Count of elements : 709
Stream size : 21.8 KiB (0%)
Language : English
Default : Yes
Forced : No

Text #2
ID : 10
Format : UTF-8
Codec ID : S_TEXT/UTF8
Codec ID/Info : UTF-8 Plain Text
Duration : 1 h 44 min
Bit rate : 32 b/s
Frame rate : 0.139 FPS
Count of elements : 866
Stream size : 24.4 KiB (0%)
Title : SDH
Language : English
Default : No
Forced : No

Text #3
ID : 11
ID in the original source medium : 4768 (0x12A0)
Format : PGS
Muxing mode : zlib
Codec ID : S_HDMV/PGS
Codec ID/Info : Picture based subtitle format used on BDs/HD-DVDs
Duration : 1 h 44 min
Bit rate : 22.7 kb/s
Frame rate : 0.282 FPS
Count of elements : 1763
Stream size : 16.9 MiB (0%)
Language : English
Default : No
Forced : No
Original source medium : Blu-ray

Text #4
ID : 12
ID in the original source medium : 4769 (0x12A1)
Format : PGS
Muxing mode : zlib
Codec ID : S_HDMV/PGS
Codec ID/Info : Picture based subtitle format used on BDs/HD-DVDs
Duration : 1 h 50 min
Bit rate : 19.3 kb/s
Frame rate : 0.239 FPS
Count of elements : 1580
Stream size : 15.2 MiB (0%)
Language : Italian
Default : No
Forced : No
Original source medium : Blu-ray

Text #5
ID : 13
ID in the original source medium : 4770 (0x12A2)
Format : PGS
Muxing mode : zlib
Codec ID : S_HDMV/PGS
Codec ID/Info : Picture based subtitle format used on BDs/HD-DVDs
Duration : 1 h 50 min
Bit rate : 12.8 kb/s
Frame rate : 0.194 FPS
Count of elements : 1282
Stream size : 10.1 MiB (0%)
Language : Dutch
Default : No
Forced : No
Original source medium : Blu-ray

Text #6
ID : 14
ID in the original source medium : 4771 (0x12A3)
Format : PGS
Muxing mode : zlib
Codec ID : S_HDMV/PGS
Codec ID/Info : Picture based subtitle format used on BDs/HD-DVDs
Duration : 1 h 50 min
Bit rate : 15.7 kb/s
Frame rate : 0.209 FPS
Count of elements : 1383
Stream size : 12.4 MiB (0%)
Language : Danish
Default : No
Forced : No
Original source medium : Blu-ray

Text #7
ID : 15
ID in the original source medium : 4772 (0x12A4)
Format : PGS
Muxing mode : zlib
Codec ID : S_HDMV/PGS
Codec ID/Info : Picture based subtitle format used on BDs/HD-DVDs
Duration : 1 h 50 min
Bit rate : 14.1 kb/s
Frame rate : 0.204 FPS
Count of elements : 1356
Stream size : 11.2 MiB (0%)
Language : Finnish
Default : No
Forced : No
Original source medium : Blu-ray

Text #8
ID : 16
ID in the original source medium : 4773 (0x12A5)
Format : PGS
Muxing mode : zlib
Codec ID : S_HDMV/PGS
Codec ID/Info : Picture based subtitle format used on BDs/HD-DVDs
Duration : 1 h 50 min
Bit rate : 18.8 kb/s
Frame rate : 0.239 FPS
Count of elements : 1578
Stream size : 14.8 MiB (0%)
Language : Norwegian
Default : No
Forced : No
Original source medium : Blu-ray

Text #9
ID : 17
ID in the original source medium : 4774 (0x12A6)
Format : PGS
Muxing mode : zlib
Codec ID : S_HDMV/PGS
Codec ID/Info : Picture based subtitle format used on BDs/HD-DVDs
Duration : 1 h 50 min
Bit rate : 16.0 kb/s
Frame rate : 0.221 FPS
Count of elements : 1458
Stream size : 12.6 MiB (0%)
Language : Swedish
Default : No
Forced : No
Original source medium : Blu-ray

Text #10
ID : 18
ID in the original source medium : 4775 (0x12A7)
Format : PGS
Muxing mode : zlib
Codec ID : S_HDMV/PGS
Codec ID/Info : Picture based subtitle format used on BDs/HD-DVDs
Duration : 1 h 44 min
Bit rate : 17.5 kb/s
Frame rate : 0.223 FPS
Count of elements : 1402
Stream size : 13.1 MiB (0%)
Language : Portuguese
Default : No
Forced : No
Original source medium : Blu-ray

Text #11
ID : 19
ID in the original source medium : 4776 (0x12A8)
Format : PGS
Muxing mode : zlib
Codec ID : S_HDMV/PGS
Codec ID/Info : Picture based subtitle format used on BDs/HD-DVDs
Duration : 1 h 50 min
Bit rate : 19.8 kb/s
Frame rate : 0.240 FPS
Count of elements : 1588
Stream size : 15.6 MiB (0%)
Language : Turkish
Default : No
Forced : No
Original source medium : Blu-ray

Text #12
ID : 20
ID in the original source medium : 4777 (0x12A9)
Format : PGS
Muxing mode : zlib
Codec ID : S_HDMV/PGS
Codec ID/Info : Picture based subtitle format used on BDs/HD-DVDs
Duration : 1 h 50 min
Bit rate : 17.4 kb/s
Frame rate : 0.240 FPS
Count of elements : 1586
Stream size : 13.7 MiB (0%)
Language : Czech
Default : No
Forced : No
Original source medium : Blu-ray

Text #13
ID : 21
ID in the original source medium : 4778 (0x12AA)
Format : PGS
Muxing mode : zlib
Codec ID : S_HDMV/PGS
Codec ID/Info : Picture based subtitle format used on BDs/HD-DVDs
Duration : 1 h 50 min
Bit rate : 13.3 kb/s
Frame rate : 0.228 FPS
Count of elements : 1519
Stream size : 10.6 MiB (0%)
Language : 中文
Default : No
Forced : No
Original source medium : Blu-ray

Text #14
ID : 22
ID in the original source medium : 4779 (0x12AB)
Format : PGS
Muxing mode : zlib
Codec ID : S_HDMV/PGS
Codec ID/Info : Picture based subtitle format used on BDs/HD-DVDs
Duration : 1 h 51 min
Bit rate : 13.4 kb/s
Frame rate : 0.239 FPS
Count of elements : 1594
Stream size : 10.7 MiB (0%)
Language : Korean
Default : No
Forced : No
Original source medium : Blu-ray

Text #15
ID : 23
ID in the original source medium : 4780 (0x12AC)
Format : PGS
Muxing mode : zlib
Codec ID : S_HDMV/PGS
Codec ID/Info : Picture based subtitle format used on BDs/HD-DVDs
Duration : 1 h 50 min
Bit rate : 19.1 kb/s
Frame rate : 0.219 FPS
Count of elements : 1456
Stream size : 15.2 MiB (0%)
Language : Greek
Default : No
Forced : No
Original source medium : Blu-ray

Text #16
ID : 24
ID in the original source medium : 4793 (0x12B9)
Format : PGS
Muxing mode : zlib
Codec ID : S_HDMV/PGS
Codec ID/Info : Picture based subtitle format used on BDs/HD-DVDs
Duration : 1 h 50 min
Bit rate : 16.9 kb/s
Frame rate : 0.230 FPS
Count of elements : 1523
Stream size : 13.3 MiB (0%)
Language : Polish
Default : No
Forced : No
Original source medium : Blu-ray

Text #17
ID : 25
ID in the original source medium : 4781 (0x12AD)
Format : PGS
Muxing mode : zlib
Codec ID : S_HDMV/PGS
Codec ID/Info : Picture based subtitle format used on BDs/HD-DVDs
Duration : 1 h 51 min
Bit rate : 82.1 kb/s
Frame rate : 0.631 FPS
Count of elements : 4213
Stream size : 65.4 MiB (0%)
Title : COMMENTARY
Language : English
Default : No
Forced : No
Original source medium : Blu-ray

Text #18
ID : 26
ID in the original source medium : 4782 (0x12AE)
Format : PGS
Muxing mode : zlib
Codec ID : S_HDMV/PGS
Codec ID/Info : Picture based subtitle format used on BDs/HD-DVDs
Duration : 1 h 51 min
Bit rate : 65.3 kb/s
Frame rate : 0.629 FPS
Count of elements : 4213
Stream size : 52.1 MiB (0%)
Title : COMMENTARY
Language : Italian
Default : No
Forced : No
Original source medium : Blu-ray

Text #19
ID : 27
ID in the original source medium : 4783 (0x12AF)
Format : PGS
Muxing mode : zlib
Codec ID : S_HDMV/PGS
Codec ID/Info : Picture based subtitle format used on BDs/HD-DVDs
Duration : 1 h 51 min
Bit rate : 69.9 kb/s
Frame rate : 0.628 FPS
Count of elements : 4205
Stream size : 55.9 MiB (0%)
Title : COMMENTARY
Language : Dutch
Default : No
Forced : No
Original source medium : Blu-ray

Text #20
ID : 28
ID in the original source medium : 4784 (0x12B0)
Format : PGS
Muxing mode : zlib
Codec ID : S_HDMV/PGS
Codec ID/Info : Picture based subtitle format used on BDs/HD-DVDs
Duration : 1 h 51 min
Bit rate : 69.3 kb/s
Frame rate : 0.628 FPS
Count of elements : 4211
Stream size : 55.3 MiB (0%)
Title : COMMENTARY
Language : Danish
Default : No
Forced : No
Original source medium : Blu-ray

Text #21
ID : 29
ID in the original source medium : 4785 (0x12B1)
Format : PGS
Muxing mode : zlib
Codec ID : S_HDMV/PGS
Codec ID/Info : Picture based subtitle format used on BDs/HD-DVDs
Duration : 1 h 51 min
Bit rate : 65.7 kb/s
Frame rate : 0.628 FPS
Count of elements : 4209
Stream size : 52.5 MiB (0%)
Title : COMMENTARY
Language : Finnish
Default : No
Forced : No
Original source medium : Blu-ray

Text #22
ID : 30
ID in the original source medium : 4786 (0x12B2)
Format : PGS
Muxing mode : zlib
Codec ID : S_HDMV/PGS
Codec ID/Info : Picture based subtitle format used on BDs/HD-DVDs
Duration : 1 h 51 min
Bit rate : 64.3 kb/s
Frame rate : 0.629 FPS
Count of elements : 4213
Stream size : 51.4 MiB (0%)
Title : COMMENTARY
Language : Norwegian
Default : No
Forced : No
Original source medium : Blu-ray

Text #23
ID : 31
ID in the original source medium : 4787 (0x12B3)
Format : PGS
Muxing mode : zlib
Codec ID : S_HDMV/PGS
Codec ID/Info : Picture based subtitle format used on BDs/HD-DVDs
Duration : 1 h 51 min
Bit rate : 65.7 kb/s
Frame rate : 0.629 FPS
Count of elements : 4213
Stream size : 52.5 MiB (0%)
Title : COMMENTARY
Language : Swedish
Default : No
Forced : No
Original source medium : Blu-ray

Text #24
ID : 32
ID in the original source medium : 4788 (0x12B4)
Format : PGS
Muxing mode : zlib
Codec ID : S_HDMV/PGS
Codec ID/Info : Picture based subtitle format used on BDs/HD-DVDs
Duration : 1 h 51 min
Bit rate : 69.9 kb/s
Frame rate : 0.628 FPS
Count of elements : 4209
Stream size : 55.9 MiB (0%)
Title : COMMENTARY
Language : Portuguese
Default : No
Forced : No
Original source medium : Blu-ray

Text #25
ID : 33
ID in the original source medium : 4789 (0x12B5)
Format : PGS
Muxing mode : zlib
Codec ID : S_HDMV/PGS
Codec ID/Info : Picture based subtitle format used on BDs/HD-DVDs
Duration : 1 h 51 min
Bit rate : 49.2 kb/s
Frame rate : 0.629 FPS
Count of elements : 4213
Stream size : 39.3 MiB (0%)
Title : COMMENTARY
Language : Korean
Default : No
Forced : No
Original source medium : Blu-ray

Text #26
ID : 34
ID in the original source medium : 4790 (0x12B6)
Format : PGS
Muxing mode : zlib
Codec ID : S_HDMV/PGS
Codec ID/Info : Picture based subtitle format used on BDs/HD-DVDs
Duration : 1 h 50 min
Bit rate : 2 008 b/s
Frame rate : 0.027 FPS
Count of elements : 178
Stream size : 1.58 MiB (0%)
Title : FORCED
Language : Italian
Default : No
Forced : No
Original source medium : Blu-ray

Text #27
ID : 35
ID in the original source medium : 4791 (0x12B7)
Format : PGS
Muxing mode : zlib
Codec ID : S_HDMV/PGS
Codec ID/Info : Picture based subtitle format used on BDs/HD-DVDs
Duration : 1 h 50 min
Bit rate : 2 899 b/s
Frame rate : 0.037 FPS
Count of elements : 244
Stream size : 2.29 MiB (0%)
Title : FORCED
Language : Russian
Default : No
Forced : No
Original source medium : Blu-ray

Text #28
ID : 36
ID in the original source medium : 4792 (0x12B8)
Format : PGS
Muxing mode : zlib
Codec ID : S_HDMV/PGS
Codec ID/Info : Picture based subtitle format used on BDs/HD-DVDs
Duration : 1 h 50 min
Bit rate : 2 668 b/s
Frame rate : 0.038 FPS
Count of elements : 248
Stream size : 2.10 MiB (0%)
Title : FORCED
Language : Czech
Default : No
Forced : No
Original source medium : Blu-ray

新种推荐使用qBittorrent、uTorrent等下载软件,有条件的推荐115更好的下载软件!

无敌浩克(53.64GB)The.Incredible.Hulk.2008.PROPER.2160p.BluRay.REMUX.HEVC.DTS-X.7.1-FGT-【2160P蓝光REMUX】
游客,如果您要查看本帖隐藏内容请回复




4KQQ海报.gif

上一篇:绿巨人浩克 / Hulk (2003) 4K蓝光REMUX版本下载
下一篇:美国队长3 / Captain America: Civil War (2016) 4K蓝光REMUX版本下载
回复

使用道具 举报

您需要登录后才可以回帖 登录 | 立即注册

本版积分规则

精彩图文
Archiver|手机版|TAG|Sitemap|新帖|专题|联系我们:邮箱: 4kjia.com@gmail.com   

4k家园   ©2019