[4K UHD 蓝光原盘] 美国队长3 / Captain America: Civil War (2016) 4K蓝光REMUX版本下载

[复制链接]

主题

帖子

0

积分

超级版主

Rank: 8Rank: 8

积分
0
 楼主| 发表于 2022-12-9 11:53:36 | 显示全部楼层 |阅读模式
210713ifrppdobfopacf2a.png

◎译  名 美国队长3/Captain America 3/美国队长3:内战/美国队长3:英雄内战(港/台)/美队3
◎片  名 Captain America: Civil War
◎年  代 2016
◎产  地 美国
◎类  别 动作 / 科幻 / 冒险
◎语  言 科萨语,英语,德语,俄语,罗马尼亚语
◎上映日期 2016-04-12(加州首映) / 2016-05-06(中国大陆/美国)
◎IMDb评分  7.8/10 from 786441 users 更新 : 2022-12-07
◎IMDb链接  https://www.imdb.com/title/tt3498820/
◎豆瓣评分 7.9/10 from 444313 users 更新 : 2022-12-09
◎豆瓣链接 https://movie.douban.com/subject/25820460/
◎片  长 148分钟(中国大陆)
◎导  演 安东尼·罗素 Anthony Russo / 乔·罗素 Joe Russo
◎编  剧 克里斯托弗·马库斯 Christopher Markus / 斯蒂芬·麦克菲利 Stephen McFeely / 杰克·科比 Jack Kirby / 乔·西蒙 Joe Simon
◎主  演 克里斯·埃文斯 Chris Evans
       小罗伯特·唐尼 Robert Downey Jr.
       斯嘉丽·约翰逊 Scarlett Johansson
       塞巴斯蒂安·斯坦 Sebastian Stan
       安东尼·麦凯 Anthony Mackie
       唐·钱德尔 Don Cheadle
       杰瑞米·雷纳 Jeremy Renner
       查德维克·博斯曼 Chadwick Boseman
       保罗·贝坦尼 Paul Bettany
       伊丽莎白·奥尔森 Elizabeth Olsen
       保罗·路德 Paul Rudd
       艾米丽·万凯普 Emily VanCamp
       汤姆·赫兰德 Tom Holland
       丹尼尔·布鲁赫 Daniel Brühl
       弗兰克·格里罗 Frank Grillo
       威廉·赫特 William Hurt
       马丁·弗瑞曼 Martin Freeman
       霍普·戴维斯 Hope Davis
       玛丽莎·托梅 Marisa Tomei
       吉姆·拉什 Jim Rash
       金世佳 Shijia Jin
       斯坦·李 Stan Lee
       约翰·斯拉特里 John Slattery
       凯瑞·康顿 Kerry Condon
       朱丽安娜·古尔 Julianna Guill
       吴靖萱 Jane Wu
       阿尔法·伍达德 Alfre Woodard
       杨天翔 Tianxiang Yang
       弗洛伦丝·卡松巴 Florence Kasumba
       吉恩·法贝尔 Gene Farber
       雷·萨亥塔彼 Ray Sahetapy
       约翰·卡尼 John Kani
       达米恩·波蒂埃 Damion Poitier
       布伦特·吉恩蒂尔 Brett Gentile
       郭易峰 Yifeng Guo
       威廉·吴 William Ngo
       凯蒂阿弥斯 Katie Amess
       布瑞恩舍费尔 Brian Schaefer
       尼科斯·马夫拉基斯 Nikos Mavrakis
       卡德罗莎·奥娜·卡罗尔
       盖伊·费尔南德斯 Guy Fernandez
       一龙 Yi Long



◎简  介

  美国队长史蒂夫·罗杰斯(克里斯·埃文斯 Chris Evans 饰)带领着全新组建的复仇者联盟,继续维护世界和平。然而,一次执行任务时联盟成员不小心造成大量平民伤亡,从而激发政治压力,政府决定通过一套监管系统来管理和领导复仇者联盟。联盟内部因此分裂为两派:一方由史蒂夫· 罗杰斯领导,他主张维护成员自由,在免受政府干扰的情况下保护世界;另一方则追随托尼·斯塔克(小罗伯特·唐尼 Robert Downey Jr. 饰),他令人意外地决定支持政府的监管和责任制体系。神秘莫测的巴基(塞巴斯蒂安·斯坦 Sebastian Stan 饰)似乎成为内战的关键人物……

◎获奖情况

  第44届动画安妮奖 ?(2017)
  最佳真人电影动画角色(提名)

  第23届美国演员工会奖 ?(2017)
  电影最佳特技群戏(提名)

  第22届美国评论家选择电影奖 ?(2017)
  最佳动作片(提名)
  动作片最佳男主角(提名) 克里斯·埃文斯
  动作片最佳女主角(提名) 斯嘉丽·约翰逊

  第3届豆瓣电影年度榜单 ?(2016)
  最受关注的院线电影(提名)
  评分最高的科幻/动作片(提名)
  5月最受关注电影

Video
ID : 1
ID in the original source medium : 4113 (0x1011)
Format : HEVC
Format/Info : High Efficiency Video Coding
Format profile : Main 10@L5.1@High
HDR format : SMPTE ST 2086, HDR10 compatible
Codec ID : V_MPEGH/ISO/HEVC
Duration : 2 h 27 min
Bit rate : 42.0 Mb/s
Width : 3 840 pixels
Height : 2 160 pixels
Display aspect ratio : 16:9
Frame rate mode : Constant
Frame rate : 23.976 (24000/1001) FPS
Color space : YUV
Chroma subsampling : 4:2:0 (Type 2)
Bit depth : 10 bits
Bits/(Pixel*Frame) : 0.211
Stream size : 43.3 GiB (73%)
Language : English
Default : No
Forced : No
Color range : Limited
Color primaries : BT.2020
Transfer characteristics : PQ
Matrix coefficients : BT.2020 non-constant
Mastering display color primaries : Display P3
Mastering display luminance : min: 0.0020 cd/m2, max: 1000 cd/m2
Maximum Content Light Level : 717 cd/m2
Maximum Frame-Average Light Level : 578 cd/m2
Original source medium : Blu-ray

Audio #1
ID : 2
ID in the original source medium : 4352 (0x1100)
Format : MLP FBA 16-ch
Format/Info : Meridian Lossless Packing FBA with 16-channel presentation
Commercial name : Dolby TrueHD with Dolby Atmos
Codec ID : A_TRUEHD
Duration : 2 h 27 min
Bit rate mode : Variable
Bit rate : 4 620 kb/s
Maximum bit rate : 7 659 kb/s
Channel(s) : 8 channels
Channel layout : L R C LFE Ls Rs Lb Rb
Sampling rate : 48.0 kHz
Frame rate : 1 200.000 FPS (40 SPF)
Bit depth : 24 bits
Compression mode : Lossless
Stream size : 4.77 GiB (8%)
Title : TrueHD 7.1 Atmos
Language : English
Default : Yes
Forced : No
Original source medium : Blu-ray
Number of dynamic objects : 13
Bed channel count : 1 channel
Bed channel configuration : LFE

Audio #2
ID : 3
Format : DTS XLL
Format/Info : Digital Theater Systems
Commercial name : DTS-HD Master Audio
Codec ID : A_DTS
Duration : 2 h 27 min
Bit rate mode : Variable
Bit rate : 3 736 kb/s
Channel(s) : 8 channels
Channel layout : C L R LFE Lb Rb Lss Rss
Sampling rate : 48.0 kHz
Frame rate : 93.750 FPS (512 SPF)
Bit depth : 24 bits
Compression mode : Lossless
Stream size : 3.85 GiB (7%)
Title : DTS-HD MA 7.1
Language : English
Default : No
Forced : No

Audio #3
ID : 4
ID in the original source medium : 4352 (0x1100)
Format : AC-3
Format/Info : Audio Coding 3
Commercial name : Dolby Digital
Codec ID : A_AC3
Duration : 2 h 27 min
Bit rate mode : Constant
Bit rate : 640 kb/s
Channel(s) : 6 channels
Channel layout : L R C LFE Ls Rs
Sampling rate : 48.0 kHz
Frame rate : 31.250 FPS (1536 SPF)
Compression mode : Lossy
Stream size : 676 MiB (1%)
Title : DD 5.1
Language : English
Service kind : Complete Main
Default : No
Forced : No
Original source medium : Blu-ray

Audio #4
ID : 5
ID in the original source medium : 4353 (0x1101)
Format : AC-3
Format/Info : Audio Coding 3
Commercial name : Dolby Digital
Codec ID : A_AC3
Duration : 2 h 27 min
Bit rate mode : Constant
Bit rate : 320 kb/s
Channel(s) : 2 channels
Channel layout : L R
Sampling rate : 48.0 kHz
Frame rate : 31.250 FPS (1536 SPF)
Compression mode : Lossy
Stream size : 338 MiB (0%)
Title : Stereo
Language : English
Service kind : Complete Main
Default : No
Forced : No
Original source medium : Blu-ray

Audio #5
ID : 6
ID in the original source medium : 4354 (0x1102)
Format : AC-3
Format/Info : Audio Coding 3
Commercial name : Dolby Digital
Codec ID : A_AC3
Duration : 2 h 27 min
Bit rate mode : Constant
Bit rate : 640 kb/s
Channel(s) : 6 channels
Channel layout : L R C LFE Ls Rs
Sampling rate : 48.0 kHz
Frame rate : 31.250 FPS (1536 SPF)
Compression mode : Lossy
Stream size : 676 MiB (1%)
Title : DD 5.1
Language : French
Service kind : Complete Main
Default : No
Forced : No
Original source medium : Blu-ray

Audio #6
ID : 7
Format : E-AC-3
Format/Info : Enhanced AC-3
Commercial name : Dolby Digital Plus
Format profile : Blu-ray Disc
Codec ID : A_EAC3
Duration : 2 h 27 min
Bit rate mode : Constant
Bit rate : 1 024 kb/s
Channel(s) : 8 channels
Channel layout : L R C LFE Ls Rs Lb Rb
Sampling rate : 48.0 kHz
Frame rate : 31.250 FPS (1536 SPF)
Compression mode : Lossy
Stream size : 1.06 GiB (2%)
Title : DDP 7.1
Language : French
Service kind : Complete Main
Default : No
Forced : No

Audio #7
ID : 8
Format : E-AC-3
Format/Info : Enhanced AC-3
Commercial name : Dolby Digital Plus
Format profile : Blu-ray Disc
Codec ID : A_EAC3
Duration : 2 h 27 min
Bit rate mode : Constant
Bit rate : 1 024 kb/s
Channel(s) : 8 channels
Channel layout : L R C LFE Ls Rs Lb Rb
Sampling rate : 48.0 kHz
Frame rate : 31.250 FPS (1536 SPF)
Compression mode : Lossy
Stream size : 1.06 GiB (2%)
Title : DDP 7.1
Language : Spanish
Service kind : Complete Main
Default : No
Forced : No

Audio #8
ID : 9
Format : E-AC-3
Format/Info : Enhanced AC-3
Commercial name : Dolby Digital Plus
Format profile : Blu-ray Disc
Codec ID : A_EAC3
Duration : 2 h 27 min
Bit rate mode : Constant
Bit rate : 1 024 kb/s
Channel(s) : 8 channels
Channel layout : L R C LFE Ls Rs Lb Rb
Sampling rate : 48.0 kHz
Frame rate : 31.250 FPS (1536 SPF)
Compression mode : Lossy
Stream size : 1.06 GiB (2%)
Title : DDP 7.1
Language : German
Service kind : Complete Main
Default : No
Forced : No

Audio #9
ID : 10
Format : E-AC-3
Format/Info : Enhanced AC-3
Commercial name : Dolby Digital Plus
Format profile : Blu-ray Disc
Codec ID : A_EAC3
Duration : 2 h 27 min
Bit rate mode : Constant
Bit rate : 1 024 kb/s
Channel(s) : 8 channels
Channel layout : L R C LFE Ls Rs Lb Rb
Sampling rate : 48.0 kHz
Frame rate : 31.250 FPS (1536 SPF)
Compression mode : Lossy
Stream size : 1.06 GiB (2%)
Title : DDP 7.1
Language : Italian
Service kind : Complete Main
Default : No
Forced : No

Audio #10
ID : 11
Format : E-AC-3
Format/Info : Enhanced AC-3
Commercial name : Dolby Digital Plus
Format profile : Blu-ray Disc
Codec ID : A_EAC3
Duration : 2 h 27 min
Bit rate mode : Constant
Bit rate : 1 024 kb/s
Channel(s) : 8 channels
Channel layout : L R C LFE Ls Rs Lb Rb
Sampling rate : 48.0 kHz
Frame rate : 31.250 FPS (1536 SPF)
Compression mode : Lossy
Stream size : 1.06 GiB (2%)
Title : DDP 7.1
Language : Japanese
Service kind : Complete Main
Default : No
Forced : No

Text #1
ID : 12
Format : UTF-8
Codec ID : S_TEXT/UTF8
Codec ID/Info : UTF-8 Plain Text
Duration : 1 h 44 min
Bit rate : 1 b/s
Frame rate : 0.008 FPS
Count of elements : 50
Stream size : 968 Bytes (0%)
Title : FORCED
Language : English
Default : No
Forced : Yes

Text #2
ID : 13
Format : UTF-8
Codec ID : S_TEXT/UTF8
Codec ID/Info : UTF-8 Plain Text
Duration : 2 h 25 min
Bit rate : 49 b/s
Frame rate : 0.210 FPS
Count of elements : 1836
Stream size : 53.1 KiB (0%)
Language : English
Default : Yes
Forced : No

Text #3
ID : 14
Format : UTF-8
Codec ID : S_TEXT/UTF8
Codec ID/Info : UTF-8 Plain Text
Duration : 2 h 26 min
Bit rate : 53 b/s
Frame rate : 0.237 FPS
Count of elements : 2076
Stream size : 56.9 KiB (0%)
Title : SDH
Language : English
Default : No
Forced : No

Text #4
ID : 15
ID in the original source medium : 4768 (0x12A0)
Format : PGS
Muxing mode : zlib
Codec ID : S_HDMV/PGS
Codec ID/Info : Picture based subtitle format used on BDs/HD-DVDs
Duration : 2 h 26 min
Bit rate : 35.4 kb/s
Frame rate : 0.480 FPS
Count of elements : 4210
Stream size : 37.1 MiB (0%)
Language : English
Default : No
Forced : No
Original source medium : Blu-ray

Text #5
ID : 16
ID in the original source medium : 4769 (0x12A1)
Format : PGS
Muxing mode : zlib
Codec ID : S_HDMV/PGS
Codec ID/Info : Picture based subtitle format used on BDs/HD-DVDs
Duration : 2 h 26 min
Bit rate : 30.1 kb/s
Frame rate : 0.387 FPS
Count of elements : 3400
Stream size : 31.6 MiB (0%)
Language : French
Default : No
Forced : No
Original source medium : Blu-ray

Text #6
ID : 17
ID in the original source medium : 4770 (0x12A2)
Format : PGS
Muxing mode : zlib
Codec ID : S_HDMV/PGS
Codec ID/Info : Picture based subtitle format used on BDs/HD-DVDs
Duration : 2 h 26 min
Bit rate : 26.9 kb/s
Frame rate : 0.368 FPS
Count of elements : 3228
Stream size : 28.2 MiB (0%)
Language : French
Default : No
Forced : No
Original source medium : Blu-ray

Text #7
ID : 18
ID in the original source medium : 4771 (0x12A3)
Format : PGS
Muxing mode : zlib
Codec ID : S_HDMV/PGS
Codec ID/Info : Picture based subtitle format used on BDs/HD-DVDs
Duration : 2 h 26 min
Bit rate : 31.1 kb/s
Frame rate : 0.388 FPS
Count of elements : 3410
Stream size : 32.5 MiB (0%)
Language : Spanish
Default : No
Forced : No
Original source medium : Blu-ray

Text #8
ID : 19
ID in the original source medium : 4772 (0x12A4)
Format : PGS
Muxing mode : zlib
Codec ID : S_HDMV/PGS
Codec ID/Info : Picture based subtitle format used on BDs/HD-DVDs
Duration : 2 h 25 min
Bit rate : 32.8 kb/s
Frame rate : 0.380 FPS
Count of elements : 3332
Stream size : 34.3 MiB (0%)
Language : German
Default : No
Forced : No
Original source medium : Blu-ray

Text #9
ID : 20
ID in the original source medium : 4773 (0x12A5)
Format : PGS
Muxing mode : zlib
Codec ID : S_HDMV/PGS
Codec ID/Info : Picture based subtitle format used on BDs/HD-DVDs
Duration : 2 h 26 min
Bit rate : 30.9 kb/s
Frame rate : 0.392 FPS
Count of elements : 3442
Stream size : 32.4 MiB (0%)
Language : Italian
Default : No
Forced : No
Original source medium : Blu-ray

Text #10
ID : 21
ID in the original source medium : 4774 (0x12A6)
Format : PGS
Muxing mode : zlib
Codec ID : S_HDMV/PGS
Codec ID/Info : Picture based subtitle format used on BDs/HD-DVDs
Duration : 2 h 27 min
Bit rate : 21.8 kb/s
Frame rate : 0.347 FPS
Count of elements : 3074
Stream size : 23.0 MiB (0%)
Language : Japanese
Default : No
Forced : No
Original source medium : Blu-ray

Text #11
ID : 22
ID in the original source medium : 4775 (0x12A7)
Format : PGS
Muxing mode : zlib
Codec ID : S_HDMV/PGS
Codec ID/Info : Picture based subtitle format used on BDs/HD-DVDs
Duration : 2 h 26 min
Bit rate : 28.9 kb/s
Frame rate : 0.384 FPS
Count of elements : 3368
Stream size : 30.2 MiB (0%)
Language : Norwegian
Default : No
Forced : No
Original source medium : Blu-ray

Text #12
ID : 23
ID in the original source medium : 4776 (0x12A8)
Format : PGS
Muxing mode : zlib
Codec ID : S_HDMV/PGS
Codec ID/Info : Picture based subtitle format used on BDs/HD-DVDs
Duration : 2 h 26 min
Bit rate : 25.8 kb/s
Frame rate : 0.254 FPS
Count of elements : 2230
Stream size : 26.9 MiB (0%)
Language : Swedish
Default : No
Forced : No
Original source medium : Blu-ray

Text #13
ID : 24
ID in the original source medium : 4777 (0x12A9)
Format : PGS
Muxing mode : zlib
Codec ID : S_HDMV/PGS
Codec ID/Info : Picture based subtitle format used on BDs/HD-DVDs
Duration : 1 h 44 min
Bit rate : 458 b/s
Frame rate : 0.019 FPS
Count of elements : 118
Stream size : 352 KiB (0%)
Title : FORCED
Language : English
Default : No
Forced : No
Original source medium : Blu-ray

Text #14
ID : 25
ID in the original source medium : 4778 (0x12AA)
Format : PGS
Muxing mode : zlib
Codec ID : S_HDMV/PGS
Codec ID/Info : Picture based subtitle format used on BDs/HD-DVDs
Duration : 2 h 26 min
Bit rate : 642 b/s
Frame rate : 0.020 FPS
Count of elements : 174
Stream size : 689 KiB (0%)
Title : FORCED
Language : French
Default : No
Forced : No
Original source medium : Blu-ray

Text #15
ID : 26
ID in the original source medium : 4779 (0x12AB)
Format : PGS
Muxing mode : zlib
Codec ID : S_HDMV/PGS
Codec ID/Info : Picture based subtitle format used on BDs/HD-DVDs
Duration : 2 h 26 min
Bit rate : 416 b/s
Frame rate : 0.015 FPS
Count of elements : 134
Stream size : 446 KiB (0%)
Title : FORCED
Language : French
Default : No
Forced : No
Original source medium : Blu-ray

Text #16
ID : 27
ID in the original source medium : 4780 (0x12AC)
Format : PGS
Muxing mode : zlib
Codec ID : S_HDMV/PGS
Codec ID/Info : Picture based subtitle format used on BDs/HD-DVDs
Duration : 2 h 26 min
Bit rate : 478 b/s
Frame rate : 0.015 FPS
Count of elements : 136
Stream size : 513 KiB (0%)
Title : FORCED
Language : Spanish
Default : No
Forced : No
Original source medium : Blu-ray

Text #17
ID : 28
ID in the original source medium : 4781 (0x12AD)
Format : PGS
Muxing mode : zlib
Codec ID : S_HDMV/PGS
Codec ID/Info : Picture based subtitle format used on BDs/HD-DVDs
Duration : 2 h 17 min
Bit rate : 225 b/s
Frame rate : 0.011 FPS
Count of elements : 88
Stream size : 227 KiB (0%)
Title : FORCED
Language : German
Default : No
Forced : No
Original source medium : Blu-ray

Text #18
ID : 29
ID in the original source medium : 4782 (0x12AE)
Format : PGS
Muxing mode : zlib
Codec ID : S_HDMV/PGS
Codec ID/Info : Picture based subtitle format used on BDs/HD-DVDs
Duration : 2 h 27 min
Bit rate : 700 b/s
Frame rate : 0.016 FPS
Count of elements : 142
Stream size : 756 KiB (0%)
Title : FORCED
Language : Japanese
Default : No
Forced : No
Original source medium : Blu-ray

Text #19
ID : 30
ID in the original source medium : 4783 (0x12AF)
Format : PGS
Muxing mode : zlib
Codec ID : S_HDMV/PGS
Codec ID/Info : Picture based subtitle format used on BDs/HD-DVDs
Duration : 2 h 26 min
Bit rate : 409 b/s
Frame rate : 0.016 FPS
Count of elements : 138
Stream size : 439 KiB (0%)
Title : FORCED
Language : Italian
Default : No
Forced : No
Original source medium : Blu-ray


新种推荐使用qBittorrent、uTorrent等下载软件,有条件的推荐115更好的下载软件!

美国队长3(59.02GB)Captain.America.Civil.War.2016.PROPER.2160p.BluRay.REMUX.HEVC.DTS-HD.MA.TrueHD.7.1.Atmos-FGT-【2160P蓝光REMUX】
游客,如果您要查看本帖隐藏内容请回复







4KQQ海报.gif

上一篇:无敌浩克[内嵌中字] /The Incredible Hulk (2008) 4K蓝光REMUX版本下载
下一篇:美国队长/Captain America: The First Avenger (2011) 4K蓝光REMUX版本下载
回复

使用道具 举报

主题

帖子

0

积分

新手上路

Rank: 1

积分
0
发表于 2022-12-10 14:04:06 | 显示全部楼层
回复

使用道具 举报

您需要登录后才可以回帖 登录 | 立即注册

本版积分规则

精彩图文
Archiver|手机版|TAG|Sitemap|新帖|专题|联系我们:邮箱: 4kjia.com@gmail.com   

4k家园   ©2019