[4K UHD 蓝光原盘] 美国队长/Captain America: The First Avenger (2011) 4K蓝光REMUX版本下载

[复制链接]

主题

帖子

0

积分

超级版主

Rank: 8Rank: 8

积分
0
 楼主| 发表于 2022-12-9 12:05:04 | 显示全部楼层 |阅读模式

QQ图片20221209120711_副本.png

◎译  名 复仇者先锋
◎片  名 Captain America: The First Avenger
◎年  代 2011
◎产  地 美国
◎类  别 动作 / 科幻 / 冒险
◎语  言 英语 / 挪威语 / 法语
◎上映日期 2011-09-09(中国大陆) / 2011-07-19(加州首映) / 2011-07-22(美国)
◎IMDb评分 6.9/10 from 844630 users 更新 : 2022-12-07
◎IMDb链接 https://www.imdb.com/title/tt0458339/
◎豆瓣评分 7.1/10 from 357005 users 更新 : 2022-12-07
◎豆瓣链接 https://movie.douban.com/subject/2138838/
◎片  长 124分钟(美国)
◎导  演 乔·庄斯顿 Joe Johnston
◎编  剧 克里斯托弗·马库斯 Christopher Markus
       斯蒂芬·麦克菲利 Stephen McFeely
       乔·西蒙 Joe Simon
       杰克·科比 Jack Kirby
       乔·西蒙 Joe Simon
◎演  员 克里斯·埃文斯 Chris Evans
       海莉·阿特维尔 Hayley Atwell
       塞巴斯蒂安·斯坦 Sebastian Stan
       汤米·李·琼斯 Tommy Lee Jones
       雨果·维文 Hugo Weaving
       多米尼克·库珀 Dominic Cooper
       理查德·阿米蒂奇 Richard Armitage
       斯坦利·图齐 Stanley Tucci
       塞缪尔·杰克逊 Samuel L. Jackson
       托比·琼斯 Toby Jones
       尼尔·麦克唐纳 Neal McDonough
       德里克·卢克 Derek Luke
       肯尼斯·崔 Kenneth Choi
       约翰·约瑟夫·菲尔德 JJ Feild
       娜塔莉·多默尔 Natalie Dormer
       中村悠一 Yuuichi Nakamura
       劳拉·哈德克 Laura Haddock
       珍娜·科尔曼 Jenna Coleman
       阿曼达·莱赫提 Amanda Righetti
       大卫·布拉德利 David Bradley
       罗南·拉夫特瑞 Ronan Raftery
       卢克·阿伦-盖尔 Luke Allen-Gale
       尼克·亨德里克斯 Nick Hendrix
       萨姆·霍尔 Sam Hoare
       安纳托·陶布曼 Anatole Taubman
       本·巴特 Ben Batt
       威廉·霍普 William Hope
       道格·科克尔 Doug Cockle
       迈克尔·布兰登 Michael Brandon
       托比·琼斯 Toby Jones
       莱斯·施拉普内尔 Lex Shrapnel
       马利克·奥拉维克 Marek Oravec
       尼古拉斯·平诺克 Nicholas Pinnock
       本·厄特利 Ben Uttley
       金永钢 Yonggang Jin
       马丁·谢尔曼 Martin Sherman
       斯坦·李 Stan Lee
       凯文·费奇 Kevin Feige
       路易斯·德·埃斯波西托 Louis D'Esposito
       亚伦·史维斯查 Alan Silvestri
       安娜·B·薛帕德 Anna B. Sheppard
       斯蒂芬·亨特·弗利克 Stephen Hunter Flick
       迈克尔·狄龙 Michael Dillon
       特里·马里奥特 Terry Marriott
       拉斐尔·皮门特尔 Raphael A. Pimentel
       斯特凡·切雷蒂 Stephane Ceretti
       罗恩·安德达尔 Ron Underdahl
       托马斯·尼特曼 Thomas Nittmann
       乔斯·韦登 Joss Whedon
       布赖恩·希契 Bryan Hitch


◎简  介


  上世纪40年代,纳粹及其邪恶轴心的战火烧遍世界各个角落。居住在布鲁克林的小个子史蒂夫·罗格斯(克里斯·埃文斯 Chris Evans 饰)心系国家,一心上阵杀敌,可是糟糕的体格让他始终被征兵办拒之门外。偶然的机会,在德籍科学家厄斯金博士(Stanley Tucci 饰)的帮助下,这个小个子男孩得以走入兵营,并接受了博士的试验,化身成为高大健壮、膂力过人的超级战士。与此同时,德国纳粹红骷髅部队的首领约翰·施密特(雨果·维文 Hugo Weaving 饰)依靠超自然的力量建立起一支超级战队,企图称霸全世界。
为了营救好友,史蒂夫以美国队长的形象闯入施密特的军营,正邪两大超级战士的战斗就此展开……

Video
ID : 1
ID in the original source medium : 4113 (0x1011)
Format : HEVC
Format/Info : High Efficiency Video Coding
Format profile : Main 10@L5.1@High
HDR format : SMPTE ST 2086, HDR10 compatible
Codec ID : V_MPEGH/ISO/HEVC
Duration : 2 h 4 min
Bit rate : 51.7 Mb/s
Width : 3 840 pixels
Height : 2 160 pixels
Display aspect ratio : 16:9
Frame rate mode : Constant
Frame rate : 23.976 (24000/1001) FPS
Color space : YUV
Chroma subsampling : 4:2:0 (Type 2)
Bit depth : 10 bits
Bits/(Pixel*Frame) : 0.260
Stream size : 44.8 GiB (77%)
Language : English
Default : No
Forced : No
Color range : Limited
Color primaries : BT.2020
Transfer characteristics : PQ
Matrix coefficients : BT.2020 non-constant
Mastering display color primaries : Display P3
Mastering display luminance : min: 0.0020 cd/m2, max: 1000 cd/m2
Maximum Content Light Level : 595 cd/m2
Maximum Frame-Average Light Level : 494 cd/m2
Original source medium : Blu-ray

Audio #1
ID : 2
ID in the original source medium : 4352 (0x1100)
Format : MLP FBA 16-ch
Format/Info : Meridian Lossless Packing FBA with 16-channel presentation
Commercial name : Dolby TrueHD with Dolby Atmos
Codec ID : A_TRUEHD
Duration : 2 h 4 min
Bit rate mode : Variable
Bit rate : 4 734 kb/s
Maximum bit rate : 7 644 kb/s
Channel(s) : 8 channels
Channel layout : L R C LFE Ls Rs Lb Rb
Sampling rate : 48.0 kHz
Frame rate : 1 200.000 FPS (40 SPF)
Bit depth : 24 bits
Compression mode : Lossless
Stream size : 4.11 GiB (7%)
Title : TrueHD 7.1 Atmos
Language : English
Default : Yes
Forced : No
Original source medium : Blu-ray
Number of dynamic objects : 13
Bed channel count : 1 channel
Bed channel configuration : LFE

Audio #2
ID : 3
Format : DTS XLL
Format/Info : Digital Theater Systems
Commercial name : DTS-HD Master Audio
Codec ID : A_DTS
Duration : 2 h 4 min
Bit rate mode : Variable
Bit rate : 4 073 kb/s
Channel(s) : 8 channels
Channel layout : C L R LFE Lb Rb Lss Rss
Sampling rate : 48.0 kHz
Frame rate : 93.750 FPS (512 SPF)
Bit depth : 24 bits
Compression mode : Lossless
Stream size : 3.53 GiB (6%)
Title : DTS-HD MA 7.1
Language : English
Default : No
Forced : No

Audio #3
ID : 4
ID in the original source medium : 4352 (0x1100)
Format : AC-3
Format/Info : Audio Coding 3
Commercial name : Dolby Digital
Codec ID : A_AC3
Duration : 2 h 4 min
Bit rate mode : Constant
Bit rate : 640 kb/s
Channel(s) : 6 channels
Channel layout : L R C LFE Ls Rs
Sampling rate : 48.0 kHz
Frame rate : 31.250 FPS (1536 SPF)
Compression mode : Lossy
Stream size : 568 MiB (1%)
Title : DD 5.1
Language : English
Service kind : Complete Main
Default : No
Forced : No
Original source medium : Blu-ray

Audio #4
ID : 5
ID in the original source medium : 4353 (0x1101)
Format : AC-3
Format/Info : Audio Coding 3
Commercial name : Dolby Digital
Codec ID : A_AC3
Duration : 2 h 4 min
Bit rate mode : Constant
Bit rate : 320 kb/s
Channel(s) : 2 channels
Channel layout : L R
Sampling rate : 48.0 kHz
Frame rate : 31.250 FPS (1536 SPF)
Compression mode : Lossy
Stream size : 284 MiB (0%)
Title : DD 2.0
Language : English
Service kind : Complete Main
Default : No
Forced : No
Original source medium : Blu-ray

Audio #5
ID : 6
ID in the original source medium : 4354 (0x1102)
Format : AC-3
Format/Info : Audio Coding 3
Commercial name : Dolby Digital
Codec ID : A_AC3
Duration : 2 h 4 min
Bit rate mode : Constant
Bit rate : 640 kb/s
Channel(s) : 6 channels
Channel layout : L R C LFE Ls Rs
Sampling rate : 48.0 kHz
Frame rate : 31.250 FPS (1536 SPF)
Compression mode : Lossy
Stream size : 568 MiB (1%)
Title : DD 5.1
Language : French
Service kind : Complete Main
Default : No
Forced : No
Original source medium : Blu-ray

Audio #6
ID : 7
Format : E-AC-3
Format/Info : Enhanced AC-3
Commercial name : Dolby Digital Plus
Format profile : Blu-ray Disc
Codec ID : A_EAC3
Duration : 2 h 4 min
Bit rate mode : Constant
Bit rate : 1 024 kb/s
Channel(s) : 8 channels
Channel layout : L R C LFE Ls Rs Lb Rb
Sampling rate : 48.0 kHz
Frame rate : 31.250 FPS (1536 SPF)
Compression mode : Lossy
Stream size : 909 MiB (2%)
Title : DDP 7.1
Language : French
Service kind : Complete Main
Default : No
Forced : No

Audio #7
ID : 8
Format : E-AC-3
Format/Info : Enhanced AC-3
Commercial name : Dolby Digital Plus
Format profile : Blu-ray Disc
Codec ID : A_EAC3
Duration : 2 h 4 min
Bit rate mode : Constant
Bit rate : 1 024 kb/s
Channel(s) : 8 channels
Channel layout : L R C LFE Ls Rs Lb Rb
Sampling rate : 48.0 kHz
Frame rate : 31.250 FPS (1536 SPF)
Compression mode : Lossy
Stream size : 909 MiB (2%)
Title : DDP 7.1
Language : Spanish
Service kind : Complete Main
Default : No
Forced : No

Audio #8
ID : 9
Format : E-AC-3
Format/Info : Enhanced AC-3
Commercial name : Dolby Digital Plus
Format profile : Blu-ray Disc
Codec ID : A_EAC3
Duration : 2 h 4 min
Bit rate mode : Constant
Bit rate : 1 024 kb/s
Channel(s) : 8 channels
Channel layout : L R C LFE Ls Rs Lb Rb
Sampling rate : 48.0 kHz
Frame rate : 31.250 FPS (1536 SPF)
Compression mode : Lossy
Stream size : 909 MiB (2%)
Title : DDP 7.1
Language : German
Service kind : Complete Main
Default : No
Forced : No

Audio #9
ID : 10
Format : E-AC-3
Format/Info : Enhanced AC-3
Commercial name : Dolby Digital Plus
Format profile : Blu-ray Disc
Codec ID : A_EAC3
Duration : 2 h 4 min
Bit rate mode : Constant
Bit rate : 1 024 kb/s
Channel(s) : 8 channels
Channel layout : L R C LFE Ls Rs Lb Rb
Sampling rate : 48.0 kHz
Frame rate : 31.250 FPS (1536 SPF)
Compression mode : Lossy
Stream size : 909 MiB (2%)
Title : DDP 7.1
Language : Italian
Service kind : Complete Main
Default : No
Forced : No

Audio #10
ID : 11
Format : E-AC-3
Format/Info : Enhanced AC-3
Commercial name : Dolby Digital Plus
Format profile : Blu-ray Disc
Codec ID : A_EAC3
Duration : 2 h 4 min
Bit rate mode : Constant
Bit rate : 1 024 kb/s
Channel(s) : 8 channels
Channel layout : L R C LFE Ls Rs Lb Rb
Sampling rate : 48.0 kHz
Frame rate : 31.250 FPS (1536 SPF)
Compression mode : Lossy
Stream size : 909 MiB (2%)
Title : DDP 7.1
Language : Japanese
Service kind : Complete Main
Default : No
Forced : No

Text #1
ID : 12
Format : UTF-8
Codec ID : S_TEXT/UTF8
Codec ID/Info : UTF-8 Plain Text
Duration : 8 s 967 ms
Bit rate : 77 b/s
Frame rate : 0.558 FPS
Count of elements : 5
Stream size : 87.0 Bytes (0%)
Title : FORCED
Language : English
Default : No
Forced : No

Text #2
ID : 13
Format : UTF-8
Codec ID : S_TEXT/UTF8
Codec ID/Info : UTF-8 Plain Text
Duration : 2 h 2 min
Bit rate : 44 b/s
Frame rate : 0.164 FPS
Count of elements : 1206
Stream size : 39.6 KiB (0%)
Language : English
Default : Yes
Forced : No

Text #3
ID : 14
Format : UTF-8
Codec ID : S_TEXT/UTF8
Codec ID/Info : UTF-8 Plain Text
Duration : 2 h 2 min
Bit rate : 46 b/s
Frame rate : 0.185 FPS
Count of elements : 1362
Stream size : 42.0 KiB (0%)
Title : SDH
Language : English
Default : No
Forced : No

Text #4
ID : 15
ID in the original source medium : 4768 (0x12A0)
Format : PGS
Muxing mode : zlib
Codec ID : S_HDMV/PGS
Codec ID/Info : Picture based subtitle format used on BDs/HD-DVDs
Duration : 2 h 2 min
Bit rate : 35.9 kb/s
Frame rate : 0.373 FPS
Count of elements : 2748
Stream size : 31.5 MiB (0%)
Language : English
Default : No
Forced : No
Original source medium : Blu-ray

Text #5
ID : 16
ID in the original source medium : 4769 (0x12A1)
Format : PGS
Muxing mode : zlib
Codec ID : S_HDMV/PGS
Codec ID/Info : Picture based subtitle format used on BDs/HD-DVDs
Duration : 2 h 2 min
Bit rate : 33.6 kb/s
Frame rate : 0.335 FPS
Count of elements : 2466
Stream size : 29.5 MiB (0%)
Language : French
Default : No
Forced : No
Original source medium : Blu-ray

Text #6
ID : 17
ID in the original source medium : 4770 (0x12A2)
Format : PGS
Muxing mode : zlib
Codec ID : S_HDMV/PGS
Codec ID/Info : Picture based subtitle format used on BDs/HD-DVDs
Duration : 2 h 2 min
Bit rate : 27.7 kb/s
Frame rate : 0.332 FPS
Count of elements : 2444
Stream size : 24.3 MiB (0%)
Language : French
Default : No
Forced : No
Original source medium : Blu-ray

Text #7
ID : 18
ID in the original source medium : 4771 (0x12A3)
Format : PGS
Muxing mode : zlib
Codec ID : S_HDMV/PGS
Codec ID/Info : Picture based subtitle format used on BDs/HD-DVDs
Duration : 2 h 2 min
Bit rate : 29.4 kb/s
Frame rate : 0.315 FPS
Count of elements : 2322
Stream size : 25.8 MiB (0%)
Language : Spanish
Default : No
Forced : No
Original source medium : Blu-ray

Text #8
ID : 19
ID in the original source medium : 4772 (0x12A4)
Format : PGS
Muxing mode : zlib
Codec ID : S_HDMV/PGS
Codec ID/Info : Picture based subtitle format used on BDs/HD-DVDs
Duration : 2 h 2 min
Bit rate : 35.2 kb/s
Frame rate : 0.333 FPS
Count of elements : 2456
Stream size : 30.9 MiB (0%)
Language : German
Default : No
Forced : No
Original source medium : Blu-ray

Text #9
ID : 20
ID in the original source medium : 4773 (0x12A5)
Format : PGS
Muxing mode : zlib
Codec ID : S_HDMV/PGS
Codec ID/Info : Picture based subtitle format used on BDs/HD-DVDs
Duration : 2 h 2 min
Bit rate : 30.0 kb/s
Frame rate : 0.295 FPS
Count of elements : 2174
Stream size : 26.4 MiB (0%)
Language : Italian
Default : No
Forced : No
Original source medium : Blu-ray

Text #10
ID : 21
ID in the original source medium : 4774 (0x12A6)
Format : PGS
Muxing mode : zlib
Codec ID : S_HDMV/PGS
Codec ID/Info : Picture based subtitle format used on BDs/HD-DVDs
Duration : 2 h 2 min
Bit rate : 20.0 kb/s
Frame rate : 0.315 FPS
Count of elements : 2319
Stream size : 17.5 MiB (0%)
Language : Japanese
Default : No
Forced : No
Original source medium : Blu-ray

Text #11
ID : 22
ID in the original source medium : 4775 (0x12A7)
Format : PGS
Muxing mode : zlib
Codec ID : S_HDMV/PGS
Codec ID/Info : Picture based subtitle format used on BDs/HD-DVDs
Duration : 2 h 2 min
Bit rate : 27.3 kb/s
Frame rate : 0.325 FPS
Count of elements : 2392
Stream size : 23.9 MiB (0%)
Language : Norwegian
Default : No
Forced : No
Original source medium : Blu-ray

Text #12
ID : 23
ID in the original source medium : 4776 (0x12A8)
Format : PGS
Muxing mode : zlib
Codec ID : S_HDMV/PGS
Codec ID/Info : Picture based subtitle format used on BDs/HD-DVDs
Duration : 2 h 2 min
Bit rate : 28.8 kb/s
Frame rate : 0.315 FPS
Count of elements : 2326
Stream size : 25.4 MiB (0%)
Language : Swedish
Default : No
Forced : No
Original source medium : Blu-ray

Text #13
ID : 24
ID in the original source medium : 4777 (0x12A9)
Format : PGS
Muxing mode : zlib
Codec ID : S_HDMV/PGS
Codec ID/Info : Picture based subtitle format used on BDs/HD-DVDs
Duration : 8 s 988 ms
Bit rate : 58.7 kb/s
Frame rate : 1.113 FPS
Count of elements : 10
Stream size : 64.4 KiB (0%)
Title : FORCED
Language : English
Default : No
Forced : No
Original source medium : Blu-ray

Text #14
ID : 25
ID in the original source medium : 4778 (0x12AA)
Format : PGS
Muxing mode : zlib
Codec ID : S_HDMV/PGS
Codec ID/Info : Picture based subtitle format used on BDs/HD-DVDs
Duration : 2 h 0 min
Bit rate : 513 b/s
Frame rate : 0.006 FPS
Count of elements : 40
Stream size : 452 KiB (0%)
Title : FORCED
Language : French
Default : No
Forced : No
Original source medium : Blu-ray

Text #15
ID : 26
ID in the original source medium : 4779 (0x12AB)
Format : PGS
Muxing mode : zlib
Codec ID : S_HDMV/PGS
Codec ID/Info : Picture based subtitle format used on BDs/HD-DVDs
Duration : 2 h 0 min
Bit rate : 428 b/s
Frame rate : 0.006 FPS
Count of elements : 40
Stream size : 377 KiB (0%)
Title : FORCED
Language : French
Default : No
Forced : No
Original source medium : Blu-ray

Text #16
ID : 27
ID in the original source medium : 4780 (0x12AC)
Format : PGS
Muxing mode : zlib
Codec ID : S_HDMV/PGS
Codec ID/Info : Picture based subtitle format used on BDs/HD-DVDs
Duration : 2 h 0 min
Bit rate : 269 b/s
Frame rate : 0.004 FPS
Count of elements : 28
Stream size : 238 KiB (0%)
Title : FORCED
Language : Spanish
Default : No
Forced : No
Original source medium : Blu-ray

Text #17
ID : 28
ID in the original source medium : 4781 (0x12AD)
Format : PGS
Muxing mode : zlib
Codec ID : S_HDMV/PGS
Codec ID/Info : Picture based subtitle format used on BDs/HD-DVDs
Duration : 2 h 0 min
Bit rate : 452 b/s
Frame rate : 0.005 FPS
Count of elements : 38
Stream size : 399 KiB (0%)
Title : FORCED
Language : German
Default : No
Forced : No
Original source medium : Blu-ray

Text #18
ID : 29
ID in the original source medium : 4782 (0x12AE)
Format : PGS
Muxing mode : zlib
Codec ID : S_HDMV/PGS
Codec ID/Info : Picture based subtitle format used on BDs/HD-DVDs
Duration : 2 h 0 min
Bit rate : 579 b/s
Frame rate : 0.006 FPS
Count of elements : 42
Stream size : 511 KiB (0%)
Title : FORCED
Language : Italian
Default : No
Forced : No
Original source medium : Blu-ray

Text #19
ID : 30
ID in the original source medium : 4783 (0x12AF)
Format : PGS
Muxing mode : zlib
Codec ID : S_HDMV/PGS
Codec ID/Info : Picture based subtitle format used on BDs/HD-DVDs
Duration : 2 h 0 min
Bit rate : 1 018 b/s
Frame rate : 0.017 FPS
Count of elements : 124
Stream size : 896 KiB (0%)
Title : FORCED
Language : Japanese
Default : No
Forced : No
Original source medium : Blu-ray


新种推荐使用qBittorrent、uTorrent等下载软件,有条件的推荐115更好的下载软件!

美国队长(58.43GB)Captain.America.The.First.Avenger.2011.PROPER.2160p.BluRay.REMUX.HEVC.DTS-HD.MA.TrueHD.7.1.Atmos-FGT-【2160P蓝光REMUX】
游客,如果您要查看本帖隐藏内容请回复




4KQQ海报.gif

上一篇:美国队长3 / Captain America: Civil War (2016) 4K蓝光REMUX版本下载
下一篇:美国队长2/Captain America: The Winter Soldier (2014)4K蓝光REMUX版本
回复

使用道具 举报

0

主题

2

帖子

9

积分

新手上路

Rank: 1

积分
9
发表于 2022-12-9 12:24:59 | 显示全部楼层
感谢精彩分享,点赞!+1+1+1
回复 支持 反对

使用道具 举报

0

主题

1

帖子

6

积分

新手上路

Rank: 1

积分
6
发表于 2022-12-9 12:53:57 | 显示全部楼层
真不错,感谢楼主
回复 支持 反对

使用道具 举报

主题

帖子

0

积分

新手上路

Rank: 1

积分
0
发表于 2022-12-9 13:19:38 | 显示全部楼层
谢谢楼主分享
回复 支持 反对

使用道具 举报

0

主题

3

帖子

12

积分

新手上路

Rank: 1

积分
12
发表于 2022-12-9 16:21:15 | 显示全部楼层
多谢楼主分享
回复 支持 反对

使用道具 举报

0

主题

1

帖子

6

积分

新手上路

Rank: 1

积分
6
发表于 2022-12-13 22:32:26 | 显示全部楼层
+1+1+1+1+1
回复 支持 反对

使用道具 举报

0

主题

1

帖子

6

积分

新手上路

Rank: 1

积分
6
发表于 2022-12-15 20:39:46 | 显示全部楼层
回复

使用道具 举报

您需要登录后才可以回帖 登录 | 立即注册

本版积分规则

精彩图文
Archiver|手机版|TAG|Sitemap|新帖|专题|联系我们:邮箱: 4kjia.com@gmail.com   

4k家园   ©2019