[4K UHD 蓝光原盘] 银河护卫队/Guardians of the Galaxy (2014)4K蓝光REMUX版本下载

[复制链接]

主题

帖子

0

积分

超级版主

Rank: 8Rank: 8

积分
0
 楼主| 发表于 2022-12-9 13:03:20 | 显示全部楼层 |阅读模式
121339b0623qvz7r2l2623.png

◎译  名 银河护卫队/Full Tilt/G.O.T.G./星际异攻队(台)/银河守卫者/银河守护者/银河守护队(港)
◎片  名 Guardians of the Galaxy
◎年  代 2014
◎产  地 美国,英国
◎类  别 动作 / 科幻 / 冒险
◎语  言 英语,萨卡语
◎上映日期 2014-07-21(洛杉矶首映) / 2014-08-01(美国) / 2014-10-10(中国大陆)
◎IMDb评分 8.0/10 from 1175445 users 更新 : 2022-12-05
◎IMDb链接 https://www.imdb.com/title/tt2015381/
◎豆瓣评分 8.1/10 from 486641 更新 : 2022-12-09
◎豆瓣链接 https://movie.douban.com/subject/7065154/
◎片  长 121分钟
◎导  演 詹姆斯·古恩 James Gunn
◎编  剧 詹姆斯·古恩 James Gunn / 尼科尔·帕尔曼 Nicole Perlman / 丹·阿布内特 Dan Abnett / 安迪·兰宁 Andy Lanning / Joanna Chamberlain Joanna Chamberlain
◎主  演 克里斯·帕拉特 Chris Pratt
       佐伊·索尔达娜 Zoe Saldana
       布莱德利·库珀 Bradley Cooper
       范·迪塞尔 Vin Diesel
       戴夫·巴蒂斯塔 Dave Bautista
       李·佩斯 Lee Pace
       迈克尔·鲁克 Michael Rooker
       凯伦·吉兰 Karen Gillan
       杰曼·翰苏 Djimon Hounsou
       本尼西奥·德尔·托罗 Benicio del Toro
       约翰·C·赖利 John C. Reilly
       格伦·克洛斯 Glenn Close
       劳拉·哈德克 Laura Haddock
       肖恩·古恩 Sean Gunn
       彼得·塞拉菲诺威茨 Peter Serafinowicz
       埃米特·斯坎伦 Emmett J Scanlan
       奥菲利亚·拉维邦德 Ophelia Lovibond
       玛拉马·科利特 Marama Corlett
       布鲁斯·麦克金伦 Bruce Mackinnon
       拉尔夫·伊内森 Ralph Ineson
       罗布·赞比 Rob Zombie
       约翰·布罗特顿 John Brotherton
       格拉汉姆·谢尔斯 Graham Shiels
       王丽雅 Leila Wong
       詹姆斯·古恩 James Gunn
       Janis Ahern Janis Ahern
       安蒂·哈卡拉 Antti Hakala
       叶卡捷琳娜·扎利特科 Ekaterina Zalitko
       斯坦·李 Stan Lee
       伍凤春 Fengchun Wu
       埃里克斯·德尼索夫 Alexis Denisof
       弗兰克·吉尔霍利 Frank Gilhooley
       米凯拉·霍沃 Mikaela Hoover
       罗南·萨莫尔斯 Ronan Summers
       梅利亚·科尔林 Melia Kreiling
       Joanna Chamberlain Joanna Chamberlain
       迪索·拉莫斯 Diezel Ramos
         乔什·布洛林 Josh Brolin
       恩佐·科伦蒂 Enzo Cilenti
       托马斯·阿拉纳 Tomas Arana
       布兰登·费尔 Brendan Fehr
       沙利夫·阿特金斯 Sharif Atkins
       妮可·亚历山德拉·希普利 Nicole Alexandra Shipley
       马克斯·沃罗特斯利 Max Wrottesley
       格雷格·亨利 Gregg Henry
       克里斯托弗·法里班克 Christopher Fairbank
       内森·菲利安 Nathan Fillion
       瓦耶特·奥莱夫 Wyatt Oleff



◎简  介

  彼得·奎尔(克里斯·帕拉特 Chris Pratt 饰)是一名从小被劫持到外太空的地球人,在义父勇度(迈克尔·鲁克 Michael Rooker 饰)的培养下成了一个终极混混,自称“星爵”。一次行动中他偷了一块神秘球体,便成为了赏金猎人火箭浣熊(布莱德利·库珀 B radl ey Cooper 配音)、树人格鲁特(范·迪塞尔 Vin Diesel 配音)的绑架目标,而神秘的卡魔拉(佐伊·索尔达娜 Zoe Saldana 饰)也对神秘球体势在必得。经过笑料百出的坎坷遭遇,星爵被迫和这三人,以及复仇心切的“毁灭者”德拉克斯(戴夫·巴蒂斯塔 Dave Batista 饰)组成小分队逃避“指控者”罗南(李·佩斯 Lee Pace 饰)的追杀。然而这个神秘球体拥有无穷的力量,小分队必须团结一致对付罗南,才有可能解救整个银河系,银河护卫队由此诞生。

◎获奖情况

  第87届奥斯卡金像奖 ?(2015)
  最佳视觉效果(提名) 斯特凡·切雷蒂?/?尼古拉斯·阿萨迪?/?保罗·科博尔德?/?乔纳森·福克纳尔
  最佳化妆与发型设计(提名) 大卫·怀特?/?伊丽莎白·雅尼-乔治乌

  第42届动画安妮奖 ?(2015)
  最佳真人电影动画角色(提名) KevinSpruce

  第67届美国编剧工会奖 ?(2015)
  电影奖最佳改编剧本(提名) 詹姆斯·古恩?/?尼科尔·帕尔曼

  第18届好莱坞电影奖 ?(2014)
  年度化妆 大卫·怀特?/?伊丽莎白·雅尼-乔治乌
  最佳卖座片

  第1届豆瓣电影年度榜单 ?(2014)
  最受关注的院线电影(提名)
  年度电影原声(提名)
  10月最受关注电影(提名)

  第5届豆瓣电影鑫像奖 ?(2015)
  鑫豆单元最佳影片(外语)(提名)

Video
ID : 1
ID in the original source medium : 4113 (0x1011)
Format : HEVC
Format/Info : High Efficiency Video Coding
Format profile : Main 10@L5.1@High
HDR format : SMPTE ST 2086, HDR10 compatible
Codec ID : V_MPEGH/ISO/HEVC
Duration : 2 h 0 min
Bit rate : 49.6 Mb/s
Width : 3 840 pixels
Height : 2 160 pixels
Display aspect ratio : 16:9
Frame rate mode : Constant
Frame rate : 23.976 (24000/1001) FPS
Color space : YUV
Chroma subsampling : 4:2:0 (Type 2)
Bit depth : 10 bits
Bits/(Pixel*Frame) : 0.249
Stream size : 41.8 GiB (76%)
Language : English
Default : No
Forced : No
Color range : Limited
Color primaries : BT.2020
Transfer characteristics : PQ
Matrix coefficients : BT.2020 non-constant
Mastering display color primaries : Display P3
Mastering display luminance : min: 0.0050 cd/m2, max: 4000 cd/m2
Maximum Content Light Level : 577 cd/m2
Maximum Frame-Average Light Level : 512 cd/m2
Original source medium : Blu-ray

Audio #1
ID : 2
ID in the original source medium : 4352 (0x1100)
Format : MLP FBA 16-ch
Format/Info : Meridian Lossless Packing FBA with 16-channel presentation
Commercial name : Dolby TrueHD with Dolby Atmos
Codec ID : A_TRUEHD
Duration : 2 h 0 min
Bit rate mode : Variable
Bit rate : 4 299 kb/s
Maximum bit rate : 7 017 kb/s
Channel(s) : 8 channels
Channel layout : L R C LFE Ls Rs Lb Rb
Sampling rate : 48.0 kHz
Frame rate : 1 200.000 FPS (40 SPF)
Bit depth : 24 bits
Compression mode : Lossless
Stream size : 3.63 GiB (7%)
Title : TrueHD 7.1 Atmos
Language : English
Default : Yes
Forced : No
Original source medium : Blu-ray
Number of dynamic objects : 13
Bed channel count : 1 channel
Bed channel configuration : LFE

Audio #2
ID : 3
Format : DTS XLL
Format/Info : Digital Theater Systems
Commercial name : DTS-HD Master Audio
Codec ID : A_DTS
Duration : 2 h 0 min
Bit rate mode : Variable
Bit rate : 4 065 kb/s
Channel(s) : 8 channels
Channel layout : C L R LFE Lb Rb Lss Rss
Sampling rate : 48.0 kHz
Frame rate : 93.750 FPS (512 SPF)
Bit depth : 24 bits
Compression mode : Lossless
Stream size : 3.43 GiB (6%)
Title : DTS-HD MA 7.1
Language : English
Default : No
Forced : No

Audio #3
ID : 4
ID in the original source medium : 4352 (0x1100)
Format : AC-3
Format/Info : Audio Coding 3
Commercial name : Dolby Digital
Codec ID : A_AC3
Duration : 2 h 0 min
Bit rate mode : Constant
Bit rate : 640 kb/s
Channel(s) : 6 channels
Channel layout : L R C LFE Ls Rs
Sampling rate : 48.0 kHz
Frame rate : 31.250 FPS (1536 SPF)
Compression mode : Lossy
Stream size : 553 MiB (1%)
Title : DD 5.1
Language : English
Service kind : Complete Main
Default : No
Forced : No
Original source medium : Blu-ray

Audio #4
ID : 5
ID in the original source medium : 4353 (0x1101)
Format : AC-3
Format/Info : Audio Coding 3
Commercial name : Dolby Digital
Codec ID : A_AC3
Duration : 2 h 0 min
Bit rate mode : Constant
Bit rate : 320 kb/s
Channel(s) : 2 channels
Channel layout : L R
Sampling rate : 48.0 kHz
Frame rate : 31.250 FPS (1536 SPF)
Compression mode : Lossy
Stream size : 277 MiB (0%)
Title : DD 2.0
Language : English
Service kind : Complete Main
Default : No
Forced : No
Original source medium : Blu-ray

Audio #5
ID : 6
ID in the original source medium : 4354 (0x1102)
Format : AC-3
Format/Info : Audio Coding 3
Commercial name : Dolby Digital
Codec ID : A_AC3
Duration : 2 h 0 min
Bit rate mode : Constant
Bit rate : 640 kb/s
Channel(s) : 6 channels
Channel layout : L R C LFE Ls Rs
Sampling rate : 48.0 kHz
Frame rate : 31.250 FPS (1536 SPF)
Compression mode : Lossy
Stream size : 553 MiB (1%)
Title : DD 5.1
Language : French
Service kind : Complete Main
Default : No
Forced : No
Original source medium : Blu-ray

Audio #6
ID : 7
Format : E-AC-3
Format/Info : Enhanced AC-3
Commercial name : Dolby Digital Plus
Format profile : Blu-ray Disc
Codec ID : A_EAC3
Duration : 2 h 0 min
Bit rate mode : Constant
Bit rate : 1 024 kb/s
Channel(s) : 8 channels
Channel layout : L R C LFE Ls Rs Lb Rb
Sampling rate : 48.0 kHz
Frame rate : 31.250 FPS (1536 SPF)
Compression mode : Lossy
Stream size : 885 MiB (2%)
Title : DDP 7.1
Language : French
Service kind : Complete Main
Default : No
Forced : No

Audio #7
ID : 8
Format : E-AC-3
Format/Info : Enhanced AC-3
Commercial name : Dolby Digital Plus
Format profile : Blu-ray Disc
Codec ID : A_EAC3
Duration : 2 h 0 min
Bit rate mode : Constant
Bit rate : 1 024 kb/s
Channel(s) : 8 channels
Channel layout : L R C LFE Ls Rs Lb Rb
Sampling rate : 48.0 kHz
Frame rate : 31.250 FPS (1536 SPF)
Compression mode : Lossy
Stream size : 885 MiB (2%)
Title : DDP 7.1
Language : Spanish
Service kind : Complete Main
Default : No
Forced : No

Audio #8
ID : 9
Format : E-AC-3
Format/Info : Enhanced AC-3
Commercial name : Dolby Digital Plus
Format profile : Blu-ray Disc
Codec ID : A_EAC3
Duration : 2 h 0 min
Bit rate mode : Constant
Bit rate : 1 024 kb/s
Channel(s) : 8 channels
Channel layout : L R C LFE Ls Rs Lb Rb
Sampling rate : 48.0 kHz
Frame rate : 31.250 FPS (1536 SPF)
Compression mode : Lossy
Stream size : 885 MiB (2%)
Title : DDP 7.1
Language : German
Service kind : Complete Main
Default : No
Forced : No

Audio #9
ID : 10
Format : E-AC-3
Format/Info : Enhanced AC-3
Commercial name : Dolby Digital Plus
Format profile : Blu-ray Disc
Codec ID : A_EAC3
Duration : 2 h 0 min
Bit rate mode : Constant
Bit rate : 1 024 kb/s
Channel(s) : 8 channels
Channel layout : L R C LFE Ls Rs Lb Rb
Sampling rate : 48.0 kHz
Frame rate : 31.250 FPS (1536 SPF)
Compression mode : Lossy
Stream size : 885 MiB (2%)
Title : DDP 7.1
Language : Italian
Service kind : Complete Main
Default : No
Forced : No

Audio #10
ID : 11
Format : E-AC-3
Format/Info : Enhanced AC-3
Commercial name : Dolby Digital Plus
Format profile : Blu-ray Disc
Codec ID : A_EAC3
Duration : 2 h 0 min
Bit rate mode : Constant
Bit rate : 1 024 kb/s
Channel(s) : 8 channels
Channel layout : L R C LFE Ls Rs Lb Rb
Sampling rate : 48.0 kHz
Frame rate : 31.250 FPS (1536 SPF)
Compression mode : Lossy
Stream size : 885 MiB (2%)
Title : DDP 7.1
Language : Japanese
Service kind : Complete Main
Default : No
Forced : No

Text #1
ID : 12
Format : UTF-8
Codec ID : S_TEXT/UTF8
Codec ID/Info : UTF-8 Plain Text
Duration : 2 h 0 min
Bit rate : 47 b/s
Frame rate : 0.194 FPS
Count of elements : 1396
Stream size : 42.0 KiB (0%)
Language : English
Default : Yes
Forced : No

Text #2
ID : 13
Format : UTF-8
Codec ID : S_TEXT/UTF8
Codec ID/Info : UTF-8 Plain Text
Duration : 2 h 0 min
Bit rate : 52 b/s
Frame rate : 0.228 FPS
Count of elements : 1645
Stream size : 46.1 KiB (0%)
Title : SDH
Language : English
Default : No
Forced : No

Text #3
ID : 14
ID in the original source medium : 4768 (0x12A0)
Format : PGS
Muxing mode : zlib
Codec ID : S_HDMV/PGS
Codec ID/Info : Picture based subtitle format used on BDs/HD-DVDs
Duration : 2 h 0 min
Bit rate : 35.0 kb/s
Frame rate : 0.461 FPS
Count of elements : 3334
Stream size : 30.2 MiB (0%)
Language : English
Default : No
Forced : No
Original source medium : Blu-ray

Text #4
ID : 15
ID in the original source medium : 4769 (0x12A1)
Format : PGS
Muxing mode : zlib
Codec ID : S_HDMV/PGS
Codec ID/Info : Picture based subtitle format used on BDs/HD-DVDs
Duration : 2 h 0 min
Bit rate : 30.5 kb/s
Frame rate : 0.389 FPS
Count of elements : 2812
Stream size : 26.3 MiB (0%)
Language : French
Default : No
Forced : No
Original source medium : Blu-ray

Text #5
ID : 16
ID in the original source medium : 4770 (0x12A2)
Format : PGS
Muxing mode : zlib
Codec ID : S_HDMV/PGS
Codec ID/Info : Picture based subtitle format used on BDs/HD-DVDs
Duration : 2 h 0 min
Bit rate : 24.8 kb/s
Frame rate : 0.393 FPS
Count of elements : 2844
Stream size : 21.3 MiB (0%)
Language : French
Default : No
Forced : No
Original source medium : Blu-ray

Text #6
ID : 17
ID in the original source medium : 4771 (0x12A3)
Format : PGS
Muxing mode : zlib
Codec ID : S_HDMV/PGS
Codec ID/Info : Picture based subtitle format used on BDs/HD-DVDs
Duration : 2 h 0 min
Bit rate : 29.8 kb/s
Frame rate : 0.399 FPS
Count of elements : 2886
Stream size : 25.7 MiB (0%)
Language : Spanish
Default : No
Forced : No
Original source medium : Blu-ray

Text #7
ID : 18
ID in the original source medium : 4772 (0x12A4)
Format : PGS
Muxing mode : zlib
Codec ID : S_HDMV/PGS
Codec ID/Info : Picture based subtitle format used on BDs/HD-DVDs
Duration : 2 h 0 min
Bit rate : 26.3 kb/s
Frame rate : 0.389 FPS
Count of elements : 2814
Stream size : 22.7 MiB (0%)
Language : German
Default : No
Forced : No
Original source medium : Blu-ray

Text #8
ID : 19
ID in the original source medium : 4773 (0x12A5)
Format : PGS
Muxing mode : zlib
Codec ID : S_HDMV/PGS
Codec ID/Info : Picture based subtitle format used on BDs/HD-DVDs
Duration : 2 h 0 min
Bit rate : 30.8 kb/s
Frame rate : 0.394 FPS
Count of elements : 2852
Stream size : 26.5 MiB (0%)
Language : Italian
Default : No
Forced : No
Original source medium : Blu-ray

Text #9
ID : 20
ID in the original source medium : 4774 (0x12A6)
Format : PGS
Muxing mode : zlib
Codec ID : S_HDMV/PGS
Codec ID/Info : Picture based subtitle format used on BDs/HD-DVDs
Duration : 2 h 0 min
Bit rate : 20.6 kb/s
Frame rate : 0.334 FPS
Count of elements : 2421
Stream size : 17.8 MiB (0%)
Language : Japanese
Default : No
Forced : No
Original source medium : Blu-ray

Text #10
ID : 21
ID in the original source medium : 4775 (0x12A7)
Format : PGS
Muxing mode : zlib
Codec ID : S_HDMV/PGS
Codec ID/Info : Picture based subtitle format used on BDs/HD-DVDs
Duration : 2 h 0 min
Bit rate : 28.4 kb/s
Frame rate : 0.394 FPS
Count of elements : 2848
Stream size : 24.5 MiB (0%)
Language : Norwegian
Default : No
Forced : No
Original source medium : Blu-ray

Text #11
ID : 22
ID in the original source medium : 4776 (0x12A8)
Format : PGS
Muxing mode : zlib
Codec ID : S_HDMV/PGS
Codec ID/Info : Picture based subtitle format used on BDs/HD-DVDs
Duration : 2 h 0 min
Bit rate : 24.5 kb/s
Frame rate : 0.251 FPS
Count of elements : 1816
Stream size : 21.2 MiB (0%)
Language : Swedish
Default : No
Forced : No
Original source medium : Blu-ray

Text #12
ID : 23
ID in the original source medium : 4777 (0x12A9)
Format : PGS
Muxing mode : zlib
Codec ID : S_HDMV/PGS
Codec ID/Info : Picture based subtitle format used on BDs/HD-DVDs
Duration : 1 h 53 min
Bit rate : 538 b/s
Frame rate : 0.006 FPS
Count of elements : 38
Stream size : 447 KiB (0%)
Title : FORCED
Language : French
Default : No
Forced : No
Original source medium : Blu-ray

Text #13
ID : 24
ID in the original source medium : 4778 (0x12AA)
Format : PGS
Muxing mode : zlib
Codec ID : S_HDMV/PGS
Codec ID/Info : Picture based subtitle format used on BDs/HD-DVDs
Duration : 1 h 53 min
Bit rate : 291 b/s
Frame rate : 0.004 FPS
Count of elements : 24
Stream size : 242 KiB (0%)
Title : FORCED
Language : French
Default : No
Forced : No
Original source medium : Blu-ray

Text #14
ID : 25
ID in the original source medium : 4779 (0x12AB)
Format : PGS
Muxing mode : zlib
Codec ID : S_HDMV/PGS
Codec ID/Info : Picture based subtitle format used on BDs/HD-DVDs
Duration : 1 h 53 min
Bit rate : 293 b/s
Frame rate : 0.003 FPS
Count of elements : 22
Stream size : 244 KiB (0%)
Title : FORCED
Language : Spanish
Default : No
Forced : No
Original source medium : Blu-ray

Text #15
ID : 26
ID in the original source medium : 4780 (0x12AC)
Format : PGS
Muxing mode : zlib
Codec ID : S_HDMV/PGS
Codec ID/Info : Picture based subtitle format used on BDs/HD-DVDs
Duration : 4 min 4 s
Bit rate : 658 b/s
Frame rate : 0.016 FPS
Count of elements : 4
Stream size : 19.6 KiB (0%)
Title : FORCED
Language : German
Default : No
Forced : No
Original source medium : Blu-ray

Text #16
ID : 27
ID in the original source medium : 4781 (0x12AD)
Format : PGS
Muxing mode : zlib
Codec ID : S_HDMV/PGS
Codec ID/Info : Picture based subtitle format used on BDs/HD-DVDs
Duration : 1 h 53 min
Bit rate : 309 b/s
Frame rate : 0.004 FPS
Count of elements : 24
Stream size : 257 KiB (0%)
Title : FORCED
Language : Italian
Default : No
Forced : No
Original source medium : Blu-ray

Text #17
ID : 28
ID in the original source medium : 4782 (0x12AE)
Format : PGS
Muxing mode : zlib
Codec ID : S_HDMV/PGS
Codec ID/Info : Picture based subtitle format used on BDs/HD-DVDs
Duration : 1 h 54 min
Bit rate : 1 026 b/s
Frame rate : 0.014 FPS
Count of elements : 96
Stream size : 858 KiB (0%)
Title : FORCED
Language : Japanese
Default : No
Forced : No
Original source medium : Blu-ray

新种推荐使用qBittorrent、uTorrent等下载软件,有条件的推荐115更好的下载软件!

银河护卫队(54.71GB)Guardians.Of.The.Galaxy.2014.PROPER.2160p.BluRay.REMUX.HEVC.DTS-HD.MA.TrueHD.7.1.Atmos-FGT-【2160P蓝光REMUX】
游客,如果您要查看本帖隐藏内容请回复








4KQQ海报.gif

上一篇:美国队长2/Captain America: The Winter Soldier (2014)4K蓝光REMUX版本
下一篇:银河护卫队2 [内嵌中字] (2017) 4K蓝光REMUX版本下载
回复

使用道具 举报

您需要登录后才可以回帖 登录 | 立即注册

本版积分规则

精彩图文
Archiver|手机版|TAG|Sitemap|新帖|专题|联系我们:邮箱: 4kjia.com@gmail.com   

4k家园   ©2019