[4K UHD 蓝光原盘] 银河护卫队2 [内嵌中字] (2017) 4K蓝光REMUX版本下载

[复制链接]

主题

帖子

0

积分

超级版主

Rank: 8Rank: 8

积分
0
 楼主| 发表于 2022-12-9 13:15:13 | 显示全部楼层 |阅读模式

银河护卫队2.png

◎译  名 银河护卫队2/Guardians of the Galaxy 2/星际异攻队2(台)/银护2/银河守护队2(港)
◎片  名 Guardians of the Galaxy Vol. 2
◎年  代 2017
◎产  地 美国
◎类  别 动作 / 科幻 / 冒险
◎语  言 英语
◎上映日期 2017-04-19(洛杉矶首映) / 2017-05-05(中国大陆/美国)
◎IMDb评分 7.6/10 from 680369 users 更新 : 2022-12-08
◎IMDb链接 https://www.imdb.com/title/tt3896198/
◎豆瓣评分 8.0/10 from 436731 users 更新 : 2022-12-08
◎豆瓣链接 https://movie.douban.com/subject/25937854/
◎片  长 136分钟
◎导  演 詹姆斯·古恩 James Gunn
◎编  剧 詹姆斯·古恩 James Gunn / 丹·阿布内特 Dan Abnett / 安迪·兰宁 Andy Lanning
◎主  演 克里斯·帕拉特 Chris Pratt
       佐伊·索尔达娜 Zoe Saldana
       戴夫·巴蒂斯塔 Dave Bautista
       范·迪塞尔 Vin Diesel
       布莱德利·库珀 Bradley Cooper
       凯伦·吉兰 Karen Gillan
       迈克尔·鲁克 Michael Rooker
       庞·克莱门捷夫 Pom Klementieff
       伊丽莎白·德比茨基 Elizabeth Debicki
       肖恩·古恩 Sean Gunn
       库尔特·拉塞尔 Kurt Russell
       克里斯·沙利文 Chris Sullivan
       大卫·哈塞尔霍夫 David Hasselhoff
       西尔维斯特·史泰龙 Sylvester Stallone
       杨紫琼 Michelle Yeoh
       斯坦·李 Stan Lee
       内森·菲利安 Nathan Fillion
       劳拉·哈德克 Laura Haddock
       莫莉·奎恩 Molly C. Quinn
       文·瑞姆斯 Ving Rhames
       迈克尔·罗森巴姆 Michael Rosenbaum
       瓦耶特·奥莱夫 Wyatt Oleff
       卢克·库克 Luke Cook
       特伦斯·罗斯摩尔 Terence Rosemore
       亚历克斯·克莱因 Alex Klein
       乔·弗里亚 Joe Fria



◎简  介

  火箭浣熊(布莱德利·库珀 Bradley Cooper 饰)偷走了大祭司阿耶莎(伊丽莎白·德比齐 Elizabeth Debicki 饰)的能量电池,包括星爵(克里斯·帕拉特 Chris Pratt 饰)、卡魔拉(佐伊·索尔达娜 Zoe Saldana 饰)、德拉克斯(戴夫·巴蒂斯塔 Dave Bautista 饰)在内的一行人遭到了后者派出的舰队的袭击。一个神秘人物乘坐着飞船救下了银河护卫队的众人,而驾驶着飞船的不是别人,竟然正是星爵的亲生父亲伊戈(库尔特·拉塞尔 Kurt Russell 饰)。

  在伊戈的带领下,星爵、卡魔拉和德拉克斯来到了由伊戈一手制造的星球上,而剩下的成员们则着手修复损坏的飞船。那边厢,阿耶莎委托勇度(迈克尔·鲁克 Michael Rooker 饰)抓住星爵替自己报仇,而卡魔拉亦渐渐发现了伊戈和善面目下隐藏的巨大阴谋。

◎获奖情况

  第90届奥斯卡金像奖 ?(2018)
  最佳视觉效果(提名) 盖伊·威廉斯?/?克里斯托弗·汤森?/?乔纳森·福克纳尔?/?丹尼尔·萨迪克

  第45届动画安妮奖 ?(2018)
  最佳真人电影动画角色(提名)

  第16届美国视觉效果协会奖 ?(2018)
  最佳特效电影视觉效果(提名)
  最佳电影虚拟摄影

  第21届好莱坞电影奖 ?(2017)
  年度音效 艾迪生·蒂格?/?大卫·阿克德

  第4届豆瓣电影年度榜单 ?(2017)
  评分最高的科幻/动作片(提名)
  年度电影原声(提名)
  5月最受关注电影(提名)

  第3届豆瓣电影年度榜单 ?(2016)
  最值得期待的外语电影(提名)

Video
ID : 1
ID in the original source medium : 4113 (0x1011)
Format : HEVC
Format/Info : High Efficiency Video Coding
Format profile : Main 10@L5.1@High
HDR format : SMPTE ST 2086, HDR10 compatible
Codec ID : V_MPEGH/ISO/HEVC
Duration : 2 h 15 min
Bit rate : 45.0 Mb/s
Width : 3 840 pixels
Height : 2 160 pixels
Display aspect ratio : 16:9
Frame rate mode : Constant
Frame rate : 23.976 (24000/1001) FPS
Color space : YUV
Chroma subsampling : 4:2:0 (Type 2)
Bit depth : 10 bits
Bits/(Pixel*Frame) : 0.227
Stream size : 42.7 GiB (71%)
Language : English
Default : No
Forced : No
Color range : Limited
Color primaries : BT.2020
Transfer characteristics : PQ
Matrix coefficients : BT.2020 non-constant
Mastering display color primaries : Display P3
Mastering display luminance : min: 0.0050 cd/m2, max: 1000 cd/m2
Original source medium : Blu-ray

Audio #1
ID : 2
ID in the original source medium : 4352 (0x1100)
Format : MLP FBA 16-ch
Format/Info : Meridian Lossless Packing FBA with 16-channel presentation
Commercial name : Dolby TrueHD with Dolby Atmos
Codec ID : A_TRUEHD
Duration : 2 h 15 min
Bit rate mode : Variable
Bit rate : 7 508 kb/s
Maximum bit rate : 11.3 Mb/s
Channel(s) : 8 channels
Channel layout : L R C LFE Ls Rs Lb Rb
Sampling rate : 48.0 kHz
Frame rate : 1 200.000 FPS (40 SPF)
Bit depth : 24 bits
Compression mode : Lossless
Stream size : 7.12 GiB (12%)
Title : TrueHD 7.1 Atmos
Language : English
Default : Yes
Forced : No
Original source medium : Blu-ray
Number of dynamic objects : 13
Bed channel count : 1 channel
Bed channel configuration : LFE

Audio #2
ID : 3
Format : DTS XLL
Format/Info : Digital Theater Systems
Commercial name : DTS-HD Master Audio
Codec ID : A_DTS
Duration : 2 h 15 min
Bit rate mode : Variable
Bit rate : 3 835 kb/s
Channel(s) : 8 channels
Channel layout : C L R LFE Lb Rb Lss Rss
Sampling rate : 48.0 kHz
Frame rate : 93.750 FPS (512 SPF)
Bit depth : 24 bits
Compression mode : Lossless
Stream size : 3.64 GiB (6%)
Title : DTS-HD MA 7.1
Language : English
Default : No
Forced : No

Audio #3
ID : 4
ID in the original source medium : 4352 (0x1100)
Format : AC-3
Format/Info : Audio Coding 3
Commercial name : Dolby Digital
Codec ID : A_AC3
Duration : 2 h 15 min
Bit rate mode : Constant
Bit rate : 640 kb/s
Channel(s) : 6 channels
Channel layout : L R C LFE Ls Rs
Sampling rate : 48.0 kHz
Frame rate : 31.250 FPS (1536 SPF)
Compression mode : Lossy
Stream size : 622 MiB (1%)
Title : DD 5.1
Language : English
Service kind : Complete Main
Default : No
Forced : No
Original source medium : Blu-ray

Audio #4
ID : 5
Format : E-AC-3
Format/Info : Enhanced AC-3
Commercial name : Dolby Digital Plus
Format profile : Blu-ray Disc
Codec ID : A_EAC3
Duration : 2 h 15 min
Bit rate mode : Constant
Bit rate : 1 024 kb/s
Channel(s) : 8 channels
Channel layout : L R C LFE Ls Rs Lb Rb
Sampling rate : 48.0 kHz
Frame rate : 31.250 FPS (1536 SPF)
Compression mode : Lossy
Stream size : 994 MiB (2%)
Title : DDP 7.1
Language : English
Service kind : Complete Main
Default : No
Forced : No

Audio #5
ID : 6
ID in the original source medium : 4354 (0x1102)
Format : AC-3
Format/Info : Audio Coding 3
Commercial name : Dolby Digital
Codec ID : A_AC3
Duration : 2 h 15 min
Bit rate mode : Constant
Bit rate : 320 kb/s
Channel(s) : 2 channels
Channel layout : L R
Sampling rate : 48.0 kHz
Frame rate : 31.250 FPS (1536 SPF)
Compression mode : Lossy
Stream size : 311 MiB (0%)
Title : DD 2.0
Language : English
Service kind : Complete Main
Default : No
Forced : No
Original source medium : Blu-ray

Audio #6
ID : 7
ID in the original source medium : 4355 (0x1103)
Format : AC-3
Format/Info : Audio Coding 3
Commercial name : Dolby Digital
Codec ID : A_AC3
Duration : 2 h 15 min
Bit rate mode : Constant
Bit rate : 640 kb/s
Channel(s) : 6 channels
Channel layout : L R C LFE Ls Rs
Sampling rate : 48.0 kHz
Frame rate : 31.250 FPS (1536 SPF)
Compression mode : Lossy
Stream size : 622 MiB (1%)
Title : DD 5.1
Language : French
Service kind : Complete Main
Default : No
Forced : No
Original source medium : Blu-ray

Audio #7
ID : 8
Format : E-AC-3
Format/Info : Enhanced AC-3
Commercial name : Dolby Digital Plus
Format profile : Blu-ray Disc
Codec ID : A_EAC3
Duration : 2 h 15 min
Bit rate mode : Constant
Bit rate : 1 024 kb/s
Channel(s) : 8 channels
Channel layout : L R C LFE Ls Rs Lb Rb
Sampling rate : 48.0 kHz
Frame rate : 31.250 FPS (1536 SPF)
Compression mode : Lossy
Stream size : 994 MiB (2%)
Title : DDP 7.1
Language : Spanish
Service kind : Complete Main
Default : No
Forced : No

Audio #8
ID : 9
Format : E-AC-3
Format/Info : Enhanced AC-3
Commercial name : Dolby Digital Plus
Format profile : Blu-ray Disc
Codec ID : A_EAC3
Duration : 2 h 15 min
Bit rate mode : Constant
Bit rate : 1 024 kb/s
Channel(s) : 8 channels
Channel layout : L R C LFE Ls Rs Lb Rb
Sampling rate : 48.0 kHz
Frame rate : 31.250 FPS (1536 SPF)
Compression mode : Lossy
Stream size : 994 MiB (2%)
Title : DDP 7.1
Language : French
Service kind : Complete Main
Default : No
Forced : No

Audio #9
ID : 10
Format : E-AC-3
Format/Info : Enhanced AC-3
Commercial name : Dolby Digital Plus
Format profile : Blu-ray Disc
Codec ID : A_EAC3
Duration : 2 h 15 min
Bit rate mode : Constant
Bit rate : 1 024 kb/s
Channel(s) : 8 channels
Channel layout : L R C LFE Ls Rs Lb Rb
Sampling rate : 48.0 kHz
Frame rate : 31.250 FPS (1536 SPF)
Compression mode : Lossy
Stream size : 994 MiB (2%)
Title : DDP 7.1
Language : German
Service kind : Complete Main
Default : No
Forced : No

Audio #10
ID : 11
Format : E-AC-3
Format/Info : Enhanced AC-3
Commercial name : Dolby Digital Plus
Format profile : Blu-ray Disc
Codec ID : A_EAC3
Duration : 2 h 15 min
Bit rate mode : Constant
Bit rate : 1 024 kb/s
Channel(s) : 8 channels
Channel layout : L R C LFE Ls Rs Lb Rb
Sampling rate : 48.0 kHz
Frame rate : 31.250 FPS (1536 SPF)
Compression mode : Lossy
Stream size : 994 MiB (2%)
Title : DDP 7.1
Language : Japanese
Service kind : Complete Main
Default : No
Forced : No

Text #1
ID : 12
Format : UTF-8
Codec ID : S_TEXT/UTF8
Codec ID/Info : UTF-8 Plain Text
Duration : 2 h 14 min
Bit rate : 48 b/s
Frame rate : 0.198 FPS
Count of elements : 1601
Stream size : 47.5 KiB (0%)
Language : English
Default : Yes
Forced : No

Text #2
ID : 13
Format : UTF-8
Codec ID : S_TEXT/UTF8
Codec ID/Info : UTF-8 Plain Text
Duration : 2 h 14 min
Bit rate : 54 b/s
Frame rate : 0.241 FPS
Count of elements : 1948
Stream size : 53.6 KiB (0%)
Title : SDH
Language : English
Default : No
Forced : No

Text #3
ID : 14
ID in the original source medium : 4768 (0x12A0)
Format : PGS
Muxing mode : zlib
Codec ID : S_HDMV/PGS
Codec ID/Info : Picture based subtitle format used on BDs/HD-DVDs
Duration : 2 h 14 min
Bit rate : 36.1 kb/s
Frame rate : 0.487 FPS
Count of elements : 3946
Stream size : 34.8 MiB (0%)
Language : English
Default : No
Forced : No
Original source medium : Blu-ray

Text #4
ID : 15
ID in the original source medium : 4769 (0x12A1)
Format : PGS
Muxing mode : zlib
Codec ID : S_HDMV/PGS
Codec ID/Info : Picture based subtitle format used on BDs/HD-DVDs
Duration : 2 h 14 min
Bit rate : 29.8 kb/s
Frame rate : 0.400 FPS
Count of elements : 3236
Stream size : 28.7 MiB (0%)
Language : French
Default : No
Forced : No
Original source medium : Blu-ray

Text #5
ID : 16
ID in the original source medium : 4770 (0x12A2)
Format : PGS
Muxing mode : zlib
Codec ID : S_HDMV/PGS
Codec ID/Info : Picture based subtitle format used on BDs/HD-DVDs
Duration : 2 h 14 min
Bit rate : 30.0 kb/s
Frame rate : 0.397 FPS
Count of elements : 3208
Stream size : 28.9 MiB (0%)
Language : Spanish
Default : No
Forced : No
Original source medium : Blu-ray

Text #6
ID : 17
ID in the original source medium : 4771 (0x12A3)
Format : PGS
Muxing mode : zlib
Codec ID : S_HDMV/PGS
Codec ID/Info : Picture based subtitle format used on BDs/HD-DVDs
Duration : 2 h 14 min
Bit rate : 17.7 kb/s
Frame rate : 0.393 FPS
Count of elements : 3176
Stream size : 17.0 MiB (0%)
Language : 内嵌中字
Default : No
Forced : No
Original source medium : Blu-ray

Text #7
ID : 18
ID in the original source medium : 4772 (0x12A4)
Format : PGS
Muxing mode : zlib
Codec ID : S_HDMV/PGS
Codec ID/Info : Picture based subtitle format used on BDs/HD-DVDs
Duration : 2 h 14 min
Bit rate : 26.0 kb/s
Frame rate : 0.365 FPS
Count of elements : 2954
Stream size : 25.0 MiB (0%)
Language : French
Default : No
Forced : No
Original source medium : Blu-ray

Text #8
ID : 19
ID in the original source medium : 4773 (0x12A5)
Format : PGS
Muxing mode : zlib
Codec ID : S_HDMV/PGS
Codec ID/Info : Picture based subtitle format used on BDs/HD-DVDs
Duration : 2 h 14 min
Bit rate : 31.4 kb/s
Frame rate : 0.380 FPS
Count of elements : 3070
Stream size : 30.2 MiB (0%)
Language : German
Default : No
Forced : No
Original source medium : Blu-ray

Text #9
ID : 20
ID in the original source medium : 4774 (0x12A6)
Format : PGS
Muxing mode : zlib
Codec ID : S_HDMV/PGS
Codec ID/Info : Picture based subtitle format used on BDs/HD-DVDs
Duration : 2 h 14 min
Bit rate : 22.3 kb/s
Frame rate : 0.349 FPS
Count of elements : 2824
Stream size : 21.6 MiB (0%)
Language : Japanese
Default : No
Forced : No
Original source medium : Blu-ray

Text #10
ID : 21
ID in the original source medium : 4775 (0x12A7)
Format : PGS
Muxing mode : zlib
Codec ID : S_HDMV/PGS
Codec ID/Info : Picture based subtitle format used on BDs/HD-DVDs
Duration : 2 h 14 min
Bit rate : 20.7 kb/s
Frame rate : 0.407 FPS
Count of elements : 3290
Stream size : 19.9 MiB (0%)
Language : Chinese
Default : No
Forced : No
Original source medium : Blu-ray

Text #11
ID : 22
ID in the original source medium : 4776 (0x12A8)
Format : PGS
Muxing mode : zlib
Codec ID : S_HDMV/PGS
Codec ID/Info : Picture based subtitle format used on BDs/HD-DVDs
Duration : 2 h 6 min
Bit rate : 633 b/s
Frame rate : 0.011 FPS
Count of elements : 82
Stream size : 587 KiB (0%)
Title : FORCED
Language : French
Default : No
Forced : No
Original source medium : Blu-ray

Text #12
ID : 23
ID in the original source medium : 4777 (0x12A9)
Format : PGS
Muxing mode : zlib
Codec ID : S_HDMV/PGS
Codec ID/Info : Picture based subtitle format used on BDs/HD-DVDs
Duration : 2 h 6 min
Bit rate : 646 b/s
Frame rate : 0.008 FPS
Count of elements : 58
Stream size : 600 KiB (0%)
Title : FORCED
Language : Spanish
Default : No
Forced : No
Original source medium : Blu-ray

Text #13
ID : 24
ID in the original source medium : 4778 (0x12AA)
Format : PGS
Muxing mode : zlib
Codec ID : S_HDMV/PGS
Codec ID/Info : Picture based subtitle format used on BDs/HD-DVDs
Duration : 2 h 6 min
Bit rate : 140 b/s
Frame rate : 0.002 FPS
Count of elements : 14
Stream size : 130 KiB (0%)
Title : FORCED
Language : French
Default : No
Forced : No
Original source medium : Blu-ray

Text #14
ID : 25
ID in the original source medium : 4779 (0x12AB)
Format : PGS
Muxing mode : zlib
Codec ID : S_HDMV/PGS
Codec ID/Info : Picture based subtitle format used on BDs/HD-DVDs
Duration : 2 h 6 min
Bit rate : 69 b/s
Frame rate : 0.002 FPS
Count of elements : 12
Stream size : 64.4 KiB (0%)
Title : FORCED
Language : German
Default : No
Forced : No
Original source medium : Blu-ray

Text #15
ID : 26
ID in the original source medium : 4780 (0x12AC)
Format : PGS
Muxing mode : zlib
Codec ID : S_HDMV/PGS
Codec ID/Info : Picture based subtitle format used on BDs/HD-DVDs
Duration : 2 h 6 min
Bit rate : 654 b/s
Frame rate : 0.009 FPS
Count of elements : 66
Stream size : 607 KiB (0%)
Title : FORCED
Language : Japanese
Default : No
Forced : No
Original source medium : Blu-ray


新种推荐使用qBittorrent、uTorrent等下载软件,有条件的推荐115更好的下载软件!

银河护卫队2(60.00GB)Guardians.Of.The.Galaxy.Vol.2.2017.PROPER.2160p.BluRay.REMUX.HEVC.DTS-HD.MA.TrueHD.7.1.Atmos-FGT-【2160P蓝光REMUX】
游客,如果您要查看本帖隐藏内容请回复





4KQQ海报.gif

上一篇:银河护卫队/Guardians of the Galaxy (2014)4K蓝光REMUX版本下载
下一篇:沉睡魔咒 / Maleficent (2014) 4K蓝光REMUX版本下载
回复

使用道具 举报

您需要登录后才可以回帖 登录 | 立即注册

本版积分规则

精彩图文
Archiver|手机版|TAG|Sitemap|新帖|专题|联系我们:邮箱: 4kjia.com@gmail.com   

4k家园   ©2019