[4K UHD 蓝光原盘] 沉睡魔咒 / Maleficent (2014) 4K蓝光REMUX版本下载

[复制链接]

主题

帖子

0

积分

超级版主

Rank: 8Rank: 8

积分
0
 楼主| 发表于 2022-12-9 13:36:29 | 显示全部楼层 |阅读模式
QQ图片20221209133638_副本.png

◎译  名 黑魔后:沉睡魔咒(港) / 黑魔女:沉睡魔咒(台) / 梅尔菲森特 / 玛琳菲森 / 黑法魔女 / 睡美人外传
◎片  名 Maleficent
◎年  代 2014
◎产  地 美国 / 英国
◎类  别 奇幻 / 冒险
◎语  言 英语
◎上映日期 2014-06-20(中国大陆) / 2014-05-30(美国)
◎IMDb评分 6.9/10 from 377273 users 更新 : 2022-12-08
◎IMDb链接 https://www.imdb.com/title/tt1587310/
◎豆瓣评分 7.3/10 from 308298 users 更新 : 2022-12-08
◎豆瓣链接 https://movie.douban.com/subject/4301224/
◎片  长 98分钟(中国大陆)
◎导  演 罗伯特·斯特罗姆伯格 Robert Stromberg
◎编  剧 保罗·迪尼 Paul Dini / 琳达·伍尔芙顿 Linda Woolverton
◎演  员 安吉丽娜·朱莉 Angelina Jolie
       艾丽·范宁 Elle Fanning
       沙尔托·科普雷 Sharlto Copley
       莱丝利·曼维尔 Lesley Manville
       艾美达·斯丹顿 Imelda Staunton
       朱诺·坦普尔 Juno Temple
       萨姆·赖利 Sam Riley
       布伦顿·思韦茨 Brenton Thwaites
       肯内斯·库兰汉姆 Kenneth Cranham
       莎拉·弗林德 Sarah Flind
       汉娜·纽 Hannah New
       伊莎贝尔·莫洛伊 Isobelle Molloy
       迈克尔·希金斯 Michael Higgins
       艾拉·珀内尔 Ella Purnell
       杰克逊·比尤斯 Jackson Bews
       玛拉马·科利特 Marama Corlett
       埃莉诺•沃辛顿-考克斯 Eleanor Worthington-Cox
       约翰·麦克米兰 John MacMillan
       维维恩·玛谢琳·朱莉-皮特 Vivienne Jolie-Pitt
       乔·奥斯蒙德 Jo Osmond
       马修·约翰·摩尔利 Matthew John Morley
       安东尼·梅 Anthony May
       加里·嘉吉 Gary Cargill
       斯蒂芬·蔡斯 Stephan Chase
       Mark Caven Mark Caven
       史蒂芬·克里 Steven Cree
       珍妮·麦克蒂尔 Janet McTeer
       拉斯科·阿特金斯 Lasco Atkins
       大卫·博特 David Boat
       亚当·邦德 Adam Bond
       奥利弗·莫尔特曼 Oliver Maltman
       安格斯·瑞特 Angus Wright
       Kara Lily Hayworth Kara Lily Hayworth
       里奥·苏特 Leo Suter
       蒂姆·特洛洛尔 Tim Treloar
       安吉丽娜·朱莉 Angelina Jolie
       唐·哈恩 Don Hahn
       乔·罗斯 Joe Roth
       拉娜·德雷 Lana Del Rey
       詹姆斯·纽顿·霍华德 James Newton Howard
       迪安·塞姆勒 Dean Semler
       克里斯·莱本森 Chris Lebenzon
       理查德·皮尔逊 Richard Pearson
       露西·贝文 Lucy Bevan
       李·桑多斯 Lee Sandales
       Ashley Winter Ashley Winter
       Frank Walsh Frank Walsh
       Phil Sims Phil Sims
       迪伦·科尔 Dylan Cole
       David Allday David Allday
       加里·弗里曼 Gary Freeman
       安娜·B·薛帕德 Anna B. Sheppard
       周逸夫 YifuZhou
       杰西卡卡林顿 Jessica Carrington
       戴维·温斯坦 David Weinstein
       凯利·波特 Kelly Port
       斯科特·埃德斯坦 Scott Edelstein
       奥·布里克 Ed Ulbrich
       迈克尔·寇特斯 Michael Koltes


◎简  介

  在宁静祥和的摩尔王国,广袤的大森林中,动物与精灵和谐相处,无忧无虑。那一年,天真无邪的小仙女玛琳菲森(伊莎贝尔·莫洛伊 Isobelle Molloy 饰)邂逅了人类小男孩斯特凡(迈克尔·希金斯 Michael Higgins 饰)。他们两小无猜,成为亲密无间的好朋友, 更在万物的守护下坠入爱河。但是随着年龄的增长,斯特凡(沙尔托·科普雷 Sharlto Copley 饰)褪去了往日的纯真,被人类的贪欲所吸引。而玛琳菲森(安吉丽娜·朱莉 Angelina Jolie 饰)则成长为法术强大的仙女。愚蠢的人类向摩尔王国开战,斯特凡为了成为王位继承者,残忍地割下了玛琳菲森的翅膀。
       肉体的痛苦和心灵的创伤,让玛琳菲森变成了满怀仇恨的冷酷魔女,为了复仇她给斯特凡的女儿爱洛公主(艾丽·范宁 Elle Fanning 饰)施下了沉睡魔咒……
Video
ID : 1
ID in the original source medium : 4113 (0x1011)
Format : HEVC
Format/Info : High Efficiency Video Coding
Format profile : Main 10@L5.1@High
HDR format : SMPTE ST 2086, HDR10 compatible
Codec ID : V_MPEGH/ISO/HEVC
Duration : 1 h 37 min
Bit rate : 65.5 Mb/s
Width : 3 840 pixels
Height : 2 160 pixels
Display aspect ratio : 16:9
Frame rate mode : Constant
Frame rate : 23.976 (24000/1001) FPS
Color space : YUV
Chroma subsampling : 4:2:0 (Type 2)
Bit depth : 10 bits
Bits/(Pixel*Frame) : 0.329
Stream size : 44.6 GiB (82%)
Language : English
Default : No
Forced : No
Color range : Limited
Color primaries : BT.2020
Transfer characteristics : PQ
Matrix coefficients : BT.2020 non-constant
Mastering display color primaries : Display P3
Mastering display luminance : min: 0.0050 cd/m2, max: 4000 cd/m2
Maximum Content Light Level : 823 cd/m2
Maximum Frame-Average Light Level : 312 cd/m2
Original source medium : Blu-ray

Audio #1
ID : 2
ID in the original source medium : 4352 (0x1100)
Format : MLP FBA 16-ch
Format/Info : Meridian Lossless Packing FBA with 16-channel presentation
Commercial name : Dolby TrueHD with Dolby Atmos
Codec ID : A_TRUEHD
Duration : 1 h 37 min
Bit rate mode : Variable
Bit rate : 4 824 kb/s
Maximum bit rate : 7 926 kb/s
Channel(s) : 8 channels
Channel layout : L R C LFE Ls Rs Lb Rb
Sampling rate : 48.0 kHz
Frame rate : 1 200.000 FPS (40 SPF)
Bit depth : 24 bits
Compression mode : Lossless
Stream size : 3.28 GiB (6%)
Title : TrueHD 7.1 Atmos
Language : English
Default : Yes
Forced : No
Original source medium : Blu-ray
Number of dynamic objects : 13
Bed channel count : 1 channel
Bed channel configuration : LFE

Audio #2
ID : 3
Format : DTS XLL
Format/Info : Digital Theater Systems
Commercial name : DTS-HD Master Audio
Codec ID : A_DTS
Duration : 1 h 37 min
Bit rate mode : Variable
Bit rate : 4 023 kb/s
Channel(s) : 8 channels
Channel layout : C L R LFE Lb Rb Lss Rss
Sampling rate : 48.0 kHz
Frame rate : 93.750 FPS (512 SPF)
Bit depth : 24 bits
Compression mode : Lossless
Stream size : 2.74 GiB (5%)
Title : DTS-HD MA 7.1
Language : English
Default : No
Forced : No

Audio #3
ID : 4
ID in the original source medium : 4352 (0x1100)
Format : AC-3
Format/Info : Audio Coding 3
Commercial name : Dolby Digital
Codec ID : A_AC3
Duration : 1 h 37 min
Bit rate mode : Constant
Bit rate : 640 kb/s
Channel(s) : 6 channels
Channel layout : L R C LFE Ls Rs
Sampling rate : 48.0 kHz
Frame rate : 31.250 FPS (1536 SPF)
Compression mode : Lossy
Stream size : 446 MiB (1%)
Title : DD 5.1
Language : English
Service kind : Complete Main
Default : No
Forced : No
Original source medium : Blu-ray

Audio #4
ID : 5
ID in the original source medium : 4353 (0x1101)
Format : AC-3
Format/Info : Audio Coding 3
Commercial name : Dolby Digital
Codec ID : A_AC3
Duration : 1 h 37 min
Bit rate mode : Constant
Bit rate : 320 kb/s
Channel(s) : 2 channels
Channel layout : L R
Sampling rate : 48.0 kHz
Frame rate : 31.250 FPS (1536 SPF)
Compression mode : Lossy
Stream size : 223 MiB (0%)
Title : DD 2.0
Language : English
Service kind : Complete Main
Default : No
Forced : No
Original source medium : Blu-ray

Audio #5
ID : 6
ID in the original source medium : 4354 (0x1102)
Format : AC-3
Format/Info : Audio Coding 3
Commercial name : Dolby Digital
Codec ID : A_AC3
Duration : 1 h 37 min
Bit rate mode : Constant
Bit rate : 640 kb/s
Channel(s) : 6 channels
Channel layout : L R C LFE Ls Rs
Sampling rate : 48.0 kHz
Frame rate : 31.250 FPS (1536 SPF)
Compression mode : Lossy
Stream size : 446 MiB (1%)
Title : DD 5.1
Language : French
Service kind : Complete Main
Default : No
Forced : No
Original source medium : Blu-ray

Audio #6
ID : 7
Format : E-AC-3
Format/Info : Enhanced AC-3
Commercial name : Dolby Digital Plus
Format profile : Blu-ray Disc
Codec ID : A_EAC3
Duration : 1 h 37 min
Bit rate mode : Constant
Bit rate : 1 024 kb/s
Channel(s) : 8 channels
Channel layout : L R C LFE Ls Rs Lb Rb
Sampling rate : 48.0 kHz
Frame rate : 31.250 FPS (1536 SPF)
Compression mode : Lossy
Stream size : 714 MiB (1%)
Title : DDP 7.1
Language : French
Service kind : Complete Main
Default : No
Forced : No

Audio #7
ID : 8
Format : E-AC-3
Format/Info : Enhanced AC-3
Commercial name : Dolby Digital Plus
Format profile : Blu-ray Disc
Codec ID : A_EAC3
Duration : 1 h 37 min
Bit rate mode : Constant
Bit rate : 1 024 kb/s
Channel(s) : 8 channels
Channel layout : L R C LFE Ls Rs Lb Rb
Sampling rate : 48.0 kHz
Frame rate : 31.250 FPS (1536 SPF)
Compression mode : Lossy
Stream size : 714 MiB (1%)
Title : DDP 7.1
Language : Spanish
Service kind : Complete Main
Default : No
Forced : No

Audio #8
ID : 9
Format : E-AC-3
Format/Info : Enhanced AC-3
Commercial name : Dolby Digital Plus
Format profile : Blu-ray Disc
Codec ID : A_EAC3
Duration : 1 h 37 min
Bit rate mode : Constant
Bit rate : 1 024 kb/s
Channel(s) : 8 channels
Channel layout : L R C LFE Ls Rs Lb Rb
Sampling rate : 48.0 kHz
Frame rate : 31.250 FPS (1536 SPF)
Compression mode : Lossy
Stream size : 714 MiB (1%)
Title : DDP 7.1
Language : German
Service kind : Complete Main
Default : No
Forced : No

Audio #9
ID : 10
Format : E-AC-3
Format/Info : Enhanced AC-3
Commercial name : Dolby Digital Plus
Format profile : Blu-ray Disc
Codec ID : A_EAC3
Duration : 1 h 37 min
Bit rate mode : Constant
Bit rate : 1 024 kb/s
Channel(s) : 8 channels
Channel layout : L R C LFE Ls Rs Lb Rb
Sampling rate : 48.0 kHz
Frame rate : 31.250 FPS (1536 SPF)
Compression mode : Lossy
Stream size : 714 MiB (1%)
Title : DDP 7.1
Language : Italian
Service kind : Complete Main
Default : No
Forced : No

Text #1
ID : 11
Format : UTF-8
Codec ID : S_TEXT/UTF8
Codec ID/Info : UTF-8 Plain Text
Duration : 1 h 30 min
Bit rate : 30 b/s
Frame rate : 0.146 FPS
Count of elements : 796
Stream size : 20.0 KiB (0%)
Language : English
Default : Yes
Forced : No

Text #2
ID : 12
Format : UTF-8
Codec ID : S_TEXT/UTF8
Codec ID/Info : UTF-8 Plain Text
Duration : 1 h 30 min
Bit rate : 35 b/s
Frame rate : 0.187 FPS
Count of elements : 1020
Stream size : 23.8 KiB (0%)
Title : SDH
Language : English
Default : No
Forced : No

Text #3
ID : 13
ID in the original source medium : 4768 (0x12A0)
Format : PGS
Muxing mode : zlib
Codec ID : S_HDMV/PGS
Codec ID/Info : Picture based subtitle format used on BDs/HD-DVDs
Duration : 1 h 30 min
Bit rate : 25.1 kb/s
Frame rate : 0.381 FPS
Count of elements : 2076
Stream size : 16.3 MiB (0%)
Language : English
Default : No
Forced : No
Original source medium : Blu-ray

Text #4
ID : 14
ID in the original source medium : 4769 (0x12A1)
Format : PGS
Muxing mode : zlib
Codec ID : S_HDMV/PGS
Codec ID/Info : Picture based subtitle format used on BDs/HD-DVDs
Duration : 1 h 29 min
Bit rate : 19.6 kb/s
Frame rate : 0.267 FPS
Count of elements : 1430
Stream size : 12.5 MiB (0%)
Language : French
Default : No
Forced : No
Original source medium : Blu-ray

Text #5
ID : 15
ID in the original source medium : 4770 (0x12A2)
Format : PGS
Muxing mode : zlib
Codec ID : S_HDMV/PGS
Codec ID/Info : Picture based subtitle format used on BDs/HD-DVDs
Duration : 1 h 28 min
Bit rate : 18.7 kb/s
Frame rate : 0.273 FPS
Count of elements : 1446
Stream size : 11.8 MiB (0%)
Language : French
Default : No
Forced : No
Original source medium : Blu-ray

Text #6
ID : 16
ID in the original source medium : 4771 (0x12A3)
Format : PGS
Muxing mode : zlib
Codec ID : S_HDMV/PGS
Codec ID/Info : Picture based subtitle format used on BDs/HD-DVDs
Duration : 1 h 29 min
Bit rate : 18.6 kb/s
Frame rate : 0.275 FPS
Count of elements : 1474
Stream size : 11.9 MiB (0%)
Language : Spanish
Default : No
Forced : No
Original source medium : Blu-ray

Text #7
ID : 17
ID in the original source medium : 4772 (0x12A4)
Format : PGS
Muxing mode : zlib
Codec ID : S_HDMV/PGS
Codec ID/Info : Picture based subtitle format used on BDs/HD-DVDs
Duration : 1 h 29 min
Bit rate : 18.1 kb/s
Frame rate : 0.287 FPS
Count of elements : 1536
Stream size : 11.6 MiB (0%)
Language : German
Default : No
Forced : No
Original source medium : Blu-ray

Text #8
ID : 18
ID in the original source medium : 4773 (0x12A5)
Format : PGS
Muxing mode : zlib
Codec ID : S_HDMV/PGS
Codec ID/Info : Picture based subtitle format used on BDs/HD-DVDs
Duration : 1 h 27 min
Bit rate : 18.5 kb/s
Frame rate : 0.279 FPS
Count of elements : 1470
Stream size : 11.6 MiB (0%)
Language : Italian
Default : No
Forced : No
Original source medium : Blu-ray

Text #9
ID : 19
ID in the original source medium : 4774 (0x12A6)
Format : PGS
Muxing mode : zlib
Codec ID : S_HDMV/PGS
Codec ID/Info : Picture based subtitle format used on BDs/HD-DVDs
Duration : 1 h 27 min
Bit rate : 19.0 kb/s
Frame rate : 0.280 FPS
Count of elements : 1472
Stream size : 11.9 MiB (0%)
Language : Norwegian
Default : No
Forced : No
Original source medium : Blu-ray

Text #10
ID : 20
ID in the original source medium : 4775 (0x12A7)
Format : PGS
Muxing mode : zlib
Codec ID : S_HDMV/PGS
Codec ID/Info : Picture based subtitle format used on BDs/HD-DVDs
Duration : 1 h 27 min
Bit rate : 17.5 kb/s
Frame rate : 0.204 FPS
Count of elements : 1074
Stream size : 11.0 MiB (0%)
Language : Swedish
Default : No
Forced : No
Original source medium : Blu-ray

Text #11
ID : 21
ID in the original source medium : 4776 (0x12A8)
Format : PGS
Muxing mode : zlib
Codec ID : S_HDMV/PGS
Codec ID/Info : Picture based subtitle format used on BDs/HD-DVDs
Duration : 1 min 5 s
Bit rate : 6 503 b/s
Frame rate : 0.154 FPS
Count of elements : 10
Stream size : 51.7 KiB (0%)
Language : French
Default : No
Forced : No
Original source medium : Blu-ray

Text #12
ID : 22
ID in the original source medium : 4777 (0x12A9)
Format : PGS
Muxing mode : zlib
Codec ID : S_HDMV/PGS
Codec ID/Info : Picture based subtitle format used on BDs/HD-DVDs
Duration : 3 s 191 ms
Bit rate : 21.9 kb/s
Frame rate : 0.627 FPS
Count of elements : 2
Stream size : 8.52 KiB (0%)
Language : French
Default : No
Forced : No
Original source medium : Blu-ray

Text #13
ID : 23
ID in the original source medium : 4778 (0x12AA)
Format : PGS
Muxing mode : zlib
Codec ID : S_HDMV/PGS
Codec ID/Info : Picture based subtitle format used on BDs/HD-DVDs
Duration : 1 min 5 s
Bit rate : 1 892 b/s
Frame rate : 0.061 FPS
Count of elements : 4
Stream size : 15.0 KiB (0%)
Language : Spanish
Default : No
Forced : No
Original source medium : Blu-ray

Text #14
ID : 24
ID in the original source medium : 4779 (0x12AB)
Format : PGS
Muxing mode : zlib
Codec ID : S_HDMV/PGS
Codec ID/Info : Picture based subtitle format used on BDs/HD-DVDs
Duration : 1 min 5 s
Bit rate : 4 512 b/s
Frame rate : 0.061 FPS
Count of elements : 4
Stream size : 35.9 KiB (0%)
Language : German
Default : No
Forced : No
Original source medium : Blu-ray

新种推荐使用qBittorrent、uTorrent等下载软件,有条件的推荐115更好的下载软件!

沉睡魔咒(54.54GB)Maleficent.2014.PROPER.2160p.BluRay.REMUX.HEVC.DTS-HD.MA.TrueHD.7.1.Atmos-FGT-【2160P蓝光REMUX】
游客,如果您要查看本帖隐藏内容请回复

沉睡魔咒(9.50GB)Maleficent.2014.2160p.UHD.BluRay.x265.10bit.HDR.TrueHD.7.1.Atmos
游客,如果您要查看本帖隐藏内容请回复

沉睡魔咒(5.90GB)Maleficent.2014.2160p.UHD.BluRay.x265.10bit.HDR.DDP5.1
游客,如果您要查看本帖隐藏内容请回复




4KQQ海报.gif

上一篇:银河护卫队2 [内嵌中字] (2017) 4K蓝光REMUX版本下载
下一篇:沉睡魔咒2 / Maleficent: Mistress of Evil (2019)4K蓝光REMUX版本下载
回复

使用道具 举报

您需要登录后才可以回帖 登录 | 立即注册

本版积分规则

精彩图文
Archiver|手机版|TAG|Sitemap|新帖|专题|联系我们:邮箱: 4kjia.com@gmail.com   

4k家园   ©2019