[4K电影] 七囚徒 [简繁中字] / 7 Prisioneiros (2021) 4K高清版本下载

[复制链接]

主题

帖子

0

积分

超级版主

Rank: 8Rank: 8

积分
0
 楼主| 发表于 2022-12-9 14:18:31 | 显示全部楼层 |阅读模式
本帖最后由 最爱4K哟 于 2022-12-9 16:09 编辑

七囚徒.png

◎译  名 囚犯7人 / 七囚 / 7 Prisoners
◎片  名 7 Prisioneiros
◎年  代 2021
◎产  地 巴西
◎类  别 剧情 / 犯罪
◎语  言 葡萄牙语
◎上映日期 2021-09-06(威尼斯电影节) / 2021-11-11(巴西)
◎IMDb评分 7.1/10 from 7620 users 更新 : 2022-12-08
◎IMDb链接 https://www.imdb.com/title/tt14168118/
◎豆瓣评分 7.5/10 from 1152 users 更新 : 2022-12-08
◎豆瓣链接 https://movie.douban.com/subject/35546069/
◎片  长 94分钟
◎导  演 亚历山大·莫拉托 / Alexandre Moratto
◎编  剧 亚历山大·莫拉托 / Alexandre Moratto
◎演  员 克里斯蒂安·马列罗斯 Christian Malheiros
                   罗德里戈·桑托罗 Rodrigo Santoro
                   卢卡斯·奥兰米安 Lucas Oranmian
                   维托·朱利安 Vitor Julian
                   乔西亚斯·杜阿尔特 Josias Duarte
                   安德烈·阿布贾姆拉 André Abujamra
                   迪斯·托马兹 Dirce Thomaz
                   塞西莉亚·霍姆·德梅洛 Cecília Homem de Mello
                   杰伊森·阿卡拉 Jheysson Acalá
                   鲁道夫·阿莫林 Rodolfo Amorim
                   路易莎·安图内斯 Luiza Antunes
                   马亚拉·巴蒂斯塔 Mayara Batista
                   里卡多·博纳 Ricardo Bonnet
                   乔丹诺·卡斯特罗 Giordano Castro
                   阿纳尼亚斯·戴维思 Ananias Davidth
                   Maurício de Barros Maurício de Barros
                   伊纳拉·多斯桑托斯 Inara Dos Santos
                   玛丽亚·艾米莉亚·法拉 Maria Amélia Farah



◎简  介

  18 岁的马图斯(克里斯蒂安·马尔赫罗斯饰)希望为乡下的工人阶层家庭提供更好的生活。他和镇上的其他少年一起辗转进城,到圣保罗工作,完全不知道等待着他们的是什么:他们到了一个废品站,开始没日没夜地干活,恶毒的工头和剥削者卢卡(罗德里戈·桑托罗饰)收走了他们的身份证,并威胁他们,如果他们试图逃跑,后果不堪设想。
但是,正如马图斯所了解的,即使是老板也会听命于他人。如果想要找到出路,他必须变成什么样的人?
《七囚》是一部张力十足的惊悚片,讲述如今经济衰退现状的黑暗一面,以及人在其中的挣扎,深入探讨了何为权力、团结和背叛。该电影由获奥斯卡提名的制片人费尔南多·梅里尔斯(《上帝之城》)和拉敏·巴哈尼(《白虎》)制作,是编剧兼导演亚历山大·莫拉托(《苏格拉底》)的第二部剧情片,凭此确认了他作为巴西电影界新生力量的实力。

Video
ID : 1
Format : HEVC
Format/Info : High Efficiency Video Coding
Format profile : Main 10@L5@Main
HDR format : Dolby Vision, Version 1.0, dvhe.05.06, BL+RPU
Codec ID : dvhe
Codec ID/Info : High Efficiency Video Coding with Dolby Vision
Duration : 1 h 34 min
Bit rate : 18.8 Mb/s
Width : 3 840 pixels
Height : 2 160 pixels
Display aspect ratio : 16:9
Frame rate mode : Constant
Frame rate : 24.000 FPS
Color space : YUV
Chroma subsampling : 4:2:0
Bit depth : 10 bits
Bits/(Pixel*Frame) : 0.094
Stream size : 12.4 GiB (96%)
Default : Yes
Alternate group : 1
Encoded date : UTC 2022-12-08 22:09:09
Tagged date : UTC 2022-12-08 22:12:00
Color range : Full
Codec configuration box : hvcC+dvcC

Audio
ID : 2
Format : E-AC-3 JOC
Format/Info : Enhanced AC-3 with Joint Object Coding
Commercial name : Dolby Digital Plus with Dolby Atmos
Codec ID : ec-3
Duration : 1 h 34 min
Bit rate mode : Constant
Bit rate : 768 kb/s
Maximum bit rate : 811 kb/s
Channel(s) : 6 channels
Channel layout : L R C LFE Ls Rs
Sampling rate : 48.0 kHz
Frame rate : 31.250 FPS (1536 SPF)
Compression mode : Lossy
Stream size : 519 MiB (4%)
Title : English
Language : English
Service kind : Complete Main
Default : Yes
Alternate group : 1
Tagged date : UTC 2022-12-08 22:12:00
Complexity index : Not present / 16
Number of dynamic objects : 15
Bed channel count : 1 channel
Bed channel configuration : LFE

Text #1
ID : 3
Format : Timed Text
Codec ID : tx3g
Duration : 1 h 26 min
Bit rate mode : Variable
Bit rate : 48 b/s
Frame rate : 0.354 FPS
Stream size : 30.1 KiB (0%)
Title : English
Language : English
Forced : No
Encoded date : UTC 2022-12-08 22:11:57
Tagged date : UTC 2022-12-08 22:12:00

Text #2
ID : 4
Format : Timed Text
Codec ID : tx3g
Duration : 1 h 28 min
Bit rate mode : Variable
Bit rate : 63 b/s
Frame rate : 0.486 FPS
Stream size : 40.5 KiB (0%)
Title : English
Language : English
Forced : No
Encoded date : UTC 2022-12-08 22:11:57
Tagged date : UTC 2022-12-08 22:12:00

Text #3
ID : 5
Format : Timed Text
Codec ID : tx3g
Duration : 1 h 26 min
Bit rate mode : Variable
Bit rate : 50 b/s
Frame rate : 0.373 FPS
Stream size : 31.8 KiB (0%)
Title : English
Language : English
Forced : No
Encoded date : UTC 2022-12-08 22:11:58
Tagged date : UTC 2022-12-08 22:12:00

Text #4
ID : 6
Format : Timed Text
Codec ID : tx3g
Duration : 1 h 26 min
Bit rate mode : Variable
Bit rate : 76 b/s
Frame rate : 0.371 FPS
Stream size : 48.4 KiB (0%)
Title : Arabic
Language : Arabic
Forced : No
Encoded date : UTC 2022-12-08 22:11:58
Tagged date : UTC 2022-12-08 22:12:00

Text #5
ID : 7
Format : Timed Text
Codec ID : tx3g
Duration : 1 h 33 min
Bit rate mode : Variable
Bit rate : 45 b/s
Frame rate : 0.345 FPS
Stream size : 31.0 KiB (0%)
Title : 简体中字
Language : Chinese

Forced : No
Encoded date : UTC 2022-12-08 22:11:58
Tagged date : UTC 2022-12-08 22:12:00

Text #6
ID : 8
Format : Timed Text
Codec ID : tx3g
Duration : 1 h 33 min
Bit rate mode : Variable
Bit rate : 44 b/s
Frame rate : 0.351 FPS
Stream size : 30.4 KiB (0%)
Title : 繁体中字
Language : Chinese

Forced : No
Encoded date : UTC 2022-12-08 22:11:58
Tagged date : UTC 2022-12-08 22:12:00

Text #7
ID : 9
Format : Timed Text
Codec ID : tx3g
Duration : 1 h 33 min
Bit rate mode : Variable
Bit rate : 38 b/s
Frame rate : 0.340 FPS
Stream size : 26.1 KiB (0%)
Title : Croatian
Language : Croatian
Forced : No
Encoded date : UTC 2022-12-08 22:11:58
Tagged date : UTC 2022-12-08 22:12:00

Text #8
ID : 10
Format : Timed Text
Codec ID : tx3g
Duration : 1 h 33 min
Bit rate mode : Variable
Bit rate : 42 b/s
Frame rate : 0.337 FPS
Stream size : 28.6 KiB (0%)
Title : Czech
Language : Czech
Forced : No
Encoded date : UTC 2022-12-08 22:11:58
Tagged date : UTC 2022-12-08 22:12:00

Text #9
ID : 11
Format : Timed Text
Codec ID : tx3g
Duration : 1 h 33 min
Bit rate mode : Variable
Bit rate : 38 b/s
Frame rate : 0.329 FPS
Stream size : 26.2 KiB (0%)
Title : Danish
Language : Danish
Forced : No
Encoded date : UTC 2022-12-08 22:11:58
Tagged date : UTC 2022-12-08 22:12:00

Text #10
ID : 12
Format : Timed Text
Codec ID : tx3g
Duration : 1 h 26 min
Bit rate mode : Variable
Bit rate : 44 b/s
Frame rate : 0.340 FPS
Stream size : 27.5 KiB (0%)
Title : Dutch
Language : Dutch
Forced : No
Encoded date : UTC 2022-12-08 22:11:58
Tagged date : UTC 2022-12-08 22:12:00

Text #11
ID : 13
Format : Timed Text
Codec ID : tx3g
Duration : 1 h 33 min
Bit rate mode : Variable
Bit rate : 40 b/s
Frame rate : 0.287 FPS
Stream size : 27.2 KiB (0%)
Title : Finnish
Language : Finnish
Forced : No
Encoded date : UTC 2022-12-08 22:11:58
Tagged date : UTC 2022-12-08 22:12:00

Text #12
ID : 14
Format : Timed Text
Codec ID : tx3g
Duration : 1 h 33 min
Bit rate mode : Variable
Bit rate : 41 b/s
Frame rate : 0.341 FPS
Stream size : 28.1 KiB (0%)
Title : French
Language : French
Forced : No
Encoded date : UTC 2022-12-08 22:11:58
Tagged date : UTC 2022-12-08 22:12:00

Text #13
ID : 15
Format : Timed Text
Codec ID : tx3g
Duration : 1 h 33 min
Bit rate mode : Variable
Bit rate : 43 b/s
Frame rate : 0.343 FPS
Stream size : 29.5 KiB (0%)
Title : German
Language : German
Forced : No
Encoded date : UTC 2022-12-08 22:11:58
Tagged date : UTC 2022-12-08 22:12:00

Text #14
ID : 16
Format : Timed Text
Codec ID : tx3g
Duration : 1 h 33 min
Bit rate mode : Variable
Bit rate : 66 b/s
Frame rate : 0.350 FPS
Stream size : 44.9 KiB (0%)
Title : Greek
Language : Greek
Forced : No
Encoded date : UTC 2022-12-08 22:11:58
Tagged date : UTC 2022-12-08 22:12:00

Text #15
ID : 17
Format : Timed Text
Codec ID : tx3g
Duration : 1 h 26 min
Bit rate mode : Variable
Bit rate : 70 b/s
Frame rate : 0.366 FPS
Stream size : 44.4 KiB (0%)
Title : Hebrew
Language : Hebrew
Forced : No
Encoded date : UTC 2022-12-08 22:11:58
Tagged date : UTC 2022-12-08 22:12:00

Text #16
ID : 18
Format : Timed Text
Codec ID : tx3g
Duration : 1 h 33 min
Bit rate mode : Variable
Bit rate : 42 b/s
Frame rate : 0.318 FPS
Stream size : 28.8 KiB (0%)
Title : Hungarian
Language : Hungarian
Forced : No
Encoded date : UTC 2022-12-08 22:11:59
Tagged date : UTC 2022-12-08 22:12:00

Text #17
ID : 19
Format : Timed Text
Codec ID : tx3g
Duration : 1 h 26 min
Bit rate mode : Variable
Bit rate : 44 b/s
Frame rate : 0.371 FPS
Stream size : 28.0 KiB (0%)
Title : Indonesian
Language : Indonesian
Forced : No
Encoded date : UTC 2022-12-08 22:11:59
Tagged date : UTC 2022-12-08 22:12:00

Text #18
ID : 20
Format : Timed Text
Codec ID : tx3g
Duration : 1 h 33 min
Bit rate mode : Variable
Bit rate : 42 b/s
Frame rate : 0.330 FPS
Stream size : 28.9 KiB (0%)
Title : Italian
Language : Italian
Forced : No
Encoded date : UTC 2022-12-08 22:11:59
Tagged date : UTC 2022-12-08 22:12:00

Text #19
ID : 21
Format : Timed Text
Codec ID : tx3g
Duration : 1 h 33 min
Bit rate mode : Variable
Bit rate : 40 b/s
Frame rate : 0.365 FPS
Stream size : 27.2 KiB (0%)
Title : Japanese
Language : Japanese
Forced : No
Encoded date : UTC 2022-12-08 22:11:59
Tagged date : UTC 2022-12-08 22:12:00

Text #20
ID : 22
Format : Timed Text
Codec ID : tx3g
Duration : 1 h 33 min
Bit rate mode : Variable
Bit rate : 50 b/s
Frame rate : 0.345 FPS
Stream size : 34.3 KiB (0%)
Title : Korean
Language : Korean
Forced : No
Encoded date : UTC 2022-12-08 22:11:59
Tagged date : UTC 2022-12-08 22:12:00

Text #21
ID : 23
Format : Timed Text
Codec ID : tx3g
Duration : 1 h 33 min
Bit rate mode : Variable
Bit rate : 40 b/s
Frame rate : 0.357 FPS
Stream size : 27.6 KiB (0%)
Title : Malay
Language : Malay
Forced : No
Encoded date : UTC 2022-12-08 22:11:59
Tagged date : UTC 2022-12-08 22:12:00

Text #22
ID : 24
Format : Timed Text
Codec ID : tx3g
Duration : 1 h 33 min
Bit rate mode : Variable
Bit rate : 40 b/s
Frame rate : 0.322 FPS
Stream size : 27.3 KiB (0%)
Title : Norwegian
Language : Norwegian Bokmal
Forced : No
Encoded date : UTC 2022-12-08 22:11:59
Tagged date : UTC 2022-12-08 22:12:00

Text #23
ID : 25
Format : Timed Text
Codec ID : tx3g
Duration : 1 h 33 min
Bit rate mode : Variable
Bit rate : 39 b/s
Frame rate : 0.338 FPS
Stream size : 26.8 KiB (0%)
Title : Polish
Language : Polish
Forced : No
Encoded date : UTC 2022-12-08 22:11:59
Tagged date : UTC 2022-12-08 22:12:00

Text #24
ID : 26
Format : Timed Text
Codec ID : tx3g
Duration : 1 h 33 min
Bit rate mode : Variable
Bit rate : 64 b/s
Frame rate : 0.457 FPS
Stream size : 43.7 KiB (0%)
Title : Portuguese-BR
Language : Portuguese
Forced : No
Encoded date : UTC 2022-12-08 22:11:59
Tagged date : UTC 2022-12-08 22:12:00

Text #25
ID : 27
Format : Timed Text
Codec ID : tx3g
Duration : 1 h 1 min
Bit rate mode : Variable
Bit rate : 1 b/s
Frame rate : 0.011 FPS
Stream size : 588 Bytes (0%)
Title : Portuguese-BR
Language : Portuguese
Forced : No
Encoded date : UTC 2022-12-08 22:11:59
Tagged date : UTC 2022-12-08 22:12:00

Text #26
ID : 28
Format : Timed Text
Codec ID : tx3g
Duration : 1 h 26 min
Bit rate mode : Variable
Bit rate : 52 b/s
Frame rate : 0.378 FPS
Stream size : 32.8 KiB (0%)
Title : Portuguese-BR
Language : Portuguese
Forced : No
Encoded date : UTC 2022-12-08 22:11:59
Tagged date : UTC 2022-12-08 22:12:00

Text #27
ID : 29
Format : Timed Text
Codec ID : tx3g
Duration : 1 h 33 min
Bit rate mode : Variable
Bit rate : 48 b/s
Frame rate : 0.336 FPS
Stream size : 32.6 KiB (0%)
Title : Romanian
Language : Romanian
Forced : No
Encoded date : UTC 2022-12-08 22:11:59
Tagged date : UTC 2022-12-08 22:12:00

Text #28
ID : 30
Format : Timed Text
Codec ID : tx3g
Duration : 1 h 33 min
Bit rate mode : Variable
Bit rate : 63 b/s
Frame rate : 0.341 FPS
Stream size : 43.2 KiB (0%)
Title : Russian
Language : Russian
Forced : No
Encoded date : UTC 2022-12-08 22:11:59
Tagged date : UTC 2022-12-08 22:12:00

Text #29
ID : 31
Format : Timed Text
Codec ID : tx3g
Duration : 1 h 33 min
Bit rate mode : Variable
Bit rate : 42 b/s
Frame rate : 0.335 FPS
Stream size : 29.0 KiB (0%)
Title : Spanish
Language : Spanish
Forced : No
Encoded date : UTC 2022-12-08 22:11:59
Tagged date : UTC 2022-12-08 22:12:00

Text #30
ID : 32
Format : Timed Text
Codec ID : tx3g
Duration : 1 h 33 min
Bit rate mode : Variable
Bit rate : 39 b/s
Frame rate : 0.338 FPS
Stream size : 27.0 KiB (0%)
Title : Spanish-EU
Language : Spanish
Forced : No
Encoded date : UTC 2022-12-08 22:12:00
Tagged date : UTC 2022-12-08 22:12:00

Text #31
ID : 33
Format : Timed Text
Codec ID : tx3g
Duration : 1 h 33 min
Bit rate mode : Variable
Bit rate : 42 b/s
Frame rate : 0.340 FPS
Stream size : 28.5 KiB (0%)
Title : Swedish
Language : Swedish
Forced : No
Encoded date : UTC 2022-12-08 22:12:00
Tagged date : UTC 2022-12-08 22:12:00

Text #32
ID : 34
Format : Timed Text
Codec ID : tx3g
Duration : 1 h 33 min
Bit rate mode : Variable
Bit rate : 104 b/s
Frame rate : 0.345 FPS
Stream size : 70.9 KiB (0%)
Title : Thai
Language : Thai
Forced : No
Encoded date : UTC 2022-12-08 22:12:00
Tagged date : UTC 2022-12-08 22:12:00

Text #33
ID : 35
Format : Timed Text
Codec ID : tx3g
Duration : 1 h 33 min
Bit rate mode : Variable
Bit rate : 41 b/s
Frame rate : 0.341 FPS
Stream size : 28.3 KiB (0%)
Title : Turkish
Language : Turkish
Forced : No
Encoded date : UTC 2022-12-08 22:12:00
Tagged date : UTC 2022-12-08 22:12:00

Text #34
ID : 36
Format : Timed Text
Codec ID : tx3g
Duration : 1 h 33 min
Bit rate mode : Variable
Bit rate : 62 b/s
Frame rate : 0.341 FPS
Stream size : 42.7 KiB (0%)
Title : Ukrainian
Language : Ukrainian
Forced : No
Encoded date : UTC 2022-12-08 22:12:00
Tagged date : UTC 2022-12-08 22:12:00

Text #35
ID : 37
Format : Timed Text
Codec ID : tx3g
Duration : 1 h 33 min
Bit rate mode : Variable
Bit rate : 59 b/s
Frame rate : 0.331 FPS
Stream size : 40.4 KiB (0%)
Title : Vietnamese
Language : Vietnamese
Forced : No
Encoded date : UTC 2022-12-08 22:12:00
Tagged date : UTC 2022-12-08 22:12:00

推荐使用qBittorrent、uTorrent、BitComet等下载软件,有条件的推荐115或会员软件下载!

下载地址


游客,如果您要查看本帖隐藏内容请回复

游客,如果您要查看本帖隐藏内容请回复

游客,如果您要查看本帖隐藏内容请回复





上一篇:响尾蛇 [简繁中字] / Rattlesnake (2019) 4K高清版本下载
下一篇:逆冰之行 [简繁中字] / Against the Ice‎ (2022) 4K高清版本下载
回复

使用道具 举报

0

主题

13

帖子

29

积分

新手上路

Rank: 1

积分
29
发表于 2022-12-9 14:31:01 | 显示全部楼层
不错可以下载来试试看,
回复 支持 反对

使用道具 举报

0

主题

226

帖子

1016

积分

4K家园VIP

Rank: 9Rank: 9Rank: 9

积分
1016
发表于 2022-12-9 19:51:36 | 显示全部楼层
楼主辛苦了,谢谢楼主,感谢楼主分享,楼主好人一生平安!!!
回复 支持 反对

使用道具 举报

0

主题

5

帖子

21

积分

新手上路

Rank: 1

积分
21
发表于 2022-12-10 08:37:11 | 显示全部楼层
好好好!
回复

使用道具 举报

您需要登录后才可以回帖 登录 | 立即注册

本版积分规则

精彩图文
Archiver|手机版|TAG|Sitemap|新帖|专题|联系我们:邮箱: 4kjia.com@gmail.com   

4k家园   ©2019