[4K电影] 救命卡特 [简繁中字] / Carter (2022) 4K高清版本下载

[复制链接]

主题

帖子

0

积分

超级版主

Rank: 8Rank: 8

积分
0
 楼主| 发表于 2022-12-9 14:40:47 | 显示全部楼层 |阅读模式
本帖最后由 最爱4K哟 于 2022-12-9 16:03 编辑

救命卡特.png

◎译  名 卡特 / Carter
◎片  名 카터
◎年  代 2022
◎产  地 韩国
◎类  别 动作 / 惊悚
◎语  言 韩语 / 英语
◎上映日期 2022-08-05(韩国网络)
◎IMDb评分 5.1/10 from 8352 users 更新 : 2022-12-08
◎IMDb链接 https://www.imdb.com/title/tt21237030/
◎豆瓣评分 5.5/10 from 6215 users 更新 : 2022-12-08
◎豆瓣链接 https://movie.douban.com/subject/35374060/
◎片  长 132分钟
◎导  演 郑秉吉 Byeong-gil Jeong
◎编  剧 郑秉希 Byeong-sik Jung / 郑秉吉 Byeong-gil Jeong
◎演  员 周元 Won Joo
       金宝敏 Bo-min Kim
       李成宰 Sung-jae Lee
       安德烈亚斯·弗龙克 Andreas Fronk
       郑素利 So-ri Jung


◎简  介


  “你的名字是卡特。如果你想让我们都活下来,请相信我。”
来自非军事区的致命疫情摧毁了美国和朝鲜,两个月后,“卡特”醒来,他对自己的过去没有任何记忆。 他的脑袋里有一个神秘的装置,而嘴里是一颗致命的炸弹。 一个陌生的声音在他耳边下达命令。 炸弹随时可能引爆 — 除非他救出唯一能解毒的女孩。 并且等待他的是中央情报局和朝鲜政变。卡特必须成功完成任务,并前往北方找到那个女孩。他在这部一镜到底的动作片中展开了一场求生之战!
Video
ID : 1
Format : HEVC
Format/Info : High Efficiency Video Coding
Format profile : Main 10@L5@Main
HDR format : Dolby Vision, Version 1.0, dvhe.05.06, BL+RPU
Codec ID : V_MPEGH/ISO/HEVC
Duration : 2 h 14 min
Bit rate : 15.8 Mb/s
Width : 3 840 pixels
Height : 2 160 pixels
Display aspect ratio : 16:9
Frame rate mode : Constant
Frame rate : 23.976 (24000/1001) FPS
Color space : YUV
Chroma subsampling : 4:2:0
Bit depth : 10 bits
Bits/(Pixel*Frame) : 0.080
Stream size : 14.8 GiB (95%)
Language : Korean
Default : Yes
Forced : No
Color range : Full

Audio
ID : 2
Format : E-AC-3 JOC
Format/Info : Enhanced AC-3 with Joint Object Coding
Commercial name : Dolby Digital Plus with Dolby Atmos
Codec ID : A_EAC3
Duration : 2 h 14 min
Bit rate mode : Constant
Bit rate : 768 kb/s
Channel(s) : 6 channels
Channel layout : L R C LFE Ls Rs
Sampling rate : 48.0 kHz
Frame rate : 31.250 FPS (1536 SPF)
Compression mode : Lossy
Stream size : 737 MiB (5%)
Language : Korean
Service kind : Complete Main
Default : Yes
Forced : No
Complexity index : 16
Number of dynamic objects : 15
Bed channel count : 1 channel
Bed channel configuration : LFE

Text #1
ID : 3
Format : UTF-8
Codec ID : S_TEXT/UTF8
Codec ID/Info : UTF-8 Plain Text
Duration : 1 h 49 min
Bit rate : 12 b/s
Frame rate : 0.039 FPS
Count of elements : 254
Stream size : 9.92 KiB (0%)
Title : Forced
Language : Korean
Default : Yes
Forced : Yes

Text #2
ID : 4
Format : UTF-8
Codec ID : S_TEXT/UTF8
Codec ID/Info : UTF-8 Plain Text
Duration : 2 h 11 min
Bit rate : 44 b/s
Frame rate : 0.219 FPS
Count of elements : 1731
Stream size : 42.8 KiB (0%)
Language : Korean
Default : No
Forced : No

Text #3
ID : 5
Format : UTF-8
Codec ID : S_TEXT/UTF8
Codec ID/Info : UTF-8 Plain Text
Duration : 2 h 11 min
Bit rate : 68 b/s
Frame rate : 0.219 FPS
Count of elements : 1731
Stream size : 66.2 KiB (0%)
Title : SDH
Language : Korean
Default : No
Forced : No

Text #4
ID : 6
Format : UTF-8
Codec ID : S_TEXT/UTF8
Codec ID/Info : UTF-8 Plain Text
Duration : 2 h 7 min
Bit rate : 59 b/s
Frame rate : 0.131 FPS
Count of elements : 1000
Stream size : 55.4 KiB (0%)
Language : Arabic
Default : No
Forced : No

Text #5
ID : 7
Format : UTF-8
Codec ID : S_TEXT/UTF8
Codec ID/Info : UTF-8 Plain Text
Duration : 2 h 7 min
Bit rate : 34 b/s
Frame rate : 0.133 FPS
Count of elements : 1017
Stream size : 32.5 KiB (0%)
Language : Czech
Default : No
Forced : No

Text #6
ID : 8
Format : UTF-8
Codec ID : S_TEXT/UTF8
Codec ID/Info : UTF-8 Plain Text
Duration : 2 h 7 min
Bit rate : 32 b/s
Frame rate : 0.119 FPS
Count of elements : 911
Stream size : 30.3 KiB (0%)
Language : Danish
Default : No
Forced : No

Text #7
ID : 9
Format : UTF-8
Codec ID : S_TEXT/UTF8
Codec ID/Info : UTF-8 Plain Text
Duration : 2 h 7 min
Bit rate : 34 b/s
Frame rate : 0.122 FPS
Count of elements : 935
Stream size : 32.6 KiB (0%)
Language : German
Default : No
Forced : No

Text #8
ID : 10
Format : UTF-8
Codec ID : S_TEXT/UTF8
Codec ID/Info : UTF-8 Plain Text
Duration : 2 h 7 min
Bit rate : 57 b/s
Frame rate : 0.127 FPS
Count of elements : 973
Stream size : 53.5 KiB (0%)
Language : Greek
Default : No
Forced : No

Text #9
ID : 11
Format : UTF-8
Codec ID : S_TEXT/UTF8
Codec ID/Info : UTF-8 Plain Text
Duration : 2 h 6 min
Bit rate : 39 b/s
Frame rate : 0.139 FPS
Count of elements : 1056
Stream size : 36.5 KiB (0%)
Language : English
Default : No
Forced : No

Text #10
ID : 12
Format : UTF-8
Codec ID : S_TEXT/UTF8
Codec ID/Info : UTF-8 Plain Text
Duration : 2 h 5 min
Bit rate : 28 b/s
Frame rate : 0.099 FPS
Count of elements : 745
Stream size : 26.2 KiB (0%)
Language : English
Default : No
Forced : No

Text #11
ID : 13
Format : UTF-8
Codec ID : S_TEXT/UTF8
Codec ID/Info : UTF-8 Plain Text
Duration : 2 h 11 min
Bit rate : 53 b/s
Frame rate : 0.225 FPS
Count of elements : 1778
Stream size : 51.8 KiB (0%)
Title : SDH
Language : English
Default : No
Forced : No

Text #12
ID : 14
Format : UTF-8
Codec ID : S_TEXT/UTF8
Codec ID/Info : UTF-8 Plain Text
Duration : 2 h 7 min
Bit rate : 37 b/s
Frame rate : 0.132 FPS
Count of elements : 1007
Stream size : 35.3 KiB (0%)
Title : Latin American
Language : Spanish
Default : No
Forced : No

Text #13
ID : 15
Format : UTF-8
Codec ID : S_TEXT/UTF8
Codec ID/Info : UTF-8 Plain Text
Duration : 2 h 12 min
Bit rate : 34 b/s
Frame rate : 0.121 FPS
Count of elements : 964
Stream size : 33.3 KiB (0%)
Title : Latin American
Language : Spanish
Default : No
Forced : No

Text #14
ID : 16
Format : UTF-8
Codec ID : S_TEXT/UTF8
Codec ID/Info : UTF-8 Plain Text
Duration : 2 h 7 min
Bit rate : 50 b/s
Frame rate : 0.199 FPS
Count of elements : 1523
Stream size : 47.6 KiB (0%)
Title : Latin American (SDH)
Language : Spanish
Default : No
Forced : No

Text #15
ID : 17
Format : UTF-8
Codec ID : S_TEXT/UTF8
Codec ID/Info : UTF-8 Plain Text
Duration : 2 h 12 min
Bit rate : 32 b/s
Frame rate : 0.124 FPS
Count of elements : 987
Stream size : 31.8 KiB (0%)
Language : Spanish
Default : No
Forced : No

Text #16
ID : 18
Format : UTF-8
Codec ID : S_TEXT/UTF8
Codec ID/Info : UTF-8 Plain Text
Duration : 2 h 12 min
Bit rate : 31 b/s
Frame rate : 0.104 FPS
Count of elements : 826
Stream size : 30.1 KiB (0%)
Language : Finnish
Default : No
Forced : No

Text #17
ID : 19
Format : UTF-8
Codec ID : S_TEXT/UTF8
Codec ID/Info : UTF-8 Plain Text
Duration : 2 h 12 min
Bit rate : 32 b/s
Frame rate : 0.127 FPS
Count of elements : 1008
Stream size : 31.9 KiB (0%)
Language : fil
Default : No
Forced : No

Text #18
ID : 20
Format : UTF-8
Codec ID : S_TEXT/UTF8
Codec ID/Info : UTF-8 Plain Text
Duration : 2 h 12 min
Bit rate : 32 b/s
Frame rate : 0.122 FPS
Count of elements : 969
Stream size : 31.3 KiB (0%)
Language : French
Default : No
Forced : No

Text #19
ID : 21
Format : UTF-8
Codec ID : S_TEXT/UTF8
Codec ID/Info : UTF-8 Plain Text
Duration : 2 h 7 min
Bit rate : 53 b/s
Frame rate : 0.130 FPS
Count of elements : 996
Stream size : 49.5 KiB (0%)
Language : Hebrew
Default : No
Forced : No

Text #20
ID : 22
Format : UTF-8
Codec ID : S_TEXT/UTF8
Codec ID/Info : UTF-8 Plain Text
Duration : 2 h 12 min
Bit rate : 30 b/s
Frame rate : 0.123 FPS
Count of elements : 977
Stream size : 29.7 KiB (0%)
Language : Croatian
Default : No
Forced : No

Text #21
ID : 23
Format : UTF-8
Codec ID : S_TEXT/UTF8
Codec ID/Info : UTF-8 Plain Text
Duration : 2 h 12 min
Bit rate : 30 b/s
Frame rate : 0.116 FPS
Count of elements : 926
Stream size : 29.7 KiB (0%)
Language : Hungarian
Default : No
Forced : No

Text #22
ID : 24
Format : UTF-8
Codec ID : S_TEXT/UTF8
Codec ID/Info : UTF-8 Plain Text
Duration : 2 h 12 min
Bit rate : 33 b/s
Frame rate : 0.125 FPS
Count of elements : 996
Stream size : 32.3 KiB (0%)
Language : Indonesian
Default : No
Forced : No

Text #23
ID : 25
Format : UTF-8
Codec ID : S_TEXT/UTF8
Codec ID/Info : UTF-8 Plain Text
Duration : 2 h 12 min
Bit rate : 32 b/s
Frame rate : 0.117 FPS
Count of elements : 929
Stream size : 31.9 KiB (0%)
Language : Italian
Default : No
Forced : No

Text #24
ID : 26
Format : UTF-8
Codec ID : S_TEXT/UTF8
Codec ID/Info : UTF-8 Plain Text
Duration : 2 h 7 min
Bit rate : 34 b/s
Frame rate : 0.126 FPS
Count of elements : 962
Stream size : 31.8 KiB (0%)
Language : Japanese
Default : No
Forced : No

Text #25
ID : 27
Format : UTF-8
Codec ID : S_TEXT/UTF8
Codec ID/Info : UTF-8 Plain Text
Duration : 2 h 7 min
Bit rate : 33 b/s
Frame rate : 0.136 FPS
Count of elements : 1042
Stream size : 31.1 KiB (0%)
Language : Malay
Default : No
Forced : No

Text #26
ID : 28
Format : UTF-8
Codec ID : S_TEXT/UTF8
Codec ID/Info : UTF-8 Plain Text
Duration : 2 h 12 min
Bit rate : 31 b/s
Frame rate : 0.111 FPS
Count of elements : 879
Stream size : 30.1 KiB (0%)
Language : Norwegian Bokmal
Default : No
Forced : No

Text #27
ID : 29
Format : UTF-8
Codec ID : S_TEXT/UTF8
Codec ID/Info : UTF-8 Plain Text
Duration : 2 h 7 min
Bit rate : 32 b/s
Frame rate : 0.126 FPS
Count of elements : 961
Stream size : 30.6 KiB (0%)
Language : Dutch
Default : No
Forced : No

Text #28
ID : 30
Format : UTF-8
Codec ID : S_TEXT/UTF8
Codec ID/Info : UTF-8 Plain Text
Duration : 2 h 7 min
Bit rate : 33 b/s
Frame rate : 0.126 FPS
Count of elements : 967
Stream size : 31.7 KiB (0%)
Language : Polish
Default : No
Forced : No

Text #29
ID : 31
Format : UTF-8
Codec ID : S_TEXT/UTF8
Codec ID/Info : UTF-8 Plain Text
Duration : 2 h 7 min
Bit rate : 35 b/s
Frame rate : 0.131 FPS
Count of elements : 1000
Stream size : 33.1 KiB (0%)
Title : Brazilian
Language : Portuguese
Default : No
Forced : No

Text #30
ID : 32
Format : UTF-8
Codec ID : S_TEXT/UTF8
Codec ID/Info : UTF-8 Plain Text
Duration : 2 h 12 min
Bit rate : 34 b/s
Frame rate : 0.126 FPS
Count of elements : 998
Stream size : 33.4 KiB (0%)
Language : Portuguese
Default : No
Forced : No

Text #31
ID : 33
Format : UTF-8
Codec ID : S_TEXT/UTF8
Codec ID/Info : UTF-8 Plain Text
Duration : 2 h 7 min
Bit rate : 39 b/s
Frame rate : 0.131 FPS
Count of elements : 1000
Stream size : 36.7 KiB (0%)
Language : Romanian
Default : No
Forced : No

Text #32
ID : 34
Format : UTF-8
Codec ID : S_TEXT/UTF8
Codec ID/Info : UTF-8 Plain Text
Duration : 2 h 12 min
Bit rate : 52 b/s
Frame rate : 0.124 FPS
Count of elements : 989
Stream size : 51.2 KiB (0%)
Language : Russian
Default : No
Forced : No

Text #33
ID : 35
Format : UTF-8
Codec ID : S_TEXT/UTF8
Codec ID/Info : UTF-8 Plain Text
Duration : 2 h 7 min
Bit rate : 33 b/s
Frame rate : 0.116 FPS
Count of elements : 885
Stream size : 30.8 KiB (0%)
Language : Swedish
Default : No
Forced : No

Text #34
ID : 36
Format : UTF-8
Codec ID : S_TEXT/UTF8
Codec ID/Info : UTF-8 Plain Text
Duration : 2 h 12 min
Bit rate : 88 b/s
Frame rate : 0.137 FPS
Count of elements : 1089
Stream size : 86.0 KiB (0%)
Language : Thai
Default : No
Forced : No

Text #35
ID : 37
Format : UTF-8
Codec ID : S_TEXT/UTF8
Codec ID/Info : UTF-8 Plain Text
Duration : 2 h 12 min
Bit rate : 31 b/s
Frame rate : 0.118 FPS
Count of elements : 934
Stream size : 30.3 KiB (0%)
Language : Turkish
Default : No
Forced : No

Text #36
ID : 38
Format : UTF-8
Codec ID : S_TEXT/UTF8
Codec ID/Info : UTF-8 Plain Text
Duration : 2 h 12 min
Bit rate : 52 b/s
Frame rate : 0.123 FPS
Count of elements : 982
Stream size : 50.9 KiB (0%)
Language : Ukrainian
Default : No
Forced : No

Text #37
ID : 39
Format : UTF-8
Codec ID : S_TEXT/UTF8
Codec ID/Info : UTF-8 Plain Text
Duration : 2 h 7 min
Bit rate : 47 b/s
Frame rate : 0.133 FPS
Count of elements : 1015
Stream size : 44.3 KiB (0%)
Language : Vietnamese
Default : No
Forced : No

Text #38
ID : 40
Format : UTF-8
Codec ID : S_TEXT/UTF8
Codec ID/Info : UTF-8 Plain Text
Duration : 2 h 12 min
Bit rate : 31 b/s
Frame rate : 0.136 FPS
Count of elements : 1081
Stream size : 30.6 KiB (0%)
Title : 简体中字
Language : Chinese

Default : No
Forced : No

Text #39
ID : 41
Format : UTF-8
Codec ID : S_TEXT/UTF8
Codec ID/Info : UTF-8 Plain Text
Duration : 2 h 12 min
Bit rate : 32 b/s
Frame rate : 0.133 FPS
Count of elements : 1057
Stream size : 31.7 KiB (0%)
Title : 繁体中字
Language : Chinese

Default : No
Forced : No

推荐使用qBittorrent、uTorrent、BitComet等下载软件,有条件的推荐115或会员软件下载!

下载地址
游客,如果您要查看本帖隐藏内容请回复

游客,如果您要查看本帖隐藏内容请回复

游客,如果您要查看本帖隐藏内容请回复

游客,如果您要查看本帖隐藏内容请回复





上一篇:逆冰之行 [简繁中字] / Against the Ice‎ (2022) 4K高清版本下载
下一篇:零度以下 [简繁中字] / Below.Zero (2021) 4K高清版本下载
回复

使用道具 举报

0

主题

1

帖子

6

积分

新手上路

Rank: 1

积分
6
发表于 2022-12-9 15:41:56 | 显示全部楼层
爱的
回复

使用道具 举报

您需要登录后才可以回帖 登录 | 立即注册

本版积分规则

精彩图文
Archiver|手机版|TAG|Sitemap|新帖|专题|联系我们:邮箱: 4kjia.com@gmail.com   

4k家园   ©2019