[4K电影] 体坛秘史:凯特琳·詹纳 [简繁中字] (2021) 4K高清版本下载

[复制链接]

主题

帖子

0

积分

超级版主

Rank: 8Rank: 8

积分
0
 楼主| 发表于 2022-12-9 21:23:08 | 显示全部楼层 |阅读模式
本帖最后由 最爱4K哟 于 2022-12-9 22:20 编辑

体坛秘史:凯特琳·詹纳.png

◎片  名 Untold Caitlyn Jenner
◎年  代 2021
◎产  地 美国
◎类  别 纪录片
◎语  言 英语
◎上映日期 2021-08-24(Netflix)
◎IMDb评分 6.5/10 from 2732 users 更新 : 2022-12-07
◎IMDb链接 https://www.imdb.com/title/tt15101946/
◎豆瓣评分 7.6/10 from 247 users 更新 : 2022-12-07
◎豆瓣链接 https://movie.douban.com/subject/35555177/
◎片  长 69分钟
◎导  演 克丽丝特尔·摩泽尔 Crystal Moselle
◎演  员 凯瑟琳·詹纳 Caitlyn Jenner
                   埃丝特·詹纳 Esther Jenner
                   克里斯蒂·斯科特 Chrystie Scott
                   文斯·史崔克 Vince Stryker
                   伯特·詹纳 Burt Jenner
                   尼古拉·阿维洛夫 Nikolay Avilov
                   伯莎 Bertha
                   汤姆·布罗考 Tom Brokaw
                   约翰尼·卡森 Johnny Carson
                   沃尔特·克朗凯特 Walter Cronkite
                   弗雷德·迪克森 Fred Dixon
                   杰拉尔德·福特 Gerald Ford
                   弗兰克·吉福 Frank Gifford
                   肯德尔·詹纳 Kendall Jenner
                   克里斯·詹纳 Kris Jenner
                   凯莉·詹纳 Kylie Jenner
                   威廉·詹纳 William Jenner
                   Khloé Kardashian Khloé Kardashian




◎简  介


  由《异狂国度》创剧人打造的五集纪录片以全新视角讲述了广阔体育世界中的故事。从网球到拳击再到篮球,即使您认为已经听过这些故事,但观看时仍会有种焕然一新的感觉。每周更新,每部电影的开头都是标志性的大事件(大战、奥运会、季后赛),然后再根据亲身经历之人的叙述深入挖掘新闻头条之外发生的事情,揭示了隐藏在汗水之下的勇气、韧性、心碎、胜利、暴力、喜剧和悲伤。著名的“奥本山宫殿斗殴事件”的亲历者揭露内情;奥运选手凯瑟琳·詹纳反思她赢得金牌的旅程;拳击手克里斯蒂·马丁在拳击场外进行了一场生死搏斗;职业网球运动员马迪·费什讲述他与心理健康问题所做的斗争;“Trashers”球队不合群的曲棍球运动员们听命于据称是黑帮老大儿子的少年...《体坛秘史》讲述了成为冠军所需要的激情和专注的核心,以及在场外剥去胜利外衣的种种方法。
       人们都说,这是一场争夺世界最伟大运动员桂冠的比赛。在为期两天的残酷比赛中,参赛者的奔跑、跳跃和投掷能力将受到考验。1972 年的一次尝试失败后,凯特琳·詹纳为自己设定了目标:在 1976 年蒙特利尔奥运会上赢得十项全能金牌。连续四年坚持不懈地训练,詹纳成为了当时的夺冠热门。但对詹纳来说,1976 年奥运会的十项全能比赛不仅仅是一项运动测试。这是一种易于接受的分散注意力的方式,可以让她从更具有挑战性的内心动荡中解脱出来。在蒙特利尔创造了新的世界纪录并赢得金牌后,詹纳的形象成为了运动员卓越表现的标准,她也瞬间成为了美国的超级明星。然而,她渴望的运动成就和她塑造的名人形象,也成了她接受自己身份的主要障碍。通过一系列从未公开的档案影像(包括新发现的奥运录像和詹纳家族的家庭录像),从赢得金牌到决定回归家庭和孩子身边,詹纳以全新的视角回忆了自己的生活,她对过去的自己和现在的自己有着清晰的认识。
Video
ID : 1
Format : HEVC
Format/Info : High Efficiency Video Coding
Format profile : Main 10@L5@Main
HDR format : Dolby Vision, Version 1.0, dvhe.08.06, BL+RPU, HDR10 compatible / SMPTE ST 2086, HDR10 compatible
Codec ID : V_MPEGH/ISO/HEVC
Duration : 1 h 9 min
Bit rate : 15.4 Mb/s
Width : 3 840 pixels
Height : 2 160 pixels
Display aspect ratio : 16:9
Frame rate mode : Constant
Frame rate : 23.976 (24000/1001) FPS
Color space : YUV
Chroma subsampling : 4:2:0 (Type 2)
Bit depth : 10 bits
Bits/(Pixel*Frame) : 0.077
Stream size : 7.45 GiB (96%)
Default : Yes
Forced : No
Color range : Limited
Color primaries : BT.2020
Transfer characteristics : PQ
Matrix coefficients : BT.2020 non-constant
Mastering display color primaries : Display P3
Mastering display luminance : min: 0.0001 cd/m2, max: 1000 cd/m2
Maximum Content Light Level : 873 cd/m2
Maximum Frame-Average Light Level : 217 cd/m2

Audio
ID : 2
Format : E-AC-3
Format/Info : Enhanced AC-3
Commercial name : Dolby Digital Plus
Codec ID : A_EAC3
Duration : 1 h 9 min
Bit rate mode : Constant
Bit rate : 640 kb/s
Channel(s) : 6 channels
Channel layout : L R C LFE Ls Rs
Sampling rate : 48.0 kHz
Frame rate : 31.250 FPS (1536 SPF)
Compression mode : Lossy
Stream size : 318 MiB (4%)
Language : English
Service kind : Complete Main
Default : Yes
Forced : No

Text #1
ID : 3
Format : UTF-8
Codec ID : S_TEXT/UTF8
Codec ID/Info : UTF-8 Plain Text
Duration : 1 s 961 ms
Bit rate : 134 b/s
Frame rate : 0.510 FPS
Count of elements : 1
Stream size : 33.0 Bytes (0%)
Title : Forced
Language : English
Default : No
Forced : Yes

Text #2
ID : 4
Format : UTF-8
Codec ID : S_TEXT/UTF8
Codec ID/Info : UTF-8 Plain Text
Duration : 1 h 7 min
Bit rate : 80 b/s
Frame rate : 0.246 FPS
Count of elements : 996
Stream size : 39.8 KiB (0%)
Language : English
Default : No
Forced : No

Text #3
ID : 5
Format : UTF-8
Codec ID : S_TEXT/UTF8
Codec ID/Info : UTF-8 Plain Text
Duration : 1 h 7 min
Bit rate : 89 b/s
Frame rate : 0.276 FPS
Count of elements : 1119
Stream size : 44.6 KiB (0%)
Title : SDH
Language : English
Default : No
Forced : No

Text #4
ID : 6
Format : UTF-8
Codec ID : S_TEXT/UTF8
Codec ID/Info : UTF-8 Plain Text
Duration : 1 h 7 min
Bit rate : 127 b/s
Frame rate : 0.238 FPS
Count of elements : 965
Stream size : 63.2 KiB (0%)
Language : Arabic
Default : No
Forced : No

Text #5
ID : 7
Format : UTF-8
Codec ID : S_TEXT/UTF8
Codec ID/Info : UTF-8 Plain Text
Duration : 1 h 8 min
Bit rate : 74 b/s
Frame rate : 0.237 FPS
Count of elements : 982
Stream size : 37.7 KiB (0%)
Title : 简体中字
Language : Chinese

Default : No
Forced : No

Text #6
ID : 8
Format : UTF-8
Codec ID : S_TEXT/UTF8
Codec ID/Info : UTF-8 Plain Text
Duration : 1 h 8 min
Bit rate : 72 b/s
Frame rate : 0.237 FPS
Count of elements : 981
Stream size : 36.7 KiB (0%)
Title : 繁体中字
Language : Chinese

Default : No
Forced : No

Text #7
ID : 9
Format : UTF-8
Codec ID : S_TEXT/UTF8
Codec ID/Info : UTF-8 Plain Text
Duration : 1 h 9 min
Bit rate : 67 b/s
Frame rate : 0.228 FPS
Count of elements : 942
Stream size : 33.9 KiB (0%)
Language : Croatian
Default : No
Forced : No

Text #8
ID : 10
Format : UTF-8
Codec ID : S_TEXT/UTF8
Codec ID/Info : UTF-8 Plain Text
Duration : 1 h 8 min
Bit rate : 71 b/s
Frame rate : 0.235 FPS
Count of elements : 974
Stream size : 36.0 KiB (0%)
Language : Czech
Default : No
Forced : No

Text #9
ID : 11
Format : UTF-8
Codec ID : S_TEXT/UTF8
Codec ID/Info : UTF-8 Plain Text
Duration : 1 h 8 min
Bit rate : 72 b/s
Frame rate : 0.208 FPS
Count of elements : 862
Stream size : 36.4 KiB (0%)
Language : Danish
Default : No
Forced : No

Text #10
ID : 12
Format : UTF-8
Codec ID : S_TEXT/UTF8
Codec ID/Info : UTF-8 Plain Text
Duration : 1 h 8 min
Bit rate : 65 b/s
Frame rate : 0.223 FPS
Count of elements : 923
Stream size : 33.2 KiB (0%)
Language : Dutch
Default : No
Forced : No

Text #11
ID : 13
Format : UTF-8
Codec ID : S_TEXT/UTF8
Codec ID/Info : UTF-8 Plain Text
Duration : 1 h 8 min
Bit rate : 72 b/s
Frame rate : 0.210 FPS
Count of elements : 871
Stream size : 36.6 KiB (0%)
Language : Finnish
Default : No
Forced : No

Text #12
ID : 14
Format : UTF-8
Codec ID : S_TEXT/UTF8
Codec ID/Info : UTF-8 Plain Text
Duration : 1 h 8 min
Bit rate : 75 b/s
Frame rate : 0.235 FPS
Count of elements : 971
Stream size : 38.0 KiB (0%)
Language : French
Default : No
Forced : No

Text #13
ID : 15
Format : UTF-8
Codec ID : S_TEXT/UTF8
Codec ID/Info : UTF-8 Plain Text
Duration : 1 h 8 min
Bit rate : 74 b/s
Frame rate : 0.235 FPS
Count of elements : 974
Stream size : 37.5 KiB (0%)
Language : German
Default : No
Forced : No

Text #14
ID : 16
Format : UTF-8
Codec ID : S_TEXT/UTF8
Codec ID/Info : UTF-8 Plain Text
Duration : 1 h 8 min
Bit rate : 115 b/s
Frame rate : 0.237 FPS
Count of elements : 981
Stream size : 58.4 KiB (0%)
Language : Greek
Default : No
Forced : No

Text #15
ID : 17
Format : UTF-8
Codec ID : S_TEXT/UTF8
Codec ID/Info : UTF-8 Plain Text
Duration : 1 h 8 min
Bit rate : 113 b/s
Frame rate : 0.238 FPS
Count of elements : 986
Stream size : 57.6 KiB (0%)
Language : Hebrew
Default : No
Forced : No

Text #16
ID : 18
Format : UTF-8
Codec ID : S_TEXT/UTF8
Codec ID/Info : UTF-8 Plain Text
Duration : 1 h 8 min
Bit rate : 73 b/s
Frame rate : 0.236 FPS
Count of elements : 976
Stream size : 36.9 KiB (0%)
Language : Hungarian
Default : No
Forced : No

Text #17
ID : 19
Format : UTF-8
Codec ID : S_TEXT/UTF8
Codec ID/Info : UTF-8 Plain Text
Duration : 1 h 8 min
Bit rate : 72 b/s
Frame rate : 0.234 FPS
Count of elements : 968
Stream size : 36.5 KiB (0%)
Language : Indonesian
Default : No
Forced : No

Text #18
ID : 20
Format : UTF-8
Codec ID : S_TEXT/UTF8
Codec ID/Info : UTF-8 Plain Text
Duration : 1 h 8 min
Bit rate : 70 b/s
Frame rate : 0.229 FPS
Count of elements : 949
Stream size : 35.6 KiB (0%)
Language : Italian
Default : No
Forced : No

Text #19
ID : 21
Format : UTF-8
Codec ID : S_TEXT/UTF8
Codec ID/Info : UTF-8 Plain Text
Duration : 1 h 7 min
Bit rate : 80 b/s
Frame rate : 0.231 FPS
Count of elements : 937
Stream size : 39.8 KiB (0%)
Language : Japanese
Default : No
Forced : No

Text #20
ID : 22
Format : UTF-8
Codec ID : S_TEXT/UTF8
Codec ID/Info : UTF-8 Plain Text
Duration : 1 h 8 min
Bit rate : 93 b/s
Frame rate : 0.241 FPS
Count of elements : 997
Stream size : 47.3 KiB (0%)
Language : Korean
Default : No
Forced : No

Text #21
ID : 23
Format : UTF-8
Codec ID : S_TEXT/UTF8
Codec ID/Info : UTF-8 Plain Text
Duration : 1 h 9 min
Bit rate : 68 b/s
Frame rate : 0.237 FPS
Count of elements : 984
Stream size : 34.8 KiB (0%)
Language : Malay
Default : No
Forced : No

Text #22
ID : 24
Format : UTF-8
Codec ID : S_TEXT/UTF8
Codec ID/Info : UTF-8 Plain Text
Duration : 1 h 8 min
Bit rate : 66 b/s
Frame rate : 0.192 FPS
Count of elements : 795
Stream size : 33.7 KiB (0%)
Language : Norwegian Bokmal
Default : No
Forced : No

Text #23
ID : 25
Format : UTF-8
Codec ID : S_TEXT/UTF8
Codec ID/Info : UTF-8 Plain Text
Duration : 1 h 8 min
Bit rate : 66 b/s
Frame rate : 0.231 FPS
Count of elements : 955
Stream size : 33.5 KiB (0%)
Language : Polish
Default : No
Forced : No

Text #24
ID : 26
Format : UTF-8
Codec ID : S_TEXT/UTF8
Codec ID/Info : UTF-8 Plain Text
Duration : 1 h 8 min
Bit rate : 70 b/s
Frame rate : 0.221 FPS
Count of elements : 914
Stream size : 35.7 KiB (0%)
Title : Brazilian
Language : Portuguese
Default : No
Forced : No

Text #25
ID : 27
Format : UTF-8
Codec ID : S_TEXT/UTF8
Codec ID/Info : UTF-8 Plain Text
Duration : 1 h 8 min
Bit rate : 69 b/s
Frame rate : 0.234 FPS
Count of elements : 967
Stream size : 35.1 KiB (0%)
Title : Iberian
Language : Portuguese
Default : No
Forced : No

Text #26
ID : 28
Format : UTF-8
Codec ID : S_TEXT/UTF8
Codec ID/Info : UTF-8 Plain Text
Duration : 1 h 8 min
Bit rate : 75 b/s
Frame rate : 0.231 FPS
Count of elements : 956
Stream size : 38.3 KiB (0%)
Language : Romanian
Default : No
Forced : No

Text #27
ID : 29
Format : UTF-8
Codec ID : S_TEXT/UTF8
Codec ID/Info : UTF-8 Plain Text
Duration : 1 h 8 min
Bit rate : 116 b/s
Frame rate : 0.235 FPS
Count of elements : 971
Stream size : 59.1 KiB (0%)
Language : Russian
Default : No
Forced : No

Text #28
ID : 30
Format : UTF-8
Codec ID : S_TEXT/UTF8
Codec ID/Info : UTF-8 Plain Text
Duration : 1 h 8 min
Bit rate : 68 b/s
Frame rate : 0.235 FPS
Count of elements : 973
Stream size : 34.5 KiB (0%)
Title : Castilian
Language : Spanish
Default : No
Forced : No

Text #29
ID : 31
Format : UTF-8
Codec ID : S_TEXT/UTF8
Codec ID/Info : UTF-8 Plain Text
Duration : 1 h 8 min
Bit rate : 71 b/s
Frame rate : 0.229 FPS
Count of elements : 946
Stream size : 35.9 KiB (0%)
Title : Latin American
Language : Spanish
Default : No
Forced : No

Text #30
ID : 32
Format : UTF-8
Codec ID : S_TEXT/UTF8
Codec ID/Info : UTF-8 Plain Text
Duration : 1 h 8 min
Bit rate : 65 b/s
Frame rate : 0.196 FPS
Count of elements : 811
Stream size : 33.3 KiB (0%)
Language : Swedish
Default : No
Forced : No

Text #31
ID : 33
Format : UTF-8
Codec ID : S_TEXT/UTF8
Codec ID/Info : UTF-8 Plain Text
Duration : 1 h 8 min
Bit rate : 185 b/s
Frame rate : 0.237 FPS
Count of elements : 983
Stream size : 93.6 KiB (0%)
Language : Thai
Default : No
Forced : No

Text #32
ID : 34
Format : UTF-8
Codec ID : S_TEXT/UTF8
Codec ID/Info : UTF-8 Plain Text
Duration : 1 h 8 min
Bit rate : 72 b/s
Frame rate : 0.228 FPS
Count of elements : 942
Stream size : 36.8 KiB (0%)
Language : Turkish
Default : No
Forced : No

Text #33
ID : 35
Format : UTF-8
Codec ID : S_TEXT/UTF8
Codec ID/Info : UTF-8 Plain Text
Duration : 1 h 8 min
Bit rate : 120 b/s
Frame rate : 0.234 FPS
Count of elements : 970
Stream size : 60.9 KiB (0%)
Language : Ukrainian
Default : No
Forced : No

Text #34
ID : 36
Format : UTF-8
Codec ID : S_TEXT/UTF8
Codec ID/Info : UTF-8 Plain Text
Duration : 1 h 8 min
Bit rate : 102 b/s
Frame rate : 0.227 FPS
Count of elements : 939
Stream size : 52.0 KiB (0%)
Language : Vietnamese
Default : No
Forced : No

推荐使用qBittorrent、uTorrent、BitComet等下载软件,有条件的推荐115或会员软件下载!

下载地址
游客,如果您要查看本帖隐藏内容请回复




上一篇:窗里的女人 [简繁中字]‎ (2021)4K高清版本下载
下一篇:解放黑奴 [简繁中字]/ Emancipation (2022) 4K高清版本下载
回复

使用道具 举报

0

主题

27

帖子

367

积分

新手上路

Rank: 1

积分
367
发表于 2022-12-10 13:34:43 | 显示全部楼层
先谢楼主分享!
回复 支持 反对

使用道具 举报

您需要登录后才可以回帖 登录 | 立即注册

本版积分规则

精彩图文
Archiver|手机版|TAG|Sitemap|新帖|专题|联系我们:邮箱: 4kjia.com@gmail.com   

4k家园   ©2019