[4K电影] 马克·马龙:末日好好玩 [简繁中字] (2020) 4K高清版本下载

[复制链接]

主题

帖子

0

积分

超级版主

Rank: 8Rank: 8

积分
0
 楼主| 发表于 2022-12-9 22:01:18 | 显示全部楼层 |阅读模式
本帖最后由 最爱4K哟 于 2022-12-9 22:14 编辑

马克·马龙:末日好好玩.png

◎标  题 马克·马龙:末日好好玩
◎片  名 Marc Maron: End Times Fun
◎年  代 2020
◎产  地 美国
◎类  别 喜剧 / 脱口秀
◎语  言 英语
◎上映日期 2020-03-10(美国)
◎IMDb评分 6.8/10 from 1986 users 更新 : 2022-12-08
◎IMDb链接 https://www.imdb.com/title/tt11810418/
◎豆瓣评分 7.2/10 from 188 users 更新 : 2022-12-09
◎豆瓣链接 https://movie.douban.com/subject/34990817/
◎片  长 71分钟
◎导  演 琳·谢尔顿 Lynn Shelton
◎编  剧 马克·马龙 Marc Maron
◎演  员 马克·马龙 Marc Maron


◎简  介


  马克·马龙辛苦分析那些卖维他命的骗子、福音派人士和长不大的宅男,最后以欢乐又下流的末日幻想作结。

Video
ID : 1
Format : HEVC
Format/Info : High Efficiency Video Coding
Format profile : Main 10@L5@Main
HDR format : Dolby Vision, Version 1.0, dvhe.08.06, BL+RPU, HDR10 compatible / SMPTE ST 2086, HDR10 compatible
Codec ID : V_MPEGH/ISO/HEVC
Duration : 1 h 11 min
Bit rate : 16.2 Mb/s
Width : 3 840 pixels
Height : 2 160 pixels
Display aspect ratio : 16:9
Frame rate mode : Constant
Frame rate : 23.976 (24000/1001) FPS
Color space : YUV
Chroma subsampling : 4:2:0 (Type 2)
Bit depth : 10 bits
Bits/(Pixel*Frame) : 0.081
Stream size : 8.05 GiB (96%)
Default : Yes
Forced : No
Color range : Limited
Color primaries : BT.2020
Transfer characteristics : PQ
Matrix coefficients : BT.2020 non-constant
Mastering display color primaries : Display P3
Mastering display luminance : min: 0.0001 cd/m2, max: 1000 cd/m2
Maximum Content Light Level : 10000 cd/m2
Maximum Frame-Average Light Level : 96 cd/m2

Audio
ID : 2
Format : E-AC-3
Format/Info : Enhanced AC-3
Commercial name : Dolby Digital Plus
Codec ID : A_EAC3
Duration : 1 h 11 min
Bit rate mode : Constant
Bit rate : 640 kb/s
Channel(s) : 6 channels
Channel layout : L R C LFE Ls Rs
Sampling rate : 48.0 kHz
Frame rate : 31.250 FPS (1536 SPF)
Compression mode : Lossy
Stream size : 326 MiB (4%)
Language : English
Service kind : Complete Main
Default : Yes
Forced : No

Text #1
ID : 3
Format : UTF-8
Codec ID : S_TEXT/UTF8
Codec ID/Info : UTF-8 Plain Text
Duration : 1 h 10 min
Bit rate : 109 b/s
Frame rate : 0.341 FPS
Count of elements : 1445
Stream size : 56.9 KiB (0%)
Language : English
Default : No
Forced : No

Text #2
ID : 4
Format : UTF-8
Codec ID : S_TEXT/UTF8
Codec ID/Info : UTF-8 Plain Text
Duration : 1 h 10 min
Bit rate : 112 b/s
Frame rate : 0.352 FPS
Count of elements : 1498
Stream size : 58.2 KiB (0%)
Title : SDH
Language : English
Default : No
Forced : No

Text #3
ID : 5
Format : UTF-8
Codec ID : S_TEXT/UTF8
Codec ID/Info : UTF-8 Plain Text
Duration : 1 h 10 min
Bit rate : 165 b/s
Frame rate : 0.308 FPS
Count of elements : 1311
Stream size : 85.8 KiB (0%)
Language : Arabic
Default : No
Forced : No

Text #4
ID : 6
Format : UTF-8
Codec ID : S_TEXT/UTF8
Codec ID/Info : UTF-8 Plain Text
Duration : 1 h 10 min
Bit rate : 99 b/s
Frame rate : 0.308 FPS
Count of elements : 1311
Stream size : 51.5 KiB (0%)
Title : 简体中字
Language : Chinese

Default : No
Forced : No

Text #5
ID : 7
Format : UTF-8
Codec ID : S_TEXT/UTF8
Codec ID/Info : UTF-8 Plain Text
Duration : 1 h 10 min
Bit rate : 99 b/s
Frame rate : 0.323 FPS
Count of elements : 1373
Stream size : 51.9 KiB (0%)
Title : 繁体中字
Language : Chinese

Default : No
Forced : No

Text #6
ID : 8
Format : UTF-8
Codec ID : S_TEXT/UTF8
Codec ID/Info : UTF-8 Plain Text
Duration : 1 h 10 min
Bit rate : 88 b/s
Frame rate : 0.305 FPS
Count of elements : 1299
Stream size : 45.9 KiB (0%)
Language : Czech
Default : No
Forced : No

Text #7
ID : 9
Format : UTF-8
Codec ID : S_TEXT/UTF8
Codec ID/Info : UTF-8 Plain Text
Duration : 1 h 10 min
Bit rate : 86 b/s
Frame rate : 0.242 FPS
Count of elements : 1030
Stream size : 45.0 KiB (0%)
Language : Danish
Default : No
Forced : No

Text #8
ID : 10
Format : UTF-8
Codec ID : S_TEXT/UTF8
Codec ID/Info : UTF-8 Plain Text
Duration : 1 h 9 min
Bit rate : 95 b/s
Frame rate : 0.257 FPS
Count of elements : 1074
Stream size : 48.6 KiB (0%)
Language : Dutch
Default : No
Forced : No

Text #9
ID : 11
Format : UTF-8
Codec ID : S_TEXT/UTF8
Codec ID/Info : UTF-8 Plain Text
Duration : 1 h 10 min
Bit rate : 90 b/s
Frame rate : 0.286 FPS
Count of elements : 1217
Stream size : 47.0 KiB (0%)
Language : Finnish
Default : No
Forced : No

Text #10
ID : 12
Format : UTF-8
Codec ID : S_TEXT/UTF8
Codec ID/Info : UTF-8 Plain Text
Duration : 1 h 10 min
Bit rate : 95 b/s
Frame rate : 0.305 FPS
Count of elements : 1298
Stream size : 49.4 KiB (0%)
Language : French
Default : No
Forced : No

Text #11
ID : 13
Format : UTF-8
Codec ID : S_TEXT/UTF8
Codec ID/Info : UTF-8 Plain Text
Duration : 1 h 10 min
Bit rate : 102 b/s
Frame rate : 0.298 FPS
Count of elements : 1268
Stream size : 53.2 KiB (0%)
Language : German
Default : No
Forced : No

Text #12
ID : 14
Format : UTF-8
Codec ID : S_TEXT/UTF8
Codec ID/Info : UTF-8 Plain Text
Duration : 1 h 10 min
Bit rate : 160 b/s
Frame rate : 0.257 FPS
Count of elements : 1093
Stream size : 83.2 KiB (0%)
Language : Greek
Default : No
Forced : No

Text #13
ID : 15
Format : UTF-8
Codec ID : S_TEXT/UTF8
Codec ID/Info : UTF-8 Plain Text
Duration : 1 h 10 min
Bit rate : 158 b/s
Frame rate : 0.307 FPS
Count of elements : 1308
Stream size : 82.2 KiB (0%)
Language : Hebrew
Default : No
Forced : No

Text #14
ID : 16
Format : UTF-8
Codec ID : S_TEXT/UTF8
Codec ID/Info : UTF-8 Plain Text
Duration : 1 h 10 min
Bit rate : 94 b/s
Frame rate : 0.304 FPS
Count of elements : 1295
Stream size : 49.0 KiB (0%)
Language : Hungarian
Default : No
Forced : No

Text #15
ID : 17
Format : UTF-8
Codec ID : S_TEXT/UTF8
Codec ID/Info : UTF-8 Plain Text
Duration : 1 h 10 min
Bit rate : 99 b/s
Frame rate : 0.291 FPS
Count of elements : 1238
Stream size : 51.8 KiB (0%)
Language : Indonesian
Default : No
Forced : No

Text #16
ID : 18
Format : UTF-8
Codec ID : S_TEXT/UTF8
Codec ID/Info : UTF-8 Plain Text
Duration : 1 h 10 min
Bit rate : 99 b/s
Frame rate : 0.296 FPS
Count of elements : 1262
Stream size : 51.9 KiB (0%)
Language : Italian
Default : No
Forced : No

Text #17
ID : 19
Format : UTF-8
Codec ID : S_TEXT/UTF8
Codec ID/Info : UTF-8 Plain Text
Duration : 1 h 10 min
Bit rate : 80 b/s
Frame rate : 0.248 FPS
Count of elements : 1054
Stream size : 41.7 KiB (0%)
Language : Japanese
Default : No
Forced : No

Text #18
ID : 20
Format : UTF-8
Codec ID : S_TEXT/UTF8
Codec ID/Info : UTF-8 Plain Text
Duration : 1 h 10 min
Bit rate : 116 b/s
Frame rate : 0.309 FPS
Count of elements : 1317
Stream size : 60.4 KiB (0%)
Language : Korean
Default : No
Forced : No

Text #19
ID : 21
Format : UTF-8
Codec ID : S_TEXT/UTF8
Codec ID/Info : UTF-8 Plain Text
Duration : 1 h 10 min
Bit rate : 92 b/s
Frame rate : 0.277 FPS
Count of elements : 1179
Stream size : 47.9 KiB (0%)
Language : Norwegian Bokmal
Default : No
Forced : No

Text #20
ID : 22
Format : UTF-8
Codec ID : S_TEXT/UTF8
Codec ID/Info : UTF-8 Plain Text
Duration : 1 h 10 min
Bit rate : 87 b/s
Frame rate : 0.298 FPS
Count of elements : 1270
Stream size : 45.4 KiB (0%)
Language : Polish
Default : No
Forced : No

Text #21
ID : 23
Format : UTF-8
Codec ID : S_TEXT/UTF8
Codec ID/Info : UTF-8 Plain Text
Duration : 1 h 10 min
Bit rate : 98 b/s
Frame rate : 0.308 FPS
Count of elements : 1311
Stream size : 51.0 KiB (0%)
Title : Brazilian
Language : Portuguese
Default : No
Forced : No

Text #22
ID : 24
Format : UTF-8
Codec ID : S_TEXT/UTF8
Codec ID/Info : UTF-8 Plain Text
Duration : 1 h 10 min
Bit rate : 99 b/s
Frame rate : 0.307 FPS
Count of elements : 1305
Stream size : 51.9 KiB (0%)
Title : Iberian
Language : Portuguese
Default : No
Forced : No

Text #23
ID : 25
Format : UTF-8
Codec ID : S_TEXT/UTF8
Codec ID/Info : UTF-8 Plain Text
Duration : 1 h 10 min
Bit rate : 104 b/s
Frame rate : 0.296 FPS
Count of elements : 1258
Stream size : 54.1 KiB (0%)
Language : Romanian
Default : No
Forced : No

Text #24
ID : 26
Format : UTF-8
Codec ID : S_TEXT/UTF8
Codec ID/Info : UTF-8 Plain Text
Duration : 1 h 10 min
Bit rate : 150 b/s
Frame rate : 0.293 FPS
Count of elements : 1249
Stream size : 78.2 KiB (0%)
Language : Russian
Default : No
Forced : No

Text #25
ID : 27
Format : UTF-8
Codec ID : S_TEXT/UTF8
Codec ID/Info : UTF-8 Plain Text
Duration : 1 h 10 min
Bit rate : 91 b/s
Frame rate : 0.289 FPS
Count of elements : 1228
Stream size : 47.4 KiB (0%)
Title : Castilian
Language : Spanish
Default : No
Forced : No

Text #26
ID : 28
Format : UTF-8
Codec ID : S_TEXT/UTF8
Codec ID/Info : UTF-8 Plain Text
Duration : 1 h 10 min
Bit rate : 98 b/s
Frame rate : 0.283 FPS
Count of elements : 1195
Stream size : 50.6 KiB (0%)
Title : Latin American
Language : Spanish
Default : No
Forced : No

Text #27
ID : 29
Format : UTF-8
Codec ID : S_TEXT/UTF8
Codec ID/Info : UTF-8 Plain Text
Duration : 1 h 10 min
Bit rate : 93 b/s
Frame rate : 0.299 FPS
Count of elements : 1273
Stream size : 48.5 KiB (0%)
Language : Swedish
Default : No
Forced : No

Text #28
ID : 30
Format : UTF-8
Codec ID : S_TEXT/UTF8
Codec ID/Info : UTF-8 Plain Text
Duration : 1 h 10 min
Bit rate : 263 b/s
Frame rate : 0.306 FPS
Count of elements : 1301
Stream size : 137 KiB (0%)
Language : Thai
Default : No
Forced : No

Text #29
ID : 31
Format : UTF-8
Codec ID : S_TEXT/UTF8
Codec ID/Info : UTF-8 Plain Text
Duration : 1 h 10 min
Bit rate : 102 b/s
Frame rate : 0.306 FPS
Count of elements : 1303
Stream size : 53.5 KiB (0%)
Language : Turkish
Default : No
Forced : No

Text #30
ID : 32
Format : UTF-8
Codec ID : S_TEXT/UTF8
Codec ID/Info : UTF-8 Plain Text
Duration : 1 h 10 min
Bit rate : 138 b/s
Frame rate : 0.237 FPS
Count of elements : 1007
Stream size : 71.8 KiB (0%)
Language : Vietnamese
Default : No
Forced : No

推荐使用qBittorrent、uTorrent、BitComet等下载软件,有条件的推荐115或会员软件下载!

下载地址


游客,如果您要查看本帖隐藏内容请回复




上一篇:复仇铁拳 [简繁中字] / Fistful of Vengeance (2022) 4K高清版本下载
下一篇:博物馆惊魂夜:卡门拉回归 [简繁中字] (2022) 4K高清版本下载
回复

使用道具 举报

0

主题

4

帖子

18

积分

新手上路

Rank: 1

积分
18
发表于 2022-12-9 22:12:21 | 显示全部楼层
楼主这资源不错,我收藏了
回复 支持 反对

使用道具 举报

您需要登录后才可以回帖 登录 | 立即注册

本版积分规则

精彩图文
Archiver|手机版|TAG|Sitemap|新帖|专题|联系我们:邮箱: 4kjia.com@gmail.com   

4k家园   ©2019