[4K电影] 博物馆惊魂夜:卡门拉回归 [简繁中字] (2022) 4K高清版本下载

[复制链接]

主题

帖子

0

积分

超级版主

Rank: 8Rank: 8

积分
0
 楼主| 发表于 2022-12-9 22:39:41 | 显示全部楼层 |阅读模式

QQ图片20221209224128_副本.png

◎标  题 博物馆惊魂夜:卡门拉回归
◎译  名 博物馆奇妙夜:法老归来 / 博物馆惊魂夜:法老再现(台) / 翻生侏罗馆:法老回归(港) / 博物馆奇妙夜动画版
◎片  名 Night At The Museum:Kahumunrah Rises Again
◎年  代 2022
◎产  地 美国
◎类  别 喜剧 / 动画 / 惊悚 / 恐怖 / 奇幻 / 冒险
◎语  言 英语
◎上映日期 2022-12-09(美国网络)
◎IMDb评分 7.6/10 from 8 users 更新 : 2022-12-08
◎IMDb链接 https://www.imdb.com/title/tt13623880/
◎豆瓣评分 0/10 from 0 users
◎豆瓣链接 https://movie.douban.com/subject/35284563/
◎编  剧 米兰·崔克 Milan Trenc
◎演  员 约书亚·巴塞特 Joshua Bassett
       托马斯·列农 Thomas Lennon
       约瑟夫·卡马尔 Joseph Kamal
       阿克马尔·萨利赫 Akmal Saleh
       斯蒂夫·扎恩 Steve Zahn
       杰克·怀特霍尔 Jack Whitehall
       Kieran Sequoia Kieran Sequoia
       爱丽丝·伊萨 Alice Isaaz
       詹米·德米特鲁 Jamie Demetriou
       扎克瑞·莱维 Zachary Levi
       吉莉安·雅各布斯 Gillian Jacobs
       莉迪亚·波尔图 Lidia Porto
       丹增·诺盖·特雷纳 Tenzing Norgay Trainor
       杨伯文 Bowen Yang
       克里斯·帕内尔 Chris Parnell
       齐科·扎基 Zeeko Zaki
       迪·布拉雷·贝克尔 Dee Bradley Baker


◎简  介


  聚焦真人电影男主Larry Daley的儿子Nick Daley,他不情不愿地也成为了一名博物馆管理员,而《博物馆奇妙夜2》里的卡门拉法老又回来了,想要征服世界。

Video
ID : 1
Format : HEVC
Format/Info : High Efficiency Video Coding
Format profile : Main 10@L5@High
HDR format : Dolby Vision, Version 1.0, dvhe.08.06, BL+RPU, HDR10 compatible / SMPTE ST 2086, HDR10 compatible
Codec ID : V_MPEGH/ISO/HEVC
Duration : 1 h 17 min
Bit rate : 13.0 Mb/s
Width : 3 840 pixels
Height : 2 160 pixels
Display aspect ratio : 16:9
Frame rate mode : Constant
Frame rate : 24.000 FPS
Color space : YUV
Chroma subsampling : 4:2:0
Bit depth : 10 bits
Bits/(Pixel*Frame) : 0.065
Stream size : 7.07 GiB (94%)
Default : Yes
Forced : No
Color range : Limited
Color primaries : BT.2020
Transfer characteristics : PQ
Matrix coefficients : BT.2020 non-constant
Mastering display color primaries : Display P3
Mastering display luminance : min: 0.0001 cd/m2, max: 1000 cd/m2

Audio
ID : 2
Format : E-AC-3 JOC
Format/Info : Enhanced AC-3 with Joint Object Coding
Commercial name : Dolby Digital Plus with Dolby Atmos
Codec ID : A_EAC3
Duration : 1 h 17 min
Bit rate mode : Constant
Bit rate : 768 kb/s
Channel(s) : 6 channels
Channel layout : L R C LFE Ls Rs
Sampling rate : 48.0 kHz
Frame rate : 31.250 FPS (1536 SPF)
Compression mode : Lossy
Stream size : 427 MiB (6%)
Language : English
Service kind : Complete Main
Default : Yes
Forced : No
Complexity index : 16
Number of dynamic objects : 15
Bed channel count : 1 channel
Bed channel configuration : LFE

Text #1
ID : 3
Format : UTF-8
Codec ID : S_TEXT/UTF8
Codec ID/Info : UTF-8 Plain Text
Duration : 1 h 12 min
Bit rate : 77 b/s
Frame rate : 0.284 FPS
Count of elements : 1239
Stream size : 41.4 KiB (0%)
Language : English
Default : No
Forced : No

Text #2
ID : 4
Format : UTF-8
Codec ID : S_TEXT/UTF8
Codec ID/Info : UTF-8 Plain Text
Duration : 1 h 12 min
Bit rate : 77 b/s
Frame rate : 0.284 FPS
Count of elements : 1239
Stream size : 41.4 KiB (0%)
Title : SDH
Language : English
Default : No
Forced : No

Text #3
ID : 5
Format : UTF-8
Codec ID : S_TEXT/UTF8
Codec ID/Info : UTF-8 Plain Text
Duration : 1 h 12 min
Bit rate : 63 b/s
Frame rate : 0.245 FPS
Count of elements : 1074
Stream size : 33.8 KiB (0%)
Language : Czech
Default : No
Forced : No

Text #4
ID : 6
Format : UTF-8
Codec ID : S_TEXT/UTF8
Codec ID/Info : UTF-8 Plain Text
Duration : 1 h 12 min
Bit rate : 61 b/s
Frame rate : 0.260 FPS
Count of elements : 1137
Stream size : 32.9 KiB (0%)
Language : Danish
Default : No
Forced : No

Text #5
ID : 7
Format : UTF-8
Codec ID : S_TEXT/UTF8
Codec ID/Info : UTF-8 Plain Text
Duration : 1 h 12 min
Bit rate : 66 b/s
Frame rate : 0.261 FPS
Count of elements : 1140
Stream size : 35.7 KiB (0%)
Language : German
Default : No
Forced : No

Text #6
ID : 8
Format : UTF-8
Codec ID : S_TEXT/UTF8
Codec ID/Info : UTF-8 Plain Text
Duration : 1 h 12 min
Bit rate : 93 b/s
Frame rate : 0.282 FPS
Count of elements : 1234
Stream size : 50.1 KiB (0%)
Language : Greek
Default : No
Forced : No

Text #7
ID : 9
Format : UTF-8
Codec ID : S_TEXT/UTF8
Codec ID/Info : UTF-8 Plain Text
Duration : 1 h 12 min
Bit rate : 62 b/s
Frame rate : 0.260 FPS
Count of elements : 1136
Stream size : 33.2 KiB (0%)
Title : Latin American
Language : Spanish
Default : No
Forced : No

Text #8
ID : 10
Format : UTF-8
Codec ID : S_TEXT/UTF8
Codec ID/Info : UTF-8 Plain Text
Duration : 1 h 12 min
Bit rate : 65 b/s
Frame rate : 0.255 FPS
Count of elements : 1115
Stream size : 35.0 KiB (0%)
Language : Spanish
Default : No
Forced : No

Text #9
ID : 11
Format : UTF-8
Codec ID : S_TEXT/UTF8
Codec ID/Info : UTF-8 Plain Text
Duration : 1 h 12 min
Bit rate : 72 b/s
Frame rate : 0.274 FPS
Count of elements : 1197
Stream size : 38.6 KiB (0%)
Language : Finnish
Default : No
Forced : No

Text #10
ID : 12
Format : UTF-8
Codec ID : S_TEXT/UTF8
Codec ID/Info : UTF-8 Plain Text
Duration : 1 h 12 min
Bit rate : 66 b/s
Frame rate : 0.262 FPS
Count of elements : 1144
Stream size : 35.7 KiB (0%)
Language : French
Default : No
Forced : No

Text #11
ID : 13
Format : UTF-8
Codec ID : S_TEXT/UTF8
Codec ID/Info : UTF-8 Plain Text
Duration : 1 h 12 min
Bit rate : 67 b/s
Frame rate : 0.253 FPS
Count of elements : 1108
Stream size : 36.3 KiB (0%)
Language : Hungarian
Default : No
Forced : No

Text #12
ID : 14
Format : UTF-8
Codec ID : S_TEXT/UTF8
Codec ID/Info : UTF-8 Plain Text
Duration : 1 h 12 min
Bit rate : 61 b/s
Frame rate : 0.238 FPS
Count of elements : 1040
Stream size : 32.9 KiB (0%)
Language : Italian
Default : No
Forced : No

Text #13
ID : 15
Format : UTF-8
Codec ID : S_TEXT/UTF8
Codec ID/Info : UTF-8 Plain Text
Duration : 1 h 12 min
Bit rate : 63 b/s
Frame rate : 0.264 FPS
Count of elements : 1156
Stream size : 34.1 KiB (0%)
Language : Japanese
Default : No
Forced : No

Text #14
ID : 16
Format : UTF-8
Codec ID : S_TEXT/UTF8
Codec ID/Info : UTF-8 Plain Text
Duration : 1 h 12 min
Bit rate : 84 b/s
Frame rate : 0.282 FPS
Count of elements : 1234
Stream size : 45.0 KiB (0%)
Language : Korean
Default : No
Forced : No

Text #15
ID : 17
Format : UTF-8
Codec ID : S_TEXT/UTF8
Codec ID/Info : UTF-8 Plain Text
Duration : 1 h 12 min
Bit rate : 58 b/s
Frame rate : 0.203 FPS
Count of elements : 886
Stream size : 31.1 KiB (0%)
Language : Dutch
Default : No
Forced : No

Text #16
ID : 18
Format : UTF-8
Codec ID : S_TEXT/UTF8
Codec ID/Info : UTF-8 Plain Text
Duration : 1 h 12 min
Bit rate : 60 b/s
Frame rate : 0.194 FPS
Count of elements : 847
Stream size : 32.3 KiB (0%)
Language : Norwegian
Default : No
Forced : No

Text #17
ID : 19
Format : UTF-8
Codec ID : S_TEXT/UTF8
Codec ID/Info : UTF-8 Plain Text
Duration : 1 h 12 min
Bit rate : 62 b/s
Frame rate : 0.257 FPS
Count of elements : 1122
Stream size : 33.4 KiB (0%)
Language : Polish
Default : No
Forced : No

Text #18
ID : 20
Format : UTF-8
Codec ID : S_TEXT/UTF8
Codec ID/Info : UTF-8 Plain Text
Duration : 1 h 12 min
Bit rate : 65 b/s
Frame rate : 0.264 FPS
Count of elements : 1158
Stream size : 35.0 KiB (0%)
Title : Brazilian
Language : Portuguese
Default : No
Forced : No

Text #19
ID : 21
Format : UTF-8
Codec ID : S_TEXT/UTF8
Codec ID/Info : UTF-8 Plain Text
Duration : 1 h 12 min
Bit rate : 70 b/s
Frame rate : 0.280 FPS
Count of elements : 1228
Stream size : 37.8 KiB (0%)
Language : Portuguese
Default : No
Forced : No

Text #20
ID : 22
Format : UTF-8
Codec ID : S_TEXT/UTF8
Codec ID/Info : UTF-8 Plain Text
Duration : 1 h 12 min
Bit rate : 63 b/s
Frame rate : 0.203 FPS
Count of elements : 889
Stream size : 34.1 KiB (0%)
Language : Romanian
Default : No
Forced : No

Text #21
ID : 23
Format : UTF-8
Codec ID : S_TEXT/UTF8
Codec ID/Info : UTF-8 Plain Text
Duration : 1 h 12 min
Bit rate : 64 b/s
Frame rate : 0.283 FPS
Count of elements : 1238
Stream size : 34.3 KiB (0%)
Language : Slovak
Default : No
Forced : No

Text #22
ID : 24
Format : UTF-8
Codec ID : S_TEXT/UTF8
Codec ID/Info : UTF-8 Plain Text
Duration : 1 h 12 min
Bit rate : 70 b/s
Frame rate : 0.282 FPS
Count of elements : 1235
Stream size : 37.7 KiB (0%)
Language : Swedish
Default : No
Forced : No

Text #23
ID : 25
Format : UTF-8
Codec ID : S_TEXT/UTF8
Codec ID/Info : UTF-8 Plain Text
Duration : 1 h 12 min
Bit rate : 72 b/s
Frame rate : 0.284 FPS
Count of elements : 1242
Stream size : 38.5 KiB (0%)
Language : Turkish
Default : No
Forced : No

Text #24
ID : 26
Format : UTF-8
Codec ID : S_TEXT/UTF8
Codec ID/Info : UTF-8 Plain Text
Duration : 1 h 12 min
Bit rate : 66 b/s
Frame rate : 0.282 FPS
Count of elements : 1237
Stream size : 35.8 KiB (0%)
Title : Hong Kong
Language : Chinese
Default : No
Forced : No

Text #25
ID : 27
Format : UTF-8
Codec ID : S_TEXT/UTF8
Codec ID/Info : UTF-8 Plain Text
Duration : 1 h 12 min
Bit rate : 70 b/s
Frame rate : 0.284 FPS
Count of elements : 1241
Stream size : 37.4 KiB (0%)
Title : 简体中字
Language : Chinese

Default : No
Forced : No

Text #26
ID : 28
Format : UTF-8
Codec ID : S_TEXT/UTF8
Codec ID/Info : UTF-8 Plain Text
Duration : 1 h 12 min
Bit rate : 66 b/s
Frame rate : 0.283 FPS
Count of elements : 1238
Stream size : 35.3 KiB (0%)
Title : 繁体中字
Language : Chinese

Default : No
Forced : No

Menu
00:08:24.292 : en:Scene 1
00:18:03.000 : en:Scene 2
00:34:05.875 : en:Scene 3
00:42:02.417 : en:Scene 4
00:50:12.917 : en:Scene 5
00:57:41.083 : en:Scene 6
01:08:58.625 : en:Scene 7
01:13:44.083 : en:Credits


推荐使用qBittorrent、uTorrent、BitComet等下载软件,有条件的推荐115或会员软件下载!

下载地址

游客,如果您要查看本帖隐藏内容请回复

游客,如果您要查看本帖隐藏内容请回复

游客,如果您要查看本帖隐藏内容请回复






上一篇:马克·马龙:末日好好玩 [简繁中字] (2020) 4K高清版本下载
下一篇:求海贼王:红4k谢谢
回复

使用道具 举报

0

主题

2

帖子

9

积分

新手上路

Rank: 1

积分
9
发表于 2022-12-10 19:28:59 | 显示全部楼层
谢谢分享!!!
回复

使用道具 举报

0

主题

2

帖子

9

积分

新手上路

Rank: 1

积分
9
发表于 2022-12-12 12:26:08 来自手机 | 显示全部楼层
谢谢分享
回复

使用道具 举报

您需要登录后才可以回帖 登录 | 立即注册

本版积分规则

精彩图文
Archiver|手机版|TAG|Sitemap|新帖|专题|联系我们:邮箱: 4kjia.com@gmail.com   

4k家园   ©2019