[4K电影] 哈里根先生的电话 [简繁中字] (2022) 4K高清版本下载

[复制链接]

主题

帖子

0

积分

超级版主

Rank: 8Rank: 8

积分
0
 楼主| 发表于 2022-12-11 16:31:06 | 显示全部楼层 |阅读模式
本帖最后由 最爱4K哟 于 2022-12-11 16:43 编辑

哈里根先生的电话.png

◎片  名 Mr. Harrigan's Phone
◎年  代 2022
◎产  地 美国
◎类  别 恐怖
◎语  言 英语
◎上映日期 2022-10-05(美国网络)
◎IMDb评分 6.0/10 from 26689 users 更新 : 2022-12-08
◎IMDb链接 https://www.imdb.com/title/tt12908110/
◎豆瓣评分 6.6/10 from 3656 users 更新 : 2022-12-11
◎豆瓣链接 https://movie.douban.com/subject/35139095/
◎片  长 104分钟
◎导  演 约翰·李·汉考克 John Lee Hancock
◎编  剧 约翰·李·汉考克 John Lee Hancock / 斯蒂芬·金 Stephen King
◎演  员 唐纳德·萨瑟兰 Donald Sutherland
       杰登·马泰尔 Jaeden Martell
       乔·蒂皮特 Joe Tippett
       柯尔比·豪威尔-巴普蒂斯特 Kirby Howell-Baptiste
       赛勒斯·阿诺德 Cyrus Arnold
       科林·奥布莱恩 Colin O'Brien
       托马斯·弗兰西斯·墨菲 Thomas Francis Murphy
       佩吉·J·斯科特 Peggy J. Scott
       韦恩·派尔 Wayne Pyle
       亚历克莎·谢伊·尼齐亚克 Alexa Shae Niziak
       迈克尔·艾伦·科莱特 Michael Alan Collette
       约瑟夫·保罗·肯尼迪 Joseph Paul Kennedy
       丽贝卡·拉迪西奇 Rebecca Radisic
       Chandler Hill Chandler Hill
       丹尼尔·赫什 Daniel Hirsh
       丹尼尔·奥兰迪 Daniel Orlandi


◎简  介


  史蒂芬·金短篇小说《Mr. Harrigan's Phone》将改编成电影,在网飞上线。故事的主角是一个小男孩,他和一位亿万富翁因为一台iPhone结缘,意外成为了朋友。当富翁过世后,那支iPhone也和他一起下葬。而小男孩惊讶地发现,自己可以通过手机语音留言和死去的富翁联系!曾执导《弱点》的约翰·李·汉考克将改编剧本并执导该片。金牌制作人瑞恩·墨菲和杰森·布伦等人合作制作该片。

Video
ID : 1
Format : HEVC
Format/Info : High Efficiency Video Coding
Format profile : Main 10@L5@Main
HDR format : Dolby Vision, Version 1.0, dvhe.05.06, BL+RPU
Codec ID : V_MPEGH/ISO/HEVC
Duration : 1 h 46 min
Bit rate : 16.6 Mb/s
Width : 3 840 pixels
Height : 2 160 pixels
Display aspect ratio : 16:9
Frame rate mode : Constant
Frame rate : 24.000 FPS
Color space : YUV
Chroma subsampling : 4:2:0
Bit depth : 10 bits
Bits/(Pixel*Frame) : 0.083
Stream size : 12.3 GiB (96%)
Language : English
Default : Yes
Forced : No
Color range : Full

Audio
ID : 2
Format : E-AC-3 JOC
Format/Info : Enhanced AC-3 with Joint Object Coding
Commercial name : Dolby Digital Plus with Dolby Atmos
Codec ID : A_EAC3
Duration : 1 h 46 min
Bit rate mode : Constant
Bit rate : 768 kb/s
Channel(s) : 6 channels
Channel layout : L R C LFE Ls Rs
Sampling rate : 48.0 kHz
Frame rate : 31.250 FPS (1536 SPF)
Compression mode : Lossy
Stream size : 584 MiB (4%)
Language : English
Service kind : Complete Main
Default : Yes
Forced : No
Complexity index : 16
Number of dynamic objects : 15
Bed channel count : 1 channel
Bed channel configuration : LFE

Text #1
ID : 3
Format : UTF-8
Codec ID : S_TEXT/UTF8
Codec ID/Info : UTF-8 Plain Text
Duration : 1 h 36 min
Bit rate : 55 b/s
Frame rate : 0.193 FPS
Count of elements : 1120
Stream size : 39.4 KiB (0%)
Language : English
Default : No
Forced : No

Text #2
ID : 4
Format : UTF-8
Codec ID : S_TEXT/UTF8
Codec ID/Info : UTF-8 Plain Text
Duration : 1 h 43 min
Bit rate : 61 b/s
Frame rate : 0.219 FPS
Count of elements : 1364
Stream size : 46.9 KiB (0%)
Title : SDH
Language : English
Default : No
Forced : No

Text #3
ID : 5
Format : UTF-8
Codec ID : S_TEXT/UTF8
Codec ID/Info : UTF-8 Plain Text
Duration : 1 h 44 min
Bit rate : 89 b/s
Frame rate : 0.181 FPS
Count of elements : 1127
Stream size : 68.2 KiB (0%)
Language : Arabic
Default : No
Forced : No

Text #4
ID : 6
Format : UTF-8
Codec ID : S_TEXT/UTF8
Codec ID/Info : UTF-8 Plain Text
Duration : 1 h 44 min
Bit rate : 48 b/s
Frame rate : 0.178 FPS
Count of elements : 1108
Stream size : 37.1 KiB (0%)
Language : Catalan
Default : No
Forced : No

Text #5
ID : 7
Format : UTF-8
Codec ID : S_TEXT/UTF8
Codec ID/Info : UTF-8 Plain Text
Duration : 1 h 36 min
Bit rate : 53 b/s
Frame rate : 0.201 FPS
Count of elements : 1170
Stream size : 37.9 KiB (0%)
Language : Czech
Default : No
Forced : No

Text #6
ID : 8
Format : UTF-8
Codec ID : S_TEXT/UTF8
Codec ID/Info : UTF-8 Plain Text
Duration : 1 h 43 min
Bit rate : 48 b/s
Frame rate : 0.177 FPS
Count of elements : 1106
Stream size : 36.9 KiB (0%)
Language : Czech
Default : No
Forced : No

Text #7
ID : 9
Format : UTF-8
Codec ID : S_TEXT/UTF8
Codec ID/Info : UTF-8 Plain Text
Duration : 1 h 37 min
Bit rate : 59 b/s
Frame rate : 0.232 FPS
Count of elements : 1357
Stream size : 42.8 KiB (0%)
Title : SDH
Language : Czech
Default : No
Forced : No

Text #8
ID : 10
Format : UTF-8
Codec ID : S_TEXT/UTF8
Codec ID/Info : UTF-8 Plain Text
Duration : 1 h 44 min
Bit rate : 48 b/s
Frame rate : 0.166 FPS
Count of elements : 1037
Stream size : 36.8 KiB (0%)
Language : Danish
Default : No
Forced : No

Text #9
ID : 11
Format : UTF-8
Codec ID : S_TEXT/UTF8
Codec ID/Info : UTF-8 Plain Text
Duration : 1 h 44 min
Bit rate : 50 b/s
Frame rate : 0.172 FPS
Count of elements : 1074
Stream size : 38.6 KiB (0%)
Language : German
Default : No
Forced : No

Text #10
ID : 12
Format : UTF-8
Codec ID : S_TEXT/UTF8
Codec ID/Info : UTF-8 Plain Text
Duration : 1 h 37 min
Bit rate : 62 b/s
Frame rate : 0.202 FPS
Count of elements : 1187
Stream size : 44.5 KiB (0%)
Language : German
Default : No
Forced : No

Text #11
ID : 13
Format : UTF-8
Codec ID : S_TEXT/UTF8
Codec ID/Info : UTF-8 Plain Text
Duration : 1 h 43 min
Bit rate : 67 b/s
Frame rate : 0.234 FPS
Count of elements : 1457
Stream size : 51.6 KiB (0%)
Title : SDH
Language : German
Default : No
Forced : No

Text #12
ID : 14
Format : UTF-8
Codec ID : S_TEXT/UTF8
Codec ID/Info : UTF-8 Plain Text
Duration : 1 h 44 min
Bit rate : 82 b/s
Frame rate : 0.174 FPS
Count of elements : 1084
Stream size : 63.1 KiB (0%)
Language : Greek
Default : No
Forced : No

Text #13
ID : 15
Format : UTF-8
Codec ID : S_TEXT/UTF8
Codec ID/Info : UTF-8 Plain Text
Duration : 1 h 37 min
Bit rate : 56 b/s
Frame rate : 0.192 FPS
Count of elements : 1128
Stream size : 40.7 KiB (0%)
Title : Latin American
Language : Spanish
Default : No
Forced : No

Text #14
ID : 16
Format : UTF-8
Codec ID : S_TEXT/UTF8
Codec ID/Info : UTF-8 Plain Text
Duration : 1 h 44 min
Bit rate : 49 b/s
Frame rate : 0.178 FPS
Count of elements : 1113
Stream size : 37.5 KiB (0%)
Title : Latin American
Language : Spanish
Default : No
Forced : No

Text #15
ID : 17
Format : UTF-8
Codec ID : S_TEXT/UTF8
Codec ID/Info : UTF-8 Plain Text
Duration : 1 h 37 min
Bit rate : 59 b/s
Frame rate : 0.202 FPS
Count of elements : 1187
Stream size : 42.9 KiB (0%)
Title : Latin American (SDH)
Language : Spanish
Default : No
Forced : No

Text #16
ID : 18
Format : UTF-8
Codec ID : S_TEXT/UTF8
Codec ID/Info : UTF-8 Plain Text
Duration : 1 h 44 min
Bit rate : 46 b/s
Frame rate : 0.203 FPS
Count of elements : 1269
Stream size : 35.3 KiB (0%)
Language : Spanish
Default : No
Forced : No

Text #17
ID : 19
Format : UTF-8
Codec ID : S_TEXT/UTF8
Codec ID/Info : UTF-8 Plain Text
Duration : 1 h 37 min
Bit rate : 57 b/s
Frame rate : 0.203 FPS
Count of elements : 1189
Stream size : 41.5 KiB (0%)
Language : Spanish
Default : No
Forced : No

Text #18
ID : 20
Format : UTF-8
Codec ID : S_TEXT/UTF8
Codec ID/Info : UTF-8 Plain Text
Duration : 1 h 43 min
Bit rate : 63 b/s
Frame rate : 0.230 FPS
Count of elements : 1433
Stream size : 48.0 KiB (0%)
Title : SDH
Language : Spanish
Default : No
Forced : No

Text #19
ID : 21
Format : UTF-8
Codec ID : S_TEXT/UTF8
Codec ID/Info : UTF-8 Plain Text
Duration : 1 h 44 min
Bit rate : 46 b/s
Frame rate : 0.180 FPS
Count of elements : 1121
Stream size : 35.7 KiB (0%)
Language : Basque
Default : No
Forced : No

Text #20
ID : 22
Format : UTF-8
Codec ID : S_TEXT/UTF8
Codec ID/Info : UTF-8 Plain Text
Duration : 1 h 44 min
Bit rate : 46 b/s
Frame rate : 0.147 FPS
Count of elements : 915
Stream size : 35.7 KiB (0%)
Language : Finnish
Default : No
Forced : No

Text #21
ID : 23
Format : UTF-8
Codec ID : S_TEXT/UTF8
Codec ID/Info : UTF-8 Plain Text
Duration : 1 h 44 min
Bit rate : 48 b/s
Frame rate : 0.180 FPS
Count of elements : 1121
Stream size : 37.3 KiB (0%)
Language : fil
Default : No
Forced : No

Text #22
ID : 24
Format : UTF-8
Codec ID : S_TEXT/UTF8
Codec ID/Info : UTF-8 Plain Text
Duration : 1 h 44 min
Bit rate : 48 b/s
Frame rate : 0.166 FPS
Count of elements : 1036
Stream size : 37.0 KiB (0%)
Language : French
Default : No
Forced : No

Text #23
ID : 25
Format : UTF-8
Codec ID : S_TEXT/UTF8
Codec ID/Info : UTF-8 Plain Text
Duration : 1 h 36 min
Bit rate : 64 b/s
Frame rate : 0.197 FPS
Count of elements : 1147
Stream size : 45.5 KiB (0%)
Language : French
Default : No
Forced : No

Text #24
ID : 26
Format : UTF-8
Codec ID : S_TEXT/UTF8
Codec ID/Info : UTF-8 Plain Text
Duration : 1 h 43 min
Bit rate : 66 b/s
Frame rate : 0.216 FPS
Count of elements : 1343
Stream size : 50.6 KiB (0%)
Title : SDH
Language : French
Default : No
Forced : No

Text #25
ID : 27
Format : UTF-8
Codec ID : S_TEXT/UTF8
Codec ID/Info : UTF-8 Plain Text
Duration : 1 h 44 min
Bit rate : 46 b/s
Frame rate : 0.166 FPS
Count of elements : 1036
Stream size : 35.3 KiB (0%)
Language : Galician
Default : No
Forced : No

Text #26
ID : 28
Format : UTF-8
Codec ID : S_TEXT/UTF8
Codec ID/Info : UTF-8 Plain Text
Duration : 1 h 44 min
Bit rate : 77 b/s
Frame rate : 0.178 FPS
Count of elements : 1113
Stream size : 59.3 KiB (0%)
Language : Hebrew
Default : No
Forced : No

Text #27
ID : 29
Format : UTF-8
Codec ID : S_TEXT/UTF8
Codec ID/Info : UTF-8 Plain Text
Duration : 1 h 44 min
Bit rate : 45 b/s
Frame rate : 0.176 FPS
Count of elements : 1096
Stream size : 34.6 KiB (0%)
Language : Croatian
Default : No
Forced : No

Text #28
ID : 30
Format : UTF-8
Codec ID : S_TEXT/UTF8
Codec ID/Info : UTF-8 Plain Text
Duration : 1 h 36 min
Bit rate : 52 b/s
Frame rate : 0.203 FPS
Count of elements : 1174
Stream size : 37.4 KiB (0%)
Language : Hungarian
Default : No
Forced : No

Text #29
ID : 31
Format : UTF-8
Codec ID : S_TEXT/UTF8
Codec ID/Info : UTF-8 Plain Text
Duration : 1 h 44 min
Bit rate : 48 b/s
Frame rate : 0.171 FPS
Count of elements : 1070
Stream size : 36.8 KiB (0%)
Language : Hungarian
Default : No
Forced : No

Text #30
ID : 32
Format : UTF-8
Codec ID : S_TEXT/UTF8
Codec ID/Info : UTF-8 Plain Text
Duration : 1 h 43 min
Bit rate : 57 b/s
Frame rate : 0.228 FPS
Count of elements : 1420
Stream size : 44.1 KiB (0%)
Title : SDH
Language : Hungarian
Default : No
Forced : No

Text #31
ID : 33
Format : UTF-8
Codec ID : S_TEXT/UTF8
Codec ID/Info : UTF-8 Plain Text
Duration : 1 h 44 min
Bit rate : 54 b/s
Frame rate : 0.182 FPS
Count of elements : 1134
Stream size : 41.7 KiB (0%)
Language : Indonesian
Default : No
Forced : No

Text #32
ID : 34
Format : UTF-8
Codec ID : S_TEXT/UTF8
Codec ID/Info : UTF-8 Plain Text
Duration : 1 h 44 min
Bit rate : 49 b/s
Frame rate : 0.175 FPS
Count of elements : 1094
Stream size : 37.6 KiB (0%)
Language : Indonesian
Default : No
Forced : No

Text #33
ID : 35
Format : UTF-8
Codec ID : S_TEXT/UTF8
Codec ID/Info : UTF-8 Plain Text
Duration : 1 h 44 min
Bit rate : 60 b/s
Frame rate : 0.199 FPS
Count of elements : 1240
Stream size : 45.7 KiB (0%)
Title : SDH
Language : Indonesian
Default : No
Forced : No

Text #34
ID : 36
Format : UTF-8
Codec ID : S_TEXT/UTF8
Codec ID/Info : UTF-8 Plain Text
Duration : 1 h 44 min
Bit rate : 48 b/s
Frame rate : 0.178 FPS
Count of elements : 1108
Stream size : 36.8 KiB (0%)
Language : Italian
Default : No
Forced : No

Text #35
ID : 37
Format : UTF-8
Codec ID : S_TEXT/UTF8
Codec ID/Info : UTF-8 Plain Text
Duration : 1 h 43 min
Bit rate : 62 b/s
Frame rate : 0.227 FPS
Count of elements : 1414
Stream size : 47.7 KiB (0%)
Language : Italian
Default : No
Forced : No

Text #36
ID : 38
Format : UTF-8
Codec ID : S_TEXT/UTF8
Codec ID/Info : UTF-8 Plain Text
Duration : 1 h 43 min
Bit rate : 62 b/s
Frame rate : 0.227 FPS
Count of elements : 1414
Stream size : 47.7 KiB (0%)
Title : SDH
Language : Italian
Default : No
Forced : No

Text #37
ID : 39
Format : UTF-8
Codec ID : S_TEXT/UTF8
Codec ID/Info : UTF-8 Plain Text
Duration : 1 h 44 min
Bit rate : 46 b/s
Frame rate : 0.182 FPS
Count of elements : 1137
Stream size : 35.2 KiB (0%)
Language : Japanese
Default : No
Forced : No

Text #38
ID : 40
Format : UTF-8
Codec ID : S_TEXT/UTF8
Codec ID/Info : UTF-8 Plain Text
Duration : 1 h 44 min
Bit rate : 61 b/s
Frame rate : 0.183 FPS
Count of elements : 1142
Stream size : 46.7 KiB (0%)
Language : Korean
Default : No
Forced : No

Text #39
ID : 41
Format : UTF-8
Codec ID : S_TEXT/UTF8
Codec ID/Info : UTF-8 Plain Text
Duration : 1 h 44 min
Bit rate : 49 b/s
Frame rate : 0.180 FPS
Count of elements : 1123
Stream size : 37.8 KiB (0%)
Language : Malay
Default : No
Forced : No

Text #40
ID : 42
Format : UTF-8
Codec ID : S_TEXT/UTF8
Codec ID/Info : UTF-8 Plain Text
Duration : 1 h 44 min
Bit rate : 46 b/s
Frame rate : 0.160 FPS
Count of elements : 999
Stream size : 35.2 KiB (0%)
Language : Norwegian Bokmal
Default : No
Forced : No

Text #41
ID : 43
Format : UTF-8
Codec ID : S_TEXT/UTF8
Codec ID/Info : UTF-8 Plain Text
Duration : 1 h 44 min
Bit rate : 44 b/s
Frame rate : 0.156 FPS
Count of elements : 971
Stream size : 34.3 KiB (0%)
Language : Dutch
Default : No
Forced : No

Text #42
ID : 44
Format : UTF-8
Codec ID : S_TEXT/UTF8
Codec ID/Info : UTF-8 Plain Text
Duration : 1 h 37 min
Bit rate : 43 b/s
Frame rate : 0.176 FPS
Count of elements : 1029
Stream size : 31.3 KiB (0%)
Language : Polish
Default : No
Forced : No

Text #43
ID : 45
Format : UTF-8
Codec ID : S_TEXT/UTF8
Codec ID/Info : UTF-8 Plain Text
Duration : 1 h 44 min
Bit rate : 48 b/s
Frame rate : 0.170 FPS
Count of elements : 1063
Stream size : 37.1 KiB (0%)
Language : Polish
Default : No
Forced : No

Text #44
ID : 46
Format : UTF-8
Codec ID : S_TEXT/UTF8
Codec ID/Info : UTF-8 Plain Text
Duration : 1 h 43 min
Bit rate : 49 b/s
Frame rate : 0.197 FPS
Count of elements : 1231
Stream size : 37.4 KiB (0%)
Title : SDH
Language : Polish
Default : No
Forced : No

Text #45
ID : 47
Format : UTF-8
Codec ID : S_TEXT/UTF8
Codec ID/Info : UTF-8 Plain Text
Duration : 1 h 37 min
Bit rate : 54 b/s
Frame rate : 0.197 FPS
Count of elements : 1157
Stream size : 39.3 KiB (0%)
Title : Brazilian
Language : Portuguese
Default : No
Forced : No

Text #46
ID : 48
Format : UTF-8
Codec ID : S_TEXT/UTF8
Codec ID/Info : UTF-8 Plain Text
Duration : 1 h 37 min
Bit rate : 51 b/s
Frame rate : 0.179 FPS
Count of elements : 1053
Stream size : 37.1 KiB (0%)
Title : Brazilian
Language : Portuguese
Default : No
Forced : No

Text #47
ID : 49
Format : UTF-8
Codec ID : S_TEXT/UTF8
Codec ID/Info : UTF-8 Plain Text
Duration : 1 h 43 min
Bit rate : 59 b/s
Frame rate : 0.225 FPS
Count of elements : 1401
Stream size : 45.7 KiB (0%)
Title : Brazilian (SDH)
Language : Portuguese
Default : No
Forced : No

Text #48
ID : 50
Format : UTF-8
Codec ID : S_TEXT/UTF8
Codec ID/Info : UTF-8 Plain Text
Duration : 1 h 44 min
Bit rate : 50 b/s
Frame rate : 0.179 FPS
Count of elements : 1118
Stream size : 38.3 KiB (0%)
Language : Portuguese
Default : No
Forced : No

Text #49
ID : 51
Format : UTF-8
Codec ID : S_TEXT/UTF8
Codec ID/Info : UTF-8 Plain Text
Duration : 1 h 44 min
Bit rate : 57 b/s
Frame rate : 0.178 FPS
Count of elements : 1113
Stream size : 43.8 KiB (0%)
Language : Romanian
Default : No
Forced : No

Text #50
ID : 52
Format : UTF-8
Codec ID : S_TEXT/UTF8
Codec ID/Info : UTF-8 Plain Text
Duration : 1 h 44 min
Bit rate : 81 b/s
Frame rate : 0.177 FPS
Count of elements : 1106
Stream size : 61.7 KiB (0%)
Language : Russian
Default : No
Forced : No

Text #51
ID : 53
Format : UTF-8
Codec ID : S_TEXT/UTF8
Codec ID/Info : UTF-8 Plain Text
Duration : 1 h 44 min
Bit rate : 48 b/s
Frame rate : 0.159 FPS
Count of elements : 995
Stream size : 37.1 KiB (0%)
Language : Swedish
Default : No
Forced : No

Text #52
ID : 54
Format : UTF-8
Codec ID : S_TEXT/UTF8
Codec ID/Info : UTF-8 Plain Text
Duration : 1 h 44 min
Bit rate : 126 b/s
Frame rate : 0.182 FPS
Count of elements : 1134
Stream size : 96.7 KiB (0%)
Language : Thai
Default : No
Forced : No

Text #53
ID : 55
Format : UTF-8
Codec ID : S_TEXT/UTF8
Codec ID/Info : UTF-8 Plain Text
Duration : 1 h 43 min
Bit rate : 53 b/s
Frame rate : 0.190 FPS
Count of elements : 1174
Stream size : 40.1 KiB (0%)
Language : Turkish
Default : No
Forced : No

Text #54
ID : 56
Format : UTF-8
Codec ID : S_TEXT/UTF8
Codec ID/Info : UTF-8 Plain Text
Duration : 1 h 44 min
Bit rate : 47 b/s
Frame rate : 0.173 FPS
Count of elements : 1077
Stream size : 36.2 KiB (0%)
Language : Turkish
Default : No
Forced : No

Text #55
ID : 57
Format : UTF-8
Codec ID : S_TEXT/UTF8
Codec ID/Info : UTF-8 Plain Text
Duration : 1 h 43 min
Bit rate : 64 b/s
Frame rate : 0.228 FPS
Count of elements : 1419
Stream size : 49.1 KiB (0%)
Title : SDH
Language : Turkish
Default : No
Forced : No

Text #56
ID : 58
Format : UTF-8
Codec ID : S_TEXT/UTF8
Codec ID/Info : UTF-8 Plain Text
Duration : 1 h 44 min
Bit rate : 78 b/s
Frame rate : 0.175 FPS
Count of elements : 1091
Stream size : 60.0 KiB (0%)
Language : Ukrainian
Default : No
Forced : No

Text #57
ID : 59
Format : UTF-8
Codec ID : S_TEXT/UTF8
Codec ID/Info : UTF-8 Plain Text
Duration : 1 h 44 min
Bit rate : 68 b/s
Frame rate : 0.179 FPS
Count of elements : 1118
Stream size : 52.4 KiB (0%)
Language : Vietnamese
Default : No
Forced : No

Text #58
ID : 60
Format : UTF-8
Codec ID : S_TEXT/UTF8
Codec ID/Info : UTF-8 Plain Text
Duration : 1 h 44 min
Bit rate : 52 b/s
Frame rate : 0.182 FPS
Count of elements : 1137
Stream size : 40.0 KiB (0%)
Title : 简体中字
Language : Chinese

Default : No
Forced : No

Text #59
ID : 61
Format : UTF-8
Codec ID : S_TEXT/UTF8
Codec ID/Info : UTF-8 Plain Text
Duration : 1 h 44 min
Bit rate : 49 b/s
Frame rate : 0.186 FPS
Count of elements : 1163
Stream size : 38.1 KiB (0%)
Title : 繁体中字
Language : Chinese

Default : No
Forced : No

Menu
01:39:57.000 : en:End Credits

推荐使用qBittorrent、uTorrent、BitComet等下载软件,有条件的推荐115或会员软件下载!

下载地址


游客,如果您要查看本帖隐藏内容请回复

游客,如果您要查看本帖隐藏内容请回复

游客,如果您要查看本帖隐藏内容请回复

游客,如果您要查看本帖隐藏内容请回复







上一篇:琉璃之舞 [简繁中字] Las niñas de cristal (2022) 4K高清版本下载
下一篇:昼夜不停 [简繁中字] / Sans répit (2022) 4K高清版本下载
回复

使用道具 举报

0

主题

1

帖子

6

积分

新手上路

Rank: 1

积分
6
发表于 2022-12-11 20:25:00 | 显示全部楼层
看看
回复

使用道具 举报

0

主题

2

帖子

12

积分

新手上路

Rank: 1

积分
12
发表于 2022-12-11 21:37:14 | 显示全部楼层
不错不错
回复

使用道具 举报

您需要登录后才可以回帖 登录 | 立即注册

本版积分规则

精彩图文
Archiver|手机版|TAG|Sitemap|新帖|专题|联系我们:邮箱: 4kjia.com@gmail.com   

4k家园   ©2019