[4K电影] 比利时小天后安琪儿:成名之路[简繁中字](2021) 4K高清版下载

[复制链接]

主题

帖子

0

积分

超级版主

Rank: 8Rank: 8

积分
0
 楼主| 发表于 2022-12-12 16:31:29 | 显示全部楼层 |阅读模式
本帖最后由 最爱4K哟 于 2022-12-12 19:58 编辑

QQ图片20221212195546_副本.png

◎标  题 比利时小天后安琪儿:成名之路
◎片  名 Angèle
◎年  代 2021
◎产  地 法国
◎类  别 纪录片 / 音乐 / 传记
◎语  言 法语
◎上映日期 2021-11-26(美国)
◎IMDb评分 7.0/10 from 563 users 更新 : 2022-12-11
◎IMDb链接 https://www.imdb.com/title/tt15820298/
◎豆瓣评分 7.8/10 from 153 users 更新 : 2022-12-11
◎豆瓣链接 https://movie.douban.com/subject/35657013/
◎片  长 84分钟


◎简  介


  比利时流行歌星安杰尔(Angèle)在成名的泪水、欢乐和孤独中找到了平衡,她反思了自己的生活和希望。通过她自己的话告诉我。

Video
ID : 1
Format : HEVC
Format/Info : High Efficiency Video Coding
Format profile : Main 10@L5@Main
Codec ID : V_MPEGH/ISO/HEVC
Duration : 1 h 24 min
Bit rate : 11.6 Mb/s
Width : 3 840 pixels
Height : 2 160 pixels
Display aspect ratio : 16:9
Frame rate mode : Constant
Frame rate : 25.000 FPS
Color space : YUV
Chroma subsampling : 4:2:0
Bit depth : 10 bits
Bits/(Pixel*Frame) : 0.056
Stream size : 6.85 GiB (95%)
Language : French
Default : Yes
Forced : No
Color range : Limited
Color primaries : BT.709
Transfer characteristics : BT.709
Matrix coefficients : BT.709

Audio
ID : 2
Format : E-AC-3
Format/Info : Enhanced AC-3
Commercial name : Dolby Digital Plus
Codec ID : A_EAC3
Duration : 1 h 24 min
Bit rate mode : Constant
Bit rate : 640 kb/s
Channel(s) : 6 channels
Channel layout : L R C LFE Ls Rs
Sampling rate : 48.0 kHz
Frame rate : 31.250 FPS (1536 SPF)
Compression mode : Lossy
Stream size : 389 MiB (5%)
Language : French
Service kind : Complete Main
Default : Yes
Forced : No

Text #1
ID : 3
Format : UTF-8
Codec ID : S_TEXT/UTF8
Codec ID/Info : UTF-8 Plain Text
Duration : 1 h 16 min
Bit rate : 1 b/s
Frame rate : 0.005 FPS
Count of elements : 25
Stream size : 678 Bytes (0%)
Title : Forced
Language : French
Default : Yes
Forced : Yes

Text #2
ID : 4
Format : UTF-8
Codec ID : S_TEXT/UTF8
Codec ID/Info : UTF-8 Plain Text
Duration : 1 h 24 min
Bit rate : 82 b/s
Frame rate : 0.257 FPS
Count of elements : 1296
Stream size : 50.6 KiB (0%)
Language : French
Default : No
Forced : No

Text #3
ID : 5
Format : UTF-8
Codec ID : S_TEXT/UTF8
Codec ID/Info : UTF-8 Plain Text
Duration : 1 h 24 min
Bit rate : 98 b/s
Frame rate : 0.305 FPS
Count of elements : 1547
Stream size : 60.7 KiB (0%)
Title : SDH
Language : French
Default : No
Forced : No

Text #4
ID : 6
Format : UTF-8
Codec ID : S_TEXT/UTF8
Codec ID/Info : UTF-8 Plain Text
Duration : 1 h 24 min
Bit rate : 122 b/s
Frame rate : 0.297 FPS
Count of elements : 1509
Stream size : 75.8 KiB (0%)
Language : Arabic
Default : No
Forced : No

Text #5
ID : 7
Format : UTF-8
Codec ID : S_TEXT/UTF8
Codec ID/Info : UTF-8 Plain Text
Duration : 1 h 24 min
Bit rate : 79 b/s
Frame rate : 0.267 FPS
Count of elements : 1355
Stream size : 49.1 KiB (0%)
Language : Czech
Default : No
Forced : No

Text #6
ID : 8
Format : UTF-8
Codec ID : S_TEXT/UTF8
Codec ID/Info : UTF-8 Plain Text
Duration : 1 h 24 min
Bit rate : 81 b/s
Frame rate : 0.238 FPS
Count of elements : 1210
Stream size : 50.2 KiB (0%)
Language : Danish
Default : No
Forced : No

Text #7
ID : 9
Format : UTF-8
Codec ID : S_TEXT/UTF8
Codec ID/Info : UTF-8 Plain Text
Duration : 1 h 24 min
Bit rate : 84 b/s
Frame rate : 0.253 FPS
Count of elements : 1286
Stream size : 52.4 KiB (0%)
Language : German
Default : No
Forced : No

Text #8
ID : 10
Format : UTF-8
Codec ID : S_TEXT/UTF8
Codec ID/Info : UTF-8 Plain Text
Duration : 1 h 24 min
Bit rate : 126 b/s
Frame rate : 0.272 FPS
Count of elements : 1379
Stream size : 78.3 KiB (0%)
Language : Greek
Default : No
Forced : No

Text #9
ID : 11
Format : UTF-8
Codec ID : S_TEXT/UTF8
Codec ID/Info : UTF-8 Plain Text
Duration : 1 h 24 min
Bit rate : 77 b/s
Frame rate : 0.273 FPS
Count of elements : 1383
Stream size : 48.0 KiB (0%)
Language : English
Default : No
Forced : No

Text #10
ID : 12
Format : UTF-8
Codec ID : S_TEXT/UTF8
Codec ID/Info : UTF-8 Plain Text
Duration : 1 h 24 min
Bit rate : 95 b/s
Frame rate : 0.306 FPS
Count of elements : 1552
Stream size : 59.2 KiB (0%)
Title : SDH
Language : English
Default : No
Forced : No

Text #11
ID : 13
Format : UTF-8
Codec ID : S_TEXT/UTF8
Codec ID/Info : UTF-8 Plain Text
Duration : 1 h 24 min
Bit rate : 79 b/s
Frame rate : 0.255 FPS
Count of elements : 1293
Stream size : 49.2 KiB (0%)
Title : Latin American
Language : Spanish
Default : No
Forced : No

Text #12
ID : 14
Format : UTF-8
Codec ID : S_TEXT/UTF8
Codec ID/Info : UTF-8 Plain Text
Duration : 1 h 24 min
Bit rate : 80 b/s
Frame rate : 0.261 FPS
Count of elements : 1326
Stream size : 49.6 KiB (0%)
Language : Spanish
Default : No
Forced : No

Text #13
ID : 15
Format : UTF-8
Codec ID : S_TEXT/UTF8
Codec ID/Info : UTF-8 Plain Text
Duration : 1 h 24 min
Bit rate : 70 b/s
Frame rate : 0.192 FPS
Count of elements : 974
Stream size : 43.5 KiB (0%)
Language : Finnish
Default : No
Forced : No

Text #14
ID : 16
Format : UTF-8
Codec ID : S_TEXT/UTF8
Codec ID/Info : UTF-8 Plain Text
Duration : 1 h 24 min
Bit rate : 114 b/s
Frame rate : 0.276 FPS
Count of elements : 1400
Stream size : 71.0 KiB (0%)
Language : Hebrew
Default : No
Forced : No

Text #15
ID : 17
Format : UTF-8
Codec ID : S_TEXT/UTF8
Codec ID/Info : UTF-8 Plain Text
Duration : 1 h 24 min
Bit rate : 75 b/s
Frame rate : 0.259 FPS
Count of elements : 1315
Stream size : 46.8 KiB (0%)
Language : Croatian
Default : No
Forced : No

Text #16
ID : 18
Format : UTF-8
Codec ID : S_TEXT/UTF8
Codec ID/Info : UTF-8 Plain Text
Duration : 1 h 24 min
Bit rate : 86 b/s
Frame rate : 0.241 FPS
Count of elements : 1222
Stream size : 53.4 KiB (0%)
Language : Hungarian
Default : No
Forced : No

Text #17
ID : 19
Format : UTF-8
Codec ID : S_TEXT/UTF8
Codec ID/Info : UTF-8 Plain Text
Duration : 1 h 24 min
Bit rate : 78 b/s
Frame rate : 0.253 FPS
Count of elements : 1284
Stream size : 48.7 KiB (0%)
Language : Indonesian
Default : No
Forced : No

Text #18
ID : 20
Format : UTF-8
Codec ID : S_TEXT/UTF8
Codec ID/Info : UTF-8 Plain Text
Duration : 1 h 24 min
Bit rate : 78 b/s
Frame rate : 0.251 FPS
Count of elements : 1273
Stream size : 48.5 KiB (0%)
Language : Italian
Default : No
Forced : No

Text #19
ID : 21
Format : UTF-8
Codec ID : S_TEXT/UTF8
Codec ID/Info : UTF-8 Plain Text
Duration : 1 h 24 min
Bit rate : 88 b/s
Frame rate : 0.270 FPS
Count of elements : 1370
Stream size : 55.1 KiB (0%)
Language : Japanese
Default : No
Forced : No

Text #20
ID : 22
Format : UTF-8
Codec ID : S_TEXT/UTF8
Codec ID/Info : UTF-8 Plain Text
Duration : 1 h 24 min
Bit rate : 92 b/s
Frame rate : 0.278 FPS
Count of elements : 1412
Stream size : 57.5 KiB (0%)
Language : Korean
Default : No
Forced : No

Text #21
ID : 23
Format : UTF-8
Codec ID : S_TEXT/UTF8
Codec ID/Info : UTF-8 Plain Text
Duration : 1 h 24 min
Bit rate : 78 b/s
Frame rate : 0.265 FPS
Count of elements : 1348
Stream size : 48.4 KiB (0%)
Language : Malay
Default : No
Forced : No

Text #22
ID : 24
Format : UTF-8
Codec ID : S_TEXT/UTF8
Codec ID/Info : UTF-8 Plain Text
Duration : 1 h 24 min
Bit rate : 74 b/s
Frame rate : 0.234 FPS
Count of elements : 1189
Stream size : 46.2 KiB (0%)
Language : Norwegian Bokmal
Default : No
Forced : No

Text #23
ID : 25
Format : UTF-8
Codec ID : S_TEXT/UTF8
Codec ID/Info : UTF-8 Plain Text
Duration : 1 h 24 min
Bit rate : 70 b/s
Frame rate : 0.238 FPS
Count of elements : 1207
Stream size : 43.9 KiB (0%)
Language : Dutch
Default : No
Forced : No

Text #24
ID : 26
Format : UTF-8
Codec ID : S_TEXT/UTF8
Codec ID/Info : UTF-8 Plain Text
Duration : 1 h 24 min
Bit rate : 74 b/s
Frame rate : 0.270 FPS
Count of elements : 1373
Stream size : 46.2 KiB (0%)
Language : Polish
Default : No
Forced : No

Text #25
ID : 27
Format : UTF-8
Codec ID : S_TEXT/UTF8
Codec ID/Info : UTF-8 Plain Text
Duration : 1 h 24 min
Bit rate : 77 b/s
Frame rate : 0.271 FPS
Count of elements : 1377
Stream size : 47.9 KiB (0%)
Title : Brazilian
Language : Portuguese
Default : No
Forced : No

Text #26
ID : 28
Format : UTF-8
Codec ID : S_TEXT/UTF8
Codec ID/Info : UTF-8 Plain Text
Duration : 1 h 24 min
Bit rate : 78 b/s
Frame rate : 0.268 FPS
Count of elements : 1359
Stream size : 48.9 KiB (0%)
Language : Portuguese
Default : No
Forced : No

Text #27
ID : 29
Format : UTF-8
Codec ID : S_TEXT/UTF8
Codec ID/Info : UTF-8 Plain Text
Duration : 1 h 24 min
Bit rate : 86 b/s
Frame rate : 0.269 FPS
Count of elements : 1368
Stream size : 53.9 KiB (0%)
Language : Romanian
Default : No
Forced : No

Text #28
ID : 30
Format : UTF-8
Codec ID : S_TEXT/UTF8
Codec ID/Info : UTF-8 Plain Text
Duration : 1 h 24 min
Bit rate : 122 b/s
Frame rate : 0.271 FPS
Count of elements : 1377
Stream size : 76.2 KiB (0%)
Language : Russian
Default : No
Forced : No

Text #29
ID : 31
Format : UTF-8
Codec ID : S_TEXT/UTF8
Codec ID/Info : UTF-8 Plain Text
Duration : 1 h 24 min
Bit rate : 79 b/s
Frame rate : 0.210 FPS
Count of elements : 1065
Stream size : 49.2 KiB (0%)
Language : Swedish
Default : No
Forced : No

Text #30
ID : 32
Format : UTF-8
Codec ID : S_TEXT/UTF8
Codec ID/Info : UTF-8 Plain Text
Duration : 1 h 24 min
Bit rate : 187 b/s
Frame rate : 0.279 FPS
Count of elements : 1414
Stream size : 116 KiB (0%)
Language : Thai
Default : No
Forced : No

Text #31
ID : 33
Format : UTF-8
Codec ID : S_TEXT/UTF8
Codec ID/Info : UTF-8 Plain Text
Duration : 1 h 24 min
Bit rate : 80 b/s
Frame rate : 0.265 FPS
Count of elements : 1346
Stream size : 49.7 KiB (0%)
Language : Turkish
Default : No
Forced : No

Text #32
ID : 34
Format : UTF-8
Codec ID : S_TEXT/UTF8
Codec ID/Info : UTF-8 Plain Text
Duration : 1 h 24 min
Bit rate : 126 b/s
Frame rate : 0.265 FPS
Count of elements : 1346
Stream size : 78.6 KiB (0%)
Language : Ukrainian
Default : No
Forced : No

Text #33
ID : 35
Format : UTF-8
Codec ID : S_TEXT/UTF8
Codec ID/Info : UTF-8 Plain Text
Duration : 1 h 24 min
Bit rate : 108 b/s
Frame rate : 0.272 FPS
Count of elements : 1381
Stream size : 67.4 KiB (0%)
Language : Vietnamese
Default : No
Forced : No

Text #34
ID : 36
Format : UTF-8
Codec ID : S_TEXT/UTF8
Codec ID/Info : UTF-8 Plain Text
Duration : 1 h 24 min
Bit rate : 82 b/s
Frame rate : 0.278 FPS
Count of elements : 1413
Stream size : 51.3 KiB (0%)
Title : 简体中字
Language : Chinese

Default : No
Forced : No

Text #35
ID : 37
Format : UTF-8
Codec ID : S_TEXT/UTF8
Codec ID/Info : UTF-8 Plain Text
Duration : 1 h 24 min
Bit rate : 73 b/s
Frame rate : 0.279 FPS
Count of elements : 1415
Stream size : 45.6 KiB (0%)
Title : 繁体中字
Language : Chinese

Default : No
Forced : No

Menu
01:24:47.000 : en:End Credits

推荐使用qBittorrent、uTorrent、BitComet等下载软件,有条件的推荐115或会员软件下载!

下载地址


游客,如果您要查看本帖隐藏内容请回复






上一篇:征服14座高峰:凡事皆可能[简繁中字] (2021) 4K高清版本下载
下一篇:刹那的光辉[简繁中字]/ I Used to be Famous‎ (2022) 4K高清版下载
回复

使用道具 举报

您需要登录后才可以回帖 登录 | 立即注册

本版积分规则

精彩图文
Archiver|手机版|TAG|Sitemap|新帖|专题|联系我们:邮箱: 4kjia.com@gmail.com   

4k家园   ©2019