[4K电影] 恶魔的光火 / Prey for the Devil (2022) 4K高清版下载

[复制链接]

主题

帖子

0

积分

超级版主

Rank: 8Rank: 8

积分
0
 楼主| 发表于 2022-12-12 20:12:54 | 显示全部楼层 |阅读模式
QQ图片20221212201515_副本.png

◎标  题 恶魔的光火
◎译  名 鬼祷(台) / 魔鬼之光(港) / The Devil's Light
◎片  名 Prey for the Devil
◎年  代 2022
◎产  地 美国
◎类  别 惊悚 / 恐怖
◎语  言 英语
◎上映日期 2022-10-26(法国) / 2022-10-28(美国)
◎IMDb评分 5.2/10 from 4437 users 更新 : 2022-12-12
◎IMDb链接 https://www.imdb.com/title/tt9271672/
◎豆瓣评分 5.4/10 from 268 users 更新 : 2022-12-12
◎豆瓣链接 https://movie.douban.com/subject/35053657/
◎片  长 93分钟
◎导  演 丹尼尔·斯坦 Daniel Stamm
◎编  剧 罗伯特·扎皮亚 Robert Zappia / 托德·R·琼斯 Todd R. Jones  / 厄尔·里奇·琼斯 Earl Richey Jones
◎演  员 杰奎琳·拜尔斯 Jacqueline Byers
       维吉妮娅·马德森 Virginia Madsen
       科林·萨蒙 Colin Salmon
       尼古拉斯·瑞夫 Nicholas Ralph
       本·克劳斯 Ben Cross
       克里斯蒂安·纳瓦罗 Christian Navarro
       黛博拉·热切娃 Debora Zhecheva
       汤姆·福布斯 Tom Forbes
       丽莎·帕弗瑞 Lisa Palfrey
       波西·泰勒 Posy Taylor
       沃利扎·比尼夫 Velizar Binev
       欧文·戴维斯 Owen Davis
       雅娜·梅里诺娃 Yana Marinova
       亚妮娜·泰什娃 Yanina Kasheva
       马丁·塔斯科夫 Martin Taskov
       内森·巴尔 Nathan Barr


◎简  介


  加入教会不久的年轻修女安,深信替人驱魔是她天生的使命,然而天主教会却有个令她不满的不成文传统:只有神父可以进行驱魔仪式。幸好,安和一个认可她驱魔天赋的导师相遇,因而破例让她参与并旁观驱魔课程,成为首位学习驱魔仪式的修女。安很快地展现出在驱魔上的才能,与此同时,众人却发现她与恶灵有着一段不可告人的过去……
Video
ID : 1
Format : HEVC
Format/Info : High Efficiency Video Coding
Format profile : Main 10@L5@High
Codec ID : V_MPEGH/ISO/HEVC
Duration : 1 h 33 min
Bit rate : 20.2 Mb/s
Width : 3 824 pixels
Height : 1 588 pixels
Display aspect ratio : 2.40:1
Frame rate mode : Constant
Frame rate : 23.976 (24000/1001) FPS
Color space : YUV
Chroma subsampling : 4:2:0
Bit depth : 10 bits
Bits/(Pixel*Frame) : 0.139
Stream size : 13.2 GiB (96%)
Language : English
Default : Yes
Forced : No
Color range : Limited
Color primaries : BT.709
Transfer characteristics : BT.709
Matrix coefficients : BT.709

Audio
ID : 2
Format : AC-3
Format/Info : Audio Coding 3
Commercial name : Dolby Digital
Codec ID : A_AC3
Duration : 1 h 33 min
Bit rate mode : Constant
Bit rate : 384 kb/s
Channel(s) : 6 channels
Channel layout : L R C LFE Ls Rs
Sampling rate : 48.0 kHz
Frame rate : 31.250 FPS (1536 SPF)
Compression mode : Lossy
Stream size : 256 MiB (2%)
Language : English
Service kind : Complete Main
Default : Yes
Forced : No

Text #1
ID : 3
Format : UTF-8
Codec ID : S_TEXT/UTF8
Codec ID/Info : UTF-8 Plain Text
Title : English
Language : English
Default : No
Forced : No

Text #2
ID : 4
Format : UTF-8
Codec ID : S_TEXT/UTF8
Codec ID/Info : UTF-8 Plain Text
Title : Japanese
Language : Japanese
Default : No
Forced : No

推荐使用qBittorrent、uTorrent、BitComet等下载软件,有条件的推荐115或会员软件下载!

下载地址

游客,如果您要查看本帖隐藏内容请回复
游客,如果您要查看本帖隐藏内容请回复

游客,如果您要查看本帖隐藏内容请回复

游客,如果您要查看本帖隐藏内容请回复





上一篇:吉姆·杰弗里斯:蠢上天 [简繁中字] (2016) 4K高清版下载
下一篇:骨及所有 / Bones and All (2022) 4K高清版下载
回复

使用道具 举报

0

主题

10

帖子

51

积分

新手上路

Rank: 1

积分
51
发表于 2022-12-13 10:51:15 | 显示全部楼层
跪求高清无删减种子下载
回复 支持 反对

使用道具 举报

主题

帖子

0

积分

新手上路

Rank: 1

积分
0
发表于 2022-12-13 12:20:22 | 显示全部楼层
谢谢楼主分享
回复 支持 反对

使用道具 举报

0

主题

2

帖子

12

积分

4K家园VIP

Rank: 9Rank: 9Rank: 9

积分
12
发表于 2022-12-13 20:29:05 | 显示全部楼层
谢谢楼主分享
回复 支持 反对

使用道具 举报

0

主题

4

帖子

21

积分

新手上路

Rank: 1

积分
21
发表于 2022-12-13 22:23:40 | 显示全部楼层
感谢分享
回复

使用道具 举报

您需要登录后才可以回帖 登录 | 立即注册

本版积分规则

精彩图文
Archiver|手机版|TAG|Sitemap|新帖|专题|联系我们:邮箱: 4kjia.com@gmail.com   

4k家园   ©2019