[4K UHD 蓝光原盘] 复仇者联盟 [简繁中字] (2012)4K蓝光REMUX版本

[复制链接]

主题

帖子

0

积分

超级版主

Rank: 8Rank: 8

积分
0
 楼主| 发表于 2022-12-13 14:19:11 | 显示全部楼层 |阅读模式
复仇者联盟.png

◎译  名 复仇者 / 复联 / 妇联(豆友译名)
◎片  名 The Avengers
◎年  代 2012
◎产  地 美国
◎类  别 动作 / 科幻 / 奇幻 / 冒险
◎语  言 英语 / 俄语
◎上映日期 2012-05-05(中国大陆) / 2012-05-04(美国)
◎IMDb评分 8.0/10 from 1388745 users 更新 : 2022-12-10
◎IMDb链接 https://www.imdb.com/title/tt0848228/
◎豆瓣评分 8.2/10 from 1031720 users 更新 : 2022-12-13
◎豆瓣链接 https://movie.douban.com/subject/1866479/
◎片  长 142分钟
◎导  演 乔斯·韦登 Joss Whedon
◎编  剧 乔斯·韦登 Joss Whedon / 扎克·佩恩 Zak Penn
◎演  员 小罗伯特·唐尼 Robert Downey Jr.
       克里斯·埃文斯 Chris Evans
       斯嘉丽·约翰逊 Scarlett Johansson
       克里斯·海姆斯沃斯 Chris Hemsworth
       杰瑞米·雷纳 Jeremy Renner
       马克·鲁弗洛 Mark Ruffalo
       塞缪尔·杰克逊 Samuel L. Jackson
       汤姆·希德勒斯顿 Tom Hiddleston
       斯特兰·斯卡斯加德 Stellan Skarsgård
       寇碧·史莫德斯 Cobie Smulders
       克拉克·格雷格 Clark Gregg
       保罗·贝坦尼 Paul Bettany
       格温妮斯·帕特洛 Gwyneth Paltrow
       斯坦·李 Stan Lee
       哈利·戴恩·斯坦通 Harry Dean Stanton
       季冠霖 Guanlin Ji
       杰兹·斯科利莫夫斯基 Jerzy Skolimowski
       艾什莉·约翰逊 Ashley Johnson
       沃伦·科尔 Warren Kole
       珍妮·艾加特 Jenny Agutter
       安维尔·乔卡亚 Enver Gjokaj
       埃里克斯·德尼索夫 Alexis Denisof
       鲍沃斯·布斯 Powers Boothe
       张磊 Lei Zhang
       卢·弗里基诺 Lou Ferrigno
       陆建艺 Jianyi Lu
       马克斯米利亚诺·赫尔南德斯 Maximiliano Hernández
       吉莉安·莫格斯 Jillian Morgese
       罗密·罗斯蒙特 Romy Rosemont
       蒂娜·本科 Tina Benko
       杰西·加西亚 Jesse Garcia
       罗伯特·克洛赫赛 Robert Clohessy
       沃特尔·派瑞兹 Walter Perez
       肯尼斯·提加尔 Kenneth Tigar
       达米恩·波蒂埃 Damion Poitier
       米拉罕·凯尔·辛格 M'laah Kaur Singh
          金永钢 Yonggang Jin
       杰夫·沃尔夫 Jeff Wolfe
       李明航 Donald Li
       詹姆斯·埃克豪斯 James Eckhouse
       布兰登·马修·莱恩 Brandon Matthew Layne
       阿瑟·达尔比尼扬 Arthur Darbinyan
       卡德罗莎·奥娜·卡罗尔
       斯坦·李 Stan Lee
       乔恩·费儒 Jon Favreau
       凯文·费奇 Kevin Feige
       路易斯·德·埃斯波西托 Louis D'Esposito
       维多利亚·阿隆索 Victoria Alonso
       亚伦·史维斯查 Alan Silvestri
       西穆斯·迈克加维 Seamus McGarvey
       Lisa Lassek Lisa Lassek
       詹姆斯·钦伦德 James Chinlund
       亚历山德拉·伯恩 Alexandra Byrne
       艾伦 A. 安彭 Allan A. Apone
       杰森·李·豪顿 Jason Lei Howden
       迈克尔·狄龙 Michael Dillon
       扎克·贾德森 Zack Judson
       拉斐尔·皮门特尔 Raphael A. Pimentel
       米格尔·A·萨莱克 Miguel A. Salek
       丹尼·冈萨雷斯 Danny Gonzalez
       保罗·阿克里 Paolo Acri
       理查德·布拉夫 Richard Bluff
       丹尼尔·萨迪克 Daniel Sudick
       斯科特·埃德斯坦 Scott Edelstein
       威尔·华莱士 Will Wallace
       魯伊德加多 Ruy Delgado
       杰克·莫里森 Jake Morrison
       尼杰尔·萨姆纳 Nigel Sumner
       杰森·史密斯 Jason Smith
       麦克·冈瑟 Mike Gunther
       约翰·K·D·格雷厄姆 John K.D. Graham
       布赖恩·希契 Bryan Hitch


◎简  介


  一股突如其来的强大邪恶势力对地球造成致命威胁,没有任何一个超级英雄能够单独抵挡。长期致力于保护全球安危的神盾局(SHIELD)感到措手不及,其指挥官“独眼侠”尼克·弗瑞(塞缪尔·杰克逊 Samuel L. Jackson 饰)意识到他必须创建一个“史上最强”的联盟组织, 云集各方超级英雄一起发威,才能拯救世界于水深火热,抵御黑暗势力的侵袭。于是由六大超级英雄——“钢铁侠”(小罗伯特·唐尼 Robert Downey Jr. 饰)、“雷神” (克里斯·海姆斯沃斯 Chris Hemsworth 饰)、“美国队长”(克里斯·埃文斯 Chris Evans 饰)、“绿巨人” (马克·鲁弗洛 Mark Ruffalo 饰)、“黑寡妇”(斯嘉丽·约翰逊 Scarlett Johansson 饰)和“鹰眼”(杰瑞米·雷纳 Jeremy Renner 饰)组成的 ...
Video
ID : 1
ID in the original source medium : 4113 (0x1011)
Format : HEVC
Format/Info : High Efficiency Video Coding
Format profile : Main 10@L5.1@High
HDR format : SMPTE ST 2086, HDR10 compatible
Codec ID : V_MPEGH/ISO/HEVC
Duration : 2 h 22 min
Bit rate : 43.0 Mb/s
Width : 3 840 pixels
Height : 2 160 pixels
Display aspect ratio : 16:9
Frame rate mode : Constant
Frame rate : 23.976 (24000/1001) FPS
Color space : YUV
Chroma subsampling : 4:2:0 (Type 2)
Bit depth : 10 bits
Bits/(Pixel*Frame) : 0.216
Stream size : 42.9 GiB (77%)
Language : English
Default : No
Forced : No
Color range : Limited
Color primaries : BT.2020
Transfer characteristics : PQ
Matrix coefficients : BT.2020 non-constant
Mastering display color primaries : Display P3
Mastering display luminance : min: 0.0001 cd/m2, max: 1000 cd/m2
Original source medium : Blu-ray

Audio #1
ID : 2
ID in the original source medium : 4352 (0x1100)
Format : MLP FBA 16-ch
Format/Info : Meridian Lossless Packing FBA with 16-channel presentation
Commercial name : Dolby TrueHD with Dolby Atmos
Codec ID : A_TRUEHD
Duration : 2 h 22 min
Bit rate mode : Variable
Bit rate : 4 971 kb/s
Maximum bit rate : 7 056 kb/s
Channel(s) : 8 channels
Channel layout : L R C LFE Ls Rs Lb Rb
Sampling rate : 48.0 kHz
Frame rate : 1 200.000 FPS (40 SPF)
Bit depth : 24 bits
Compression mode : Lossless
Stream size : 4.96 GiB (9%)
Title : TrueHD 7.1 Atmos
Language : English
Default : Yes
Forced : No
Original source medium : Blu-ray
Number of dynamic objects : 13
Bed channel count : 1 channel
Bed channel configuration : LFE

Audio #2
ID : 3
Format : DTS XLL
Format/Info : Digital Theater Systems
Commercial name : DTS-HD Master Audio
Codec ID : A_DTS
Duration : 2 h 22 min
Bit rate mode : Variable
Bit rate : 4 167 kb/s
Channel(s) : 8 channels
Channel layout : C L R LFE Lb Rb Lss Rss
Sampling rate : 48.0 kHz
Frame rate : 93.750 FPS (512 SPF)
Bit depth : 24 bits
Compression mode : Lossless
Stream size : 4.16 GiB (7%)
Title : DTS-HD MA 7.1
Language : English
Default : No
Forced : No

Audio #3
ID : 4
ID in the original source medium : 4352 (0x1100)
Format : AC-3
Format/Info : Audio Coding 3
Commercial name : Dolby Digital
Codec ID : A_AC3
Duration : 2 h 22 min
Bit rate mode : Constant
Bit rate : 640 kb/s
Channel(s) : 6 channels
Channel layout : L R C LFE Ls Rs
Sampling rate : 48.0 kHz
Frame rate : 31.250 FPS (1536 SPF)
Compression mode : Lossy
Stream size : 654 MiB (1%)
Title : DD 5.1
Language : English
Service kind : Complete Main
Default : No
Forced : No
Original source medium : Blu-ray

Audio #4
ID : 5
ID in the original source medium : 4353 (0x1101)
Format : AC-3
Format/Info : Audio Coding 3
Commercial name : Dolby Digital
Codec ID : A_AC3
Duration : 2 h 22 min
Bit rate mode : Constant
Bit rate : 320 kb/s
Channel(s) : 2 channels
Channel layout : L R
Sampling rate : 48.0 kHz
Frame rate : 31.250 FPS (1536 SPF)
Compression mode : Lossy
Stream size : 327 MiB (1%)
Title : DD 2.0
Language : English
Service kind : Complete Main
Default : No
Forced : No
Original source medium : Blu-ray

Audio #5
ID : 6
ID in the original source medium : 4354 (0x1102)
Format : AC-3
Format/Info : Audio Coding 3
Commercial name : Dolby Digital
Codec ID : A_AC3
Duration : 2 h 22 min
Bit rate mode : Constant
Bit rate : 640 kb/s
Channel(s) : 6 channels
Channel layout : L R C LFE Ls Rs
Sampling rate : 48.0 kHz
Frame rate : 31.250 FPS (1536 SPF)
Compression mode : Lossy
Stream size : 654 MiB (1%)
Title : DD 5.1
Language : French
Service kind : Complete Main
Default : No
Forced : No
Original source medium : Blu-ray

Audio #6
ID : 7
Format : E-AC-3
Format/Info : Enhanced AC-3
Commercial name : Dolby Digital Plus
Format profile : Blu-ray Disc
Codec ID : A_EAC3
Duration : 2 h 22 min
Bit rate mode : Constant
Bit rate : 1 024 kb/s
Channel(s) : 8 channels
Channel layout : L R C LFE Ls Rs Lb Rb
Sampling rate : 48.0 kHz
Frame rate : 31.250 FPS (1536 SPF)
Compression mode : Lossy
Stream size : 1.02 GiB (2%)
Title : DDP 7.1
Language : Spanish
Service kind : Complete Main
Default : No
Forced : No

Audio #7
ID : 8
Format : E-AC-3
Format/Info : Enhanced AC-3
Commercial name : Dolby Digital Plus
Format profile : Blu-ray Disc
Codec ID : A_EAC3
Duration : 2 h 22 min
Bit rate mode : Constant
Bit rate : 1 024 kb/s
Channel(s) : 8 channels
Channel layout : L R C LFE Ls Rs Lb Rb
Sampling rate : 48.0 kHz
Frame rate : 31.250 FPS (1536 SPF)
Compression mode : Lossy
Stream size : 1.02 GiB (2%)
Title : DDP 7.1
Language : Japanese
Service kind : Complete Main
Default : No
Forced : No

Text #1
ID : 9
Format : UTF-8
Codec ID : S_TEXT/UTF8
Codec ID/Info : UTF-8 Plain Text
Duration : 3 min 46 s
Bit rate : 24 b/s
Frame rate : 0.137 FPS
Count of elements : 31
Stream size : 700 Bytes (0%)
Title : FORCED
Language : English
Default : No
Forced : Yes

Text #2
ID : 10
Format : UTF-8
Codec ID : S_TEXT/UTF8
Codec ID/Info : UTF-8 Plain Text
Duration : 2 h 15 min
Bit rate : 53 b/s
Frame rate : 0.215 FPS
Count of elements : 1749
Stream size : 53.1 KiB (0%)
Language : English
Default : Yes
Forced : No

Text #3
ID : 11
Format : UTF-8
Codec ID : S_TEXT/UTF8
Codec ID/Info : UTF-8 Plain Text
Duration : 2 h 15 min
Bit rate : 57 b/s
Frame rate : 0.250 FPS
Count of elements : 2030
Stream size : 57.3 KiB (0%)
Title : SDH
Language : English
Default : No
Forced : No

Text #4
ID : 12
ID in the original source medium : 4768 (0x12A0)
Format : PGS
Muxing mode : zlib
Codec ID : S_HDMV/PGS
Codec ID/Info : Picture based subtitle format used on BDs/HD-DVDs
Duration : 2 h 15 min
Bit rate : 38.5 kb/s
Frame rate : 0.503 FPS
Count of elements : 4086
Stream size : 37.3 MiB (0%)
Language : English
Default : No
Forced : No
Original source medium : Blu-ray

Text #5
ID : 13
ID in the original source medium : 4769 (0x12A1)
Format : PGS
Muxing mode : zlib
Codec ID : S_HDMV/PGS
Codec ID/Info : Picture based subtitle format used on BDs/HD-DVDs
Duration : 2 h 15 min
Bit rate : 35.6 kb/s
Frame rate : 0.434 FPS
Count of elements : 3524
Stream size : 34.5 MiB (0%)
Language : French
Default : No
Forced : No
Original source medium : Blu-ray

Text #6
ID : 14
ID in the original source medium : 4770 (0x12A2)
Format : PGS
Muxing mode : zlib
Codec ID : S_HDMV/PGS
Codec ID/Info : Picture based subtitle format used on BDs/HD-DVDs
Duration : 2 h 15 min
Bit rate : 30.0 kb/s
Frame rate : 0.402 FPS
Count of elements : 3268
Stream size : 29.1 MiB (0%)
Language : Spanish
Default : No
Forced : No
Original source medium : Blu-ray

Text #7
ID : 15
ID in the original source medium : 4771 (0x12A3)
Format : PGS
Muxing mode : zlib
Codec ID : S_HDMV/PGS
Codec ID/Info : Picture based subtitle format used on BDs/HD-DVDs
Duration : 2 h 15 min
Bit rate : 24.9 kb/s
Frame rate : 0.386 FPS
Count of elements : 3136
Stream size : 24.1 MiB (0%)
Language : Japanese
Default : No
Forced : No
Original source medium : Blu-ray

Text #8
ID : 16
ID in the original source medium : 4772 (0x12A4)
Format : PGS
Muxing mode : zlib
Codec ID : S_HDMV/PGS
Codec ID/Info : Picture based subtitle format used on BDs/HD-DVDs
Duration : 2 h 15 min
Bit rate : 20.7 kb/s
Frame rate : 0.405 FPS
Count of elements : 3290
Stream size : 20.0 MiB (0%)
Language : 简体中文
Default : No
Forced : No
Original source medium : Blu-ray

Text #9
ID : 17
ID in the original source medium : 4773 (0x12A5)
Format : PGS
Muxing mode : zlib
Codec ID : S_HDMV/PGS
Codec ID/Info : Picture based subtitle format used on BDs/HD-DVDs
Duration : 2 h 15 min
Bit rate : 16.1 kb/s
Frame rate : 0.402 FPS
Count of elements : 3264
Stream size : 15.6 MiB (0%)
Language : Korean
Default : No
Forced : No
Original source medium : Blu-ray

Text #10
ID : 18
ID in the original source medium : 4774 (0x12A6)
Format : PGS
Muxing mode : zlib
Codec ID : S_HDMV/PGS
Codec ID/Info : Picture based subtitle format used on BDs/HD-DVDs
Duration : 2 h 15 min
Bit rate : 23.8 kb/s
Frame rate : 0.405 FPS
Count of elements : 3286
Stream size : 23.0 MiB (0%)
Language : 繁体中字
Default : No
Forced : No
Original source medium : Blu-ray

Text #11
ID : 19
ID in the original source medium : 4775 (0x12A7)
Format : PGS
Muxing mode : zlib
Codec ID : S_HDMV/PGS
Codec ID/Info : Picture based subtitle format used on BDs/HD-DVDs
Duration : 3 min 46 s
Bit rate : 16.7 kb/s
Frame rate : 0.274 FPS
Count of elements : 62
Stream size : 462 KiB (0%)
Title : FORCED
Language : English
Default : No
Forced : No
Original source medium : Blu-ray

Text #12
ID : 20
ID in the original source medium : 4776 (0x12A8)
Format : PGS
Muxing mode : zlib
Codec ID : S_HDMV/PGS
Codec ID/Info : Picture based subtitle format used on BDs/HD-DVDs
Duration : 1 h 54 min
Bit rate : 853 b/s
Frame rate : 0.012 FPS
Count of elements : 80
Stream size : 714 KiB (0%)
Title : FORCED
Language : French
Default : No
Forced : No
Original source medium : Blu-ray

Text #13
ID : 21
ID in the original source medium : 4777 (0x12A9)
Format : PGS
Muxing mode : zlib
Codec ID : S_HDMV/PGS
Codec ID/Info : Picture based subtitle format used on BDs/HD-DVDs
Duration : 2 h 4 min
Bit rate : 705 b/s
Frame rate : 0.010 FPS
Count of elements : 78
Stream size : 645 KiB (0%)
Title : FORCED
Language : Spanish
Default : No
Forced : No
Original source medium : Blu-ray

Text #14
ID : 22
ID in the original source medium : 4778 (0x12AA)
Format : PGS
Muxing mode : zlib
Codec ID : S_HDMV/PGS
Codec ID/Info : Picture based subtitle format used on BDs/HD-DVDs
Duration : 53 min 55 s
Bit rate : 1 309 b/s
Frame rate : 0.019 FPS
Count of elements : 62
Stream size : 517 KiB (0%)
Title : FORCED
Language : Japanese
Default : No
Forced : No
Original source medium : Blu-ray

Menu
00:00:00.000 : en:Chapter 01
00:08:02.899 : en:Chapter 02
00:11:50.000 : en:Chapter 03
00:15:19.585 : en:Chapter 04
00:20:34.316 : en:Chapter 05
00:23:05.092 : en:Chapter 06
00:29:40.278 : en:Chapter 07
00:37:24.659 : en:Chapter 08
00:42:48.816 : en:Chapter 09
00:50:23.103 : en:Chapter 10
01:01:05.244 : en:Chapter 11
01:14:05.941 : en:Chapter 12
01:28:02.068 : en:Chapter 13
01:38:21.228 : en:Chapter 14
01:45:40.876 : en:Chapter 15
01:51:15.877 : en:Chapter 16
01:57:48.311 : en:Chapter 17
02:04:39.513 : en:Chapter 18
02:09:40.063 : en:Chapter 19
02:13:11.525 : en:Chapter 20

新种推荐使用qBittorrent、uTorrent等下载软件,有条件的推荐115更好的下载软件!

复仇者联盟(55.80GB)The.Avengers.2012.PROPER.2160p.BluRay.REMUX.HEVC.DTS-HD.MA.TrueHD.7.1.Atmos-FGT-【2160P蓝光REMUX】
游客,如果您要查看本帖隐藏内容请回复









4KQQ海报.gif

上一篇:复仇者联盟2:奥创纪元 [简繁中字] (2015)4K蓝光REMUX版本
下一篇:复仇者联盟3:无限战争 [简繁中字](2018)4K蓝光REMUX版本
回复

使用道具 举报

0

主题

5

帖子

27

积分

新手上路

Rank: 1

积分
27
发表于 2022-12-13 14:39:24 | 显示全部楼层
fichanghao, 谢谢
回复 支持 反对

使用道具 举报

您需要登录后才可以回帖 登录 | 立即注册

本版积分规则

精彩图文
Archiver|手机版|TAG|Sitemap|新帖|专题|联系我们:邮箱: 4kjia.com@gmail.com   

4k家园   ©2019