[4K UHD 蓝光原盘] 复仇者联盟3:无限战争 [简繁中字](2018)4K蓝光REMUX版本

[复制链接]

主题

帖子

0

积分

超级版主

Rank: 8Rank: 8

积分
0
 楼主| 发表于 2022-12-13 14:26:03 | 显示全部楼层 |阅读模式
本帖最后由 没完没了 于 2022-12-13 14:51 编辑

QQ图片20221213145129_副本.png

◎译  名 复仇者联盟3:无限之战(港) / 复仇者联盟:无限之战(台) / 复仇者联盟3:无尽之战 / 复联3 / 妇联3(豆友译名) / 复仇者联盟3:灭霸传(豆友译名) / Avengers: Infinity War - Part I / The Avengers 3: Part 1
◎片  名 Avengers: Infinity War
◎年  代 2018
◎产  地 美国
◎类  别 动作 / 科幻 / 奇幻 / 冒险
◎语  言 英语
◎上映日期 2018-05-11(中国大陆) / 2018-04-23(加州首映) / 2018-04-27(美国)
◎IMDb评分 8.4/10 from 1075480 users 更新 : 2022-12-12
◎IMDb链接 https://www.imdb.com/title/tt4154756/
◎豆瓣评分 8.1/10 from 722175 users 更新 : 2022-12-12
◎豆瓣链接 https://movie.douban.com/subject/24773958/
◎片  长 149分钟
◎导  演 安东尼·罗素 Anthony Russo / 乔·罗素 Joe Russo
◎编  剧 杰克·科比 Jack Kirby / 克里斯托弗·马库斯 Christopher Markus / 斯蒂芬·麦克菲利 Stephen McFeely / 吉姆·斯特林 Jim Starlin / 史蒂夫·甘 Steve Gan
◎演  员 小罗伯特·唐尼 Robert Downey Jr.
       克里斯·海姆斯沃斯 Chris Hemsworth
       克里斯·埃文斯 Chris Evans
       马克·鲁弗洛 Mark Ruffalo
       乔什·布洛林 Josh Brolin
       佐伊·索尔达娜 Zoe Saldana
       本尼迪克特·康伯巴奇 Benedict Cumberbatch
       克里斯·帕拉特 Chris Pratt
       汤姆·赫兰德 Tom Holland
       伊丽莎白·奥尔森 Elizabeth Olsen
       保罗·贝坦尼 Paul Bettany
       斯嘉丽·约翰逊 Scarlett Johansson
       查德维克·博斯曼 Chadwick Boseman
       塞巴斯蒂安·斯坦 Sebastian Stan
       唐·钱德尔 Don Cheadle
       汤姆·希德勒斯顿 Tom Hiddleston
       安东尼·麦凯 Anthony Mackie
       本尼迪克特·王 Benedict Wong
       戴夫·巴蒂斯塔 Dave Bautista
       布莱德利·库珀 Bradley Cooper
       范·迪塞尔 Vin Diesel
       凯伦·吉兰 Karen Gillan
       利蒂希娅·赖特 Letitia Wright
       庞·克莱门捷夫 Pom Klementieff
       凯莉·库恩 Carrie Coon
       汤姆-沃恩-劳勒 Tom Vaughan-Lawlor
       海登·瓦尔希 Hynden Walch
       迈克尔·詹姆斯·肖 Michael James Shaw
       泰瑞·诺塔里 Terry Notary
       本尼西奥·德尔·托罗 Benicio del Toro
       彼特·丁拉基 Peter Dinklage
       罗斯·马昆德 Ross Marquand
       丹娜·奎里拉 Danai Gurira
       温斯顿·杜克 Winston Duke
       弗洛伦丝·卡松巴 Florence Kasumba
       塞缪尔·杰克逊 Samuel L. Jackson
       雅各布·巴特朗 Jacob Batalon
       斯坦·李 Stan Lee
       格温妮斯·帕特洛 Gwyneth Paltrow
       寇碧·史莫德斯 Cobie Smulders
       伊德里斯·艾尔巴 Idris Elba
       威廉·赫特 William Hurt
       凯瑞·康顿 Kerry Condon
       肖恩·古恩 Sean Gunn
       莫妮卡·甘德顿 Monique Ganderton
       罗伯特·普拉尔戈 Robert Pralgo
       蒂凡尼·埃斯佩森 Tiffany Espensen
       哈里森·奥斯特菲尔德 Harrison Osterfield
       阿丽亚娜·格林布拉特 Ariana Greenblatt
       阿隆·拉扎尔 Aaron Lazar
       伊莎贝拉·阿玛拉 Isabella Amara
       罗伯特·廷斯利 Robert Tinsley
       露西·卡罗尔 Lucie Carroll
       克里斯蒂娜·韦布林 Christina Webling
       张闻天 Wentian Zhang
       佩拉·米德尔顿 Perla Middleton
       马塔维乌斯·盖尔斯 Martavious Gayles
       斯坦·李 Stan Lee
       乔恩·费儒 Jon Favreau
       詹姆斯·古恩 James Gunn


◎简  介


  最先与灭霸军团遭遇的雷神索尔一行遭遇惨烈打击,洛基遇害,空间宝石落入灭霸之手。未几,灭霸的先锋部队杀至地球,一番缠斗后掳走奇异博士。为阻止时间宝石落入敌手,斯塔克和蜘蛛侠闯入了敌人的飞船。与此同时,拥有心灵宝石的幻视也遭到外星侵略者的袭击,为此美国队长、黑寡妇等人将其带到瓦坎达王国,向黑豹求助。幸免于难的索尔与星爵一行相逢,随后他们兵分两路。索尔与火箭、格鲁特踏上再铸雷神之锤的旅程,星爵则与卡魔拉等人试图阻止灭霸的恶行。而知晓灵魂宝石下落的卡魔拉,同样是其义父灭霸追踪的对象。
攸关整个宇宙命运的史诗战役全面展开,超级英雄们为了平凡而自由的生命奋不顾身……
Video
ID : 1
ID in the original source medium : 4113 (0x1011)
Format : HEVC
Format/Info : High Efficiency Video Coding
Format profile : Main 10@L5.1@High
HDR format : SMPTE ST 2086, HDR10 compatible
Codec ID : V_MPEGH/ISO/HEVC
Duration : 2 h 29 min
Bit rate : 45.9 Mb/s
Width : 3 840 pixels
Height : 2 160 pixels
Display aspect ratio : 16:9
Frame rate mode : Constant
Frame rate : 23.976 (24000/1001) FPS
Color space : YUV
Chroma subsampling : 4:2:0 (Type 2)
Bit depth : 10 bits
Bits/(Pixel*Frame) : 0.231
Stream size : 47.9 GiB (80%)
Writing library : ATEME Titan File 3.8.16 (4.8.16.0)
Language : English
Default : No
Forced : No
Color range : Limited
Color primaries : BT.2020
Transfer characteristics : PQ
Matrix coefficients : BT.2020 non-constant
Mastering display color primaries : Display P3
Mastering display luminance : min: 0.0001 cd/m2, max: 1000 cd/m2
Original source medium : Blu-ray

Audio #1
ID : 2
ID in the original source medium : 4352 (0x1100)
Format : MLP FBA 16-ch
Format/Info : Meridian Lossless Packing FBA with 16-channel presentation
Commercial name : Dolby TrueHD with Dolby Atmos
Codec ID : A_TRUEHD
Duration : 2 h 29 min
Bit rate mode : Variable
Bit rate : 4 534 kb/s
Maximum bit rate : 6 930 kb/s
Channel(s) : 8 channels
Channel layout : L R C LFE Ls Rs Lb Rb
Sampling rate : 48.0 kHz
Frame rate : 1 200.000 FPS (40 SPF)
Bit depth : 24 bits
Compression mode : Lossless
Stream size : 4.73 GiB (8%)
Title : TrueHD 7.1 Atmos
Language : English
Default : Yes
Forced : No
Original source medium : Blu-ray
Number of dynamic objects : 13
Bed channel count : 1 channel
Bed channel configuration : LFE

Audio #2
ID : 3
Format : DTS XLL
Format/Info : Digital Theater Systems
Commercial name : DTS-HD Master Audio
Codec ID : A_DTS
Duration : 2 h 29 min
Bit rate mode : Variable
Bit rate : 3 293 kb/s
Channel(s) : 8 channels
Channel layout : C L R LFE Lb Rb Lss Rss
Sampling rate : 48.0 kHz
Frame rate : 93.750 FPS (512 SPF)
Bit depth : 24 bits
Compression mode : Lossless
Stream size : 3.44 GiB (6%)
Title : DTS-HD MA 7.1
Language : English
Default : No
Forced : No

Audio #3
ID : 4
ID in the original source medium : 4352 (0x1100)
Format : AC-3
Format/Info : Audio Coding 3
Commercial name : Dolby Digital
Codec ID : A_AC3
Duration : 2 h 29 min
Bit rate mode : Constant
Bit rate : 640 kb/s
Channel(s) : 6 channels
Channel layout : L R C LFE Ls Rs
Sampling rate : 48.0 kHz
Frame rate : 31.250 FPS (1536 SPF)
Compression mode : Lossy
Stream size : 684 MiB (1%)
Title : DD 5.1
Language : English
Service kind : Complete Main
Default : No
Forced : No
Original source medium : Blu-ray

Audio #4
ID : 5
ID in the original source medium : 4353 (0x1101)
Format : AC-3
Format/Info : Audio Coding 3
Commercial name : Dolby Digital
Codec ID : A_AC3
Duration : 2 h 29 min
Bit rate mode : Constant
Bit rate : 320 kb/s
Channel(s) : 2 channels
Channel layout : L R
Sampling rate : 48.0 kHz
Frame rate : 31.250 FPS (1536 SPF)
Compression mode : Lossy
Stream size : 342 MiB (1%)
Title : DD 2.0
Language : English
Service kind : Complete Main
Default : No
Forced : No
Original source medium : Blu-ray

Audio #5
ID : 6
ID in the original source medium : 4354 (0x1102)
Format : AC-3
Format/Info : Audio Coding 3
Commercial name : Dolby Digital
Codec ID : A_AC3
Duration : 2 h 29 min
Bit rate mode : Constant
Bit rate : 640 kb/s
Channel(s) : 6 channels
Channel layout : L R C LFE Ls Rs
Sampling rate : 48.0 kHz
Frame rate : 31.250 FPS (1536 SPF)
Compression mode : Lossy
Stream size : 684 MiB (1%)
Title : DD 5.1
Language : French
Service kind : Complete Main
Default : No
Forced : No
Original source medium : Blu-ray

Audio #6
ID : 7
Format : E-AC-3
Format/Info : Enhanced AC-3
Commercial name : Dolby Digital Plus
Format profile : Blu-ray Disc
Codec ID : A_EAC3
Duration : 2 h 29 min
Bit rate mode : Constant
Bit rate : 1 024 kb/s
Channel(s) : 8 channels
Channel layout : L R C LFE Ls Rs Lb Rb
Sampling rate : 48.0 kHz
Frame rate : 31.250 FPS (1536 SPF)
Compression mode : Lossy
Stream size : 1.07 GiB (2%)
Title : DDP 7.1
Language : Spanish
Service kind : Complete Main
Default : No
Forced : No

Audio #7
ID : 8
Format : E-AC-3
Format/Info : Enhanced AC-3
Commercial name : Dolby Digital Plus
Format profile : Blu-ray Disc
Codec ID : A_EAC3
Duration : 2 h 29 min
Bit rate mode : Constant
Bit rate : 1 024 kb/s
Channel(s) : 8 channels
Channel layout : L R C LFE Ls Rs Lb Rb
Sampling rate : 48.0 kHz
Frame rate : 31.250 FPS (1536 SPF)
Compression mode : Lossy
Stream size : 1.07 GiB (2%)
Title : DDP 7.1
Language : Japanese
Service kind : Complete Main
Default : No
Forced : No

Text #1
ID : 9
Format : UTF-8
Codec ID : S_TEXT/UTF8
Codec ID/Info : UTF-8 Plain Text
Duration : 1 s 126 ms
Bit rate : 134 b/s
Frame rate : 0.888 FPS
Count of elements : 1
Stream size : 19.0 Bytes (0%)
Title : FORCED
Language : English
Default : No
Forced : Yes

Text #2
ID : 10
Format : UTF-8
Codec ID : S_TEXT/UTF8
Codec ID/Info : UTF-8 Plain Text
Duration : 2 h 28 min
Bit rate : 43 b/s
Frame rate : 0.191 FPS
Count of elements : 1700
Stream size : 47.2 KiB (0%)
Language : English
Default : Yes
Forced : No

Text #3
ID : 11
Format : UTF-8
Codec ID : S_TEXT/UTF8
Codec ID/Info : UTF-8 Plain Text
Duration : 2 h 28 min
Bit rate : 48 b/s
Frame rate : 0.229 FPS
Count of elements : 2042
Stream size : 53.0 KiB (0%)
Title : SDH
Language : English
Default : No
Forced : No

Text #4
ID : 12
ID in the original source medium : 4768 (0x12A0)
Format : PGS
Muxing mode : zlib
Codec ID : S_HDMV/PGS
Codec ID/Info : Picture based subtitle format used on BDs/HD-DVDs
Duration : 2 h 28 min
Bit rate : 32.7 kb/s
Frame rate : 0.464 FPS
Count of elements : 4134
Stream size : 34.7 MiB (0%)
Language : English
Default : No
Forced : No
Original source medium : Blu-ray

Text #5
ID : 13
ID in the original source medium : 4769 (0x12A1)
Format : PGS
Muxing mode : zlib
Codec ID : S_HDMV/PGS
Codec ID/Info : Picture based subtitle format used on BDs/HD-DVDs
Duration : 2 h 28 min
Bit rate : 24.8 kb/s
Frame rate : 0.358 FPS
Count of elements : 3194
Stream size : 26.4 MiB (0%)
Language : French
Default : No
Forced : No
Original source medium : Blu-ray

Text #6
ID : 14
ID in the original source medium : 4770 (0x12A2)
Format : PGS
Muxing mode : zlib
Codec ID : S_HDMV/PGS
Codec ID/Info : Picture based subtitle format used on BDs/HD-DVDs
Duration : 2 h 28 min
Bit rate : 24.3 kb/s
Frame rate : 0.352 FPS
Count of elements : 3144
Stream size : 25.9 MiB (0%)
Language : Spanish
Default : No
Forced : No
Original source medium : Blu-ray

Text #7
ID : 15
ID in the original source medium : 4771 (0x12A3)
Format : PGS
Muxing mode : zlib
Codec ID : S_HDMV/PGS
Codec ID/Info : Picture based subtitle format used on BDs/HD-DVDs
Duration : 2 h 28 min
Bit rate : 15.6 kb/s
Frame rate : 0.353 FPS
Count of elements : 3152
Stream size : 16.6 MiB (0%)
Language : 简体中字
Default : No
Forced : No
Original source medium : Blu-ray

Text #8
ID : 16
ID in the original source medium : 4772 (0x12A4)
Format : PGS
Muxing mode : zlib
Codec ID : S_HDMV/PGS
Codec ID/Info : Picture based subtitle format used on BDs/HD-DVDs
Duration : 2 h 28 min
Bit rate : 20.1 kb/s
Frame rate : 0.340 FPS
Count of elements : 3040
Stream size : 21.4 MiB (0%)
Language : Japanese
Default : No
Forced : No
Original source medium : Blu-ray

Text #9
ID : 17
ID in the original source medium : 4773 (0x12A5)
Format : PGS
Muxing mode : zlib
Codec ID : S_HDMV/PGS
Codec ID/Info : Picture based subtitle format used on BDs/HD-DVDs
Duration : 2 h 28 min
Bit rate : 12.8 kb/s
Frame rate : 0.353 FPS
Count of elements : 3150
Stream size : 13.6 MiB (0%)
Language : Korean
Default : No
Forced : No
Original source medium : Blu-ray

Text #10
ID : 18
ID in the original source medium : 4774 (0x12A6)
Format : PGS
Muxing mode : zlib
Codec ID : S_HDMV/PGS
Codec ID/Info : Picture based subtitle format used on BDs/HD-DVDs
Duration : 2 h 28 min
Bit rate : 15.8 kb/s
Frame rate : 0.353 FPS
Count of elements : 3154
Stream size : 16.8 MiB (0%)
Language : Thai
Default : No
Forced : No
Original source medium : Blu-ray

Text #11
ID : 19
ID in the original source medium : 4775 (0x12A7)
Format : PGS
Muxing mode : zlib
Codec ID : S_HDMV/PGS
Codec ID/Info : Picture based subtitle format used on BDs/HD-DVDs
Duration : 2 h 28 min
Bit rate : 18.4 kb/s
Frame rate : 0.353 FPS
Count of elements : 3150
Stream size : 19.6 MiB (0%)
Language : 繁体中字
Default : No
Forced : No
Original source medium : Blu-ray

Text #12
ID : 20
ID in the original source medium : 4776 (0x12A8)
Format : PGS
Muxing mode : zlib
Codec ID : S_HDMV/PGS
Codec ID/Info : Picture based subtitle format used on BDs/HD-DVDs
Duration : 1 s 147 ms
Bit rate : 86.2 kb/s
Frame rate : 1.744 FPS
Count of elements : 2
Stream size : 12.1 KiB (0%)
Title : FORCED
Language : English
Default : No
Forced : No
Original source medium : Blu-ray

Text #13
ID : 21
ID in the original source medium : 4777 (0x12A9)
Format : PGS
Muxing mode : zlib
Codec ID : S_HDMV/PGS
Codec ID/Info : Picture based subtitle format used on BDs/HD-DVDs
Duration : 2 h 17 min
Bit rate : 431 b/s
Frame rate : 0.008 FPS
Count of elements : 70
Stream size : 436 KiB (0%)
Title : FORCED
Language : French
Default : No
Forced : No
Original source medium : Blu-ray

Text #14
ID : 22
ID in the original source medium : 4778 (0x12AA)
Format : PGS
Muxing mode : zlib
Codec ID : S_HDMV/PGS
Codec ID/Info : Picture based subtitle format used on BDs/HD-DVDs
Duration : 2 h 1 min
Bit rate : 136 b/s
Frame rate : 0.002 FPS
Count of elements : 16
Stream size : 122 KiB (0%)
Title : FORCED
Language : Spanish
Default : No
Forced : No
Original source medium : Blu-ray

Text #15
ID : 23
ID in the original source medium : 4779 (0x12AB)
Format : PGS
Muxing mode : zlib
Codec ID : S_HDMV/PGS
Codec ID/Info : Picture based subtitle format used on BDs/HD-DVDs
Duration : 2 h 12 min
Bit rate : 152 b/s
Frame rate : 0.004 FPS
Count of elements : 28
Stream size : 148 KiB (0%)
Title : FORCED
Language : Japanese
Default : No
Forced : No
Original source medium : Blu-ray

Menu
00:00:00.000 : en:Chapter 01
00:11:28.729 : en:Chapter 02
00:18:13.884 : en:Chapter 03
00:27:23.808 : en:Chapter 04
00:35:48.771 : en:Chapter 05
00:42:23.541 : en:Chapter 06
00:54:12.666 : en:Chapter 07
00:59:36.614 : en:Chapter 08
01:05:06.861 : en:Chapter 09
01:10:53.666 : en:Chapter 10
01:17:06.955 : en:Chapter 11
01:24:14.758 : en:Chapter 12
01:31:07.628 : en:Chapter 13
01:42:00.405 : en:Chapter 14
01:45:57.601 : en:Chapter 15
01:53:03.902 : en:Chapter 16
01:58:52.917 : en:Chapter 17
02:03:57.972 : en:Chapter 18
02:11:13.282 : en:Chapter 19
02:17:31.117 : en:Chapter 20

新种推荐使用qBittorrent、uTorrent等下载软件,有条件的推荐115更好的下载软件!

复仇者联盟3:无限战争(60.02)Avengers.Infinity.War.2018.PROPER.2160p.BluRay.REMUX.HEVC.DTS-HD.MA.TrueHD.7.1.Atmos-FGT-【2160P蓝光REMUX】
游客,如果您要查看本帖隐藏内容请回复









4KQQ海报.gif

上一篇:复仇者联盟 [简繁中字] (2012)4K蓝光REMUX版本
下一篇:复仇者联盟4:终局之战 [简繁中字] (2019) 4K蓝光REMUX版本
回复

使用道具 举报

0

主题

2

帖子

9

积分

新手上路

Rank: 1

积分
9
发表于 2022-12-14 18:44:19 | 显示全部楼层
感谢楼主分享!
回复 支持 反对

使用道具 举报

0

主题

1

帖子

6

积分

新手上路

Rank: 1

积分
6
发表于 2023-1-13 14:16:34 | 显示全部楼层
大家都就卡上了打打死
回复 支持 反对

使用道具 举报

0

主题

2

帖子

9

积分

新手上路

Rank: 1

积分
9
发表于 2023-1-15 22:44:16 来自手机 | 显示全部楼层
感谢
回复

使用道具 举报

0

主题

2

帖子

9

积分

新手上路

Rank: 1

积分
9
发表于 2023-1-15 22:45:15 来自手机 | 显示全部楼层
谢谢
回复

使用道具 举报

0

主题

3

帖子

15

积分

新手上路

Rank: 1

积分
15
发表于 2023-1-19 17:17:37 来自手机 | 显示全部楼层
感谢分享
回复

使用道具 举报

您需要登录后才可以回帖 登录 | 立即注册

本版积分规则

精彩图文
Archiver|手机版|TAG|Sitemap|新帖|专题|联系我们:邮箱: 4kjia.com@gmail.com   

4k家园   ©2019