[4K电影] 造梦之家 / The Fabelmans (2022) 4K高清版下载

  [复制链接]

主题

帖子

0

积分

超级版主

Rank: 8Rank: 8

积分
0
 楼主| 发表于 2022-12-13 20:59:32 | 显示全部楼层 |阅读模式
本帖最后由 最爱4K哟 于 2022-12-14 12:53 编辑

QQ图片20221213204423_副本.png

◎译  名 造梦之家
◎片  名 The Fabelmans
◎年  代 2022
◎产  地 美国
◎类  别 剧情
◎语  言 英语
◎上映日期 2022-09-10(多伦多电影节) / 2022-11-23(美国)
◎IMDb评分 8.2/10 from 6922 users 更新 : 2022-12-13
◎IMDb链接 https://www.imdb.com/title/tt14208870/
◎豆瓣评分 8.3/10 from 574 users 更新 : 2022-12-13
◎豆瓣链接 hhttps://movie.douban.com/subject/35390098/
◎片  长 151分钟
◎导  演 史蒂文·斯皮尔伯格 Steven Spielberg
◎编  剧 史蒂文·斯皮尔伯格 Steven Spielberg / 托尼·库什纳 Tony Kushner
◎演  员 米歇尔·威廉姆斯 Michelle Williams
                   保罗·达诺 Paul Dano
                   塞斯·罗根 Seth Rogen
                   加布·拉贝尔 Gabriel LaBelle
                   马特奥·佐里昂·弗朗西斯·德福特 Mateo Zoryon Francis-DeFord
                   姬莉·卡斯滕 Keeley Karsten
                   阿丽娜·布雷斯 Alina Brace
                   茱莉亚·巴特斯 Julia Butters
                   伯迪·博里亚 Birdie Borria
                   贾德·赫希 Judd Hirsch
                   珍妮·柏林 Jeannie Berlin
                   罗宾·巴特利特 Robin Bartlett
                   萨姆·雷希纳 Sam Rechner
                   奥克斯·费格雷 Oakes Fegley
                   克洛伊·伊斯特 Chloe East
                   伊莎贝尔·库斯曼 Isabelle Kusman
                   钱德勒·洛韦勒 Chandler Lovelle
                   古斯塔夫·奇洛兹 Gustavo Quiroz
                   尼古拉斯·坎图 Nicolas Cantu
                   库珀·达德森 Cooper Dodson
                   加布里埃尔·贝特曼 Gabriel Bateman
                   斯蒂芬·马修·史密斯 Stephen Matthew Smith
                   詹姆斯·乌尔班尼亚克 James Urbaniak
                   阿莱克斯·奎加诺 Alex Quijano
                   卡拉马·爱泼斯坦 Kalama Epstein


◎简  介


       故事松散地基于斯皮尔伯格的人生经历,主要聚焦男主角的成长时期,以及他和父母的关系,其名字不叫史蒂文,但和其一样住在亚利桑那州凤凰城。斯皮尔伯格50年代末到60年代初住在凤凰城,他在面对反犹太主义的同时,也在用父亲的8毫米摄像机拍摄家庭电影和冒险电影。高中时期斯皮尔伯格一家搬到了加州,后来父母离婚,他和父亲一起居住,与父亲的紧张关系也成为他打造《E.T. 外星人》《铁钩船长》《侏罗纪公园》《林肯》《猫鼠游戏》等电影的灵感。
Video
ID : 1
Format : HEVC
Format/Info : High Efficiency Video Coding
Format profile : Main 10@L5@High
Codec ID : V_MPEGH/ISO/HEVC
Duration : 2 h 30 min
Bit rate : 20.7 Mb/s
Width : 3 840 pixels
Height : 2 066 pixels
Display aspect ratio : 1.85:1
Frame rate mode : Constant
Frame rate : 23.976 FPS
Color space : YUV
Chroma subsampling : 4:2:0
Bit depth : 10 bits
Bits/(Pixel*Frame) : 0.109
Stream size : 21.8 GiB (97%)
Default : No
Forced : No
Color range : Limited
Color primaries : BT.709
Transfer characteristics : BT.709
Matrix coefficients : BT.709

Audio
ID : 2
Format : E-AC-3
Format/Info : Enhanced AC-3
Commercial name : Dolby Digital Plus
Format settings : Dolby Surround EX
Codec ID : A_EAC3
Duration : 2 h 30 min
Bit rate mode : Constant
Bit rate : 640 kb/s
Channel(s) : 8 channels
Channel layout : L R C LFE Ls Rs Lb Rb
Sampling rate : 48.0 kHz
Frame rate : 31.250 FPS (1536 SPF)
Compression mode : Lossy
Stream size : 690 MiB (3%)
Language : English
Service kind : Complete Main
Default : Yes
Forced : No

Text #1
ID : 3
Format : UTF-8
Codec ID : S_TEXT/UTF8
Codec ID/Info : UTF-8 Plain Text
Duration : 2 h 22 min
Bit rate : 56 b/s
Frame rate : 0.233 FPS
Count of elements : 1992
Stream size : 59.0 KiB (0%)
Language : English
Default : No
Forced : No

Text #2
ID : 4
Format : UTF-8
Codec ID : S_TEXT/UTF8
Codec ID/Info : UTF-8 Plain Text
Duration : 2 h 30 min
Bit rate : 69 b/s
Frame rate : 0.286 FPS
Count of elements : 2583
Stream size : 77.0 KiB (0%)
Title : SDH
Language : English
Default : No
Forced : No

Text #3
ID : 5
Format : UTF-8
Codec ID : S_TEXT/UTF8
Codec ID/Info : UTF-8 Plain Text
Duration : 2 h 29 min
Bit rate : 48 b/s
Frame rate : 0.200 FPS
Count of elements : 1804
Stream size : 53.7 KiB (0%)
Title : Latin American
Language : Spanish
Default : No
Forced : No

Text #4
ID : 6
Format : UTF-8
Codec ID : S_TEXT/UTF8
Codec ID/Info : UTF-8 Plain Text
Duration : 2 h 29 min
Bit rate : 50 b/s
Frame rate : 0.193 FPS
Count of elements : 1741
Stream size : 55.4 KiB (0%)
Title : Canadian
Language : French
Default : No
Forced : No

Menu
00:00:00.000 : en:Chapter 1
00:09:02.000 : en:Chapter 2
00:18:45.000 : en:Chapter 3
00:29:14.000 : en:Chapter 4
00:40:15.000 : en:Chapter 5
00:46:53.000 : en:Chapter 6
00:55:09.000 : en:Chapter 7
01:06:57.000 : en:Chapter 8
01:15:58.000 : en:Chapter 9
01:26:50.000 : en:Chapter 10
01:35:03.000 : en:Chapter 11
01:45:57.000 : en:Chapter 12
01:54:00.000 : en:Chapter 13
02:02:19.000 : en:Chapter 14
02:13:27.000 : en:Chapter 15
02:23:05.000 : en:Chapter 16

推荐使用qBittorrent、uTorrent、BitComet等下载软件,有条件的推荐115或会员软件下载!

下载地址

游客,如果您要查看本帖隐藏内容请回复

游客,如果您要查看本帖隐藏内容请回复

游客,如果您要查看本帖隐藏内容请回复

游客,如果您要查看本帖隐藏内容请回复






上一篇:伊尼舍林的报丧女妖 (2022) 4K高清版下载
下一篇:完美绝配 [简繁中字] / A Perfect Pairing (2022) 4K高清版下载
回复

使用道具 举报

主题

帖子

0

积分

4K家园VIP

Rank: 9Rank: 9Rank: 9

积分
0
发表于 2022-12-14 11:09:54 | 显示全部楼层
太好啦&萬分感謝版主的無私發佈分享%
回复 支持 反对

使用道具 举报

主题

帖子

0

积分

新手上路

Rank: 1

积分
0
发表于 2022-12-15 08:42:06 | 显示全部楼层

感谢楼主分享
回复 支持 反对

使用道具 举报

0

主题

1

帖子

6

积分

新手上路

Rank: 1

积分
6
发表于 2023-1-4 11:00:04 | 显示全部楼层
谢谢~~~~~~~~~~~~~~~
回复

使用道具 举报

您需要登录后才可以回帖 登录 | 立即注册

本版积分规则

精彩图文
Archiver|手机版|TAG|Sitemap|新帖|专题|联系我们:邮箱: 4kjia.com@gmail.com   

4k家园   ©2019