[4K UHD 蓝光原盘] 蜘蛛侠3 [简繁中字] / Spider-Man 3 (2007) 4K蓝光REMUX版本

[复制链接]

主题

帖子

0

积分

超级版主

Rank: 8Rank: 8

积分
0
 楼主| 发表于 2022-12-17 21:56:02 | 显示全部楼层 |阅读模式
蜘蛛侠3.png

◎译  名 蜘蛛侠3/蜘蛛人3
◎片  名 Spider-Man 3
◎年  代 2007
◎产  地 美国
◎类  别 动作/科幻/冒险
◎语  言 英语
◎上映日期 2007-05-01(中国大陆)/2007-05-04(美国)
◎IMDb评分  6.3/10 from 591983 users 更新 : 2022-12-15
◎IMDb链接  https://www.imdb.com/title/tt0413300/
◎豆瓣评分 7.6/10 from 243363 users 更新 : 2022-12-17
◎豆瓣链接 https://douban.com/subject/1418189/
◎片  长 139分钟
◎导  演 Sam Raimi
◎编  剧 山姆·雷米 Sam Raimi / 伊万·莱米 Ivan Raimi / 阿尔文·萨金特 Alvin Sargent / 斯坦·李 Stan Lee / 史蒂夫·迪特寇 Steve Ditko
◎主  演 托比·马奎尔 Tobey Maguire
      克斯汀·邓斯特 Kirsten Dunst
      詹姆斯·弗兰科 James Franco
      托马斯·哈登·丘奇 Thomas Haden Church
      托弗·戈瑞斯 Topher Grace
      布莱丝·达拉斯·霍华德 Bryce Dallas Howard
      罗斯玛丽·哈里斯 Rosemary Harris
      J·K·西蒙斯 J.K. Simmons
      詹姆斯·克伦威尔 James Cromwell
      泰莉莎·拉塞尔 Theresa Russell
      迪伦·贝克 Dylan Baker
      比尔·努恩 Bill Nunn
      布鲁斯·坎贝尔 Bruce Campbell
      伊丽莎白·班克斯 Elizabeth Banks
      泰德·雷米 Ted Raimi



◎简  介

  蜘蛛侠(托比•马奎尔 Tobey Maguire 饰)在经历了重重考验之后,成为了人人敬仰的正义英雄,抱得美人归。但是,光环下蜘蛛侠,也有自己的心病:他在第一集时放走了小偷导致最亲爱的叔叔被小偷杀死,帕克一直耿耿于怀。
  生活顺意的帕克开始变得目中无人,当他再次抓到那个小偷时,残忍地看着他从楼上摔下致死,过后才发现自己惩罚错了人,真凶是“沙人”。当帕克将“沙人”残忍杀死后,帕克心内的阴暗面渐渐在帕克的身体内占据了上风,蜘蛛侠最终演变成邪恶的“毒蜘蛛”!糟糕的是,帕克没有察觉到自身的变化,帕克最终如何摆脱自身的邪恶?

◎获奖情况

  第61届英国电影学院奖 (2008)
  电影奖最佳特殊视觉效果(提名) SpencerCook / JohnFrazier / 斯科特·斯多克迪克 / PeterNofz

  第35届动画安妮奖 (2008)
  最佳动画效果(提名) RyanLaney

  第17届MTV电影奖 (2008)
  MTV电影奖最佳打斗(提名) 詹姆斯·弗兰科 / 托比·马奎尔
  MTV电影奖最佳反派(提名) 托弗·戈瑞斯

Video
ID : 1
ID in the original source medium : 4113 (0x1011)
Format : HEVC
Format/Info : High Efficiency Video Coding
Format profile : Main 10@L5.1@High
HDR format : SMPTE ST 2086, HDR10 compatible
Codec ID : V_MPEGH/ISO/HEVC
Duration : 2 h 19 min
Bit rate : 54.5 Mb/s
Width : 3 840 pixels
Height : 2 160 pixels
Display aspect ratio : 16:9
Frame rate mode : Constant
Frame rate : 23.976 (24000/1001) FPS
Color space : YUV
Chroma subsampling : 4:2:0 (Type 2)
Bit depth : 10 bits
Bits/(Pixel*Frame) : 0.274
Stream size : 53.0 GiB (78%)
Language : English
Default : No
Forced : No
Color range : Limited
Color primaries : BT.2020
Transfer characteristics : PQ
Matrix coefficients : BT.2020 non-constant
Mastering display color primaries : Display P3
Mastering display luminance : min: 0.0050 cd/m2, max: 4000 cd/m2
Maximum Content Light Level : 10000 cd/m2
Maximum Frame-Average Light Level : 1690 cd/m2
Original source medium : Blu-ray

Audio #1
ID : 2
ID in the original source medium : 4352 (0x1100)
Format : MLP FBA 16-ch
Format/Info : Meridian Lossless Packing FBA with 16-channel presentation
Commercial name : Dolby TrueHD with Dolby Atmos
Codec ID : A_TRUEHD
Duration : 2 h 19 min
Bit rate mode : Variable
Bit rate : 4 852 kb/s
Maximum bit rate : 3 018 kb/s
Channel(s) : 8 channels
Channel layout : L R C LFE Ls Rs Lb Rb
Sampling rate : 48.0 kHz
Frame rate : 1 200.000 FPS (40 SPF)
Bit depth : 24 bits
Compression mode : Lossless
Stream size : 4.72 GiB (7%)
Title : TrueHD 7.1 Atmos
Language : English
Default : Yes
Forced : No
Original source medium : Blu-ray
Number of dynamic objects : 11
Bed channel count : 1 channel
Bed channel configuration : LFE

Audio #2
ID : 3
Format : DTS XLL
Format/Info : Digital Theater Systems
Commercial name : DTS-HD Master Audio
Codec ID : A_DTS
Duration : 2 h 19 min
Bit rate mode : Variable
Bit rate : 4 057 kb/s
Channel(s) : 8 channels
Channel layout : C L R LFE Lb Rb Lss Rss
Sampling rate : 48.0 kHz
Frame rate : 93.750 FPS (512 SPF)
Bit depth : 24 bits
Compression mode : Lossless
Stream size : 3.94 GiB (6%)
Title : DTS-HD MA 7.1
Language : English
Default : No
Forced : No

Audio #3
ID : 4
ID in the original source medium : 4352 (0x1100)
Format : AC-3
Format/Info : Audio Coding 3
Commercial name : Dolby Digital
Codec ID : A_AC3
Duration : 2 h 19 min
Bit rate mode : Constant
Bit rate : 640 kb/s
Channel(s) : 6 channels
Channel layout : L R C LFE Ls Rs
Sampling rate : 48.0 kHz
Frame rate : 31.250 FPS (1536 SPF)
Compression mode : Lossy
Stream size : 637 MiB (1%)
Title : DD 5.1
Language : English
Service kind : Complete Main
Default : No
Forced : No
Original source medium : Blu-ray

Audio #4
ID : 5
ID in the original source medium : 4355 (0x1103)
Format : AC-3
Format/Info : Audio Coding 3
Commercial name : Dolby Digital
Codec ID : A_AC3
Duration : 2 h 19 min
Bit rate mode : Constant
Bit rate : 640 kb/s
Channel(s) : 6 channels
Channel layout : L R C LFE Ls Rs
Sampling rate : 48.0 kHz
Frame rate : 31.250 FPS (1536 SPF)
Compression mode : Lossy
Stream size : 637 MiB (1%)
Title : DD 5.1
Language : Czech
Service kind : Complete Main
Default : No
Forced : No
Original source medium : Blu-ray

Audio #5
ID : 6
ID in the original source medium : 4356 (0x1104)
Format : AC-3
Format/Info : Audio Coding 3
Commercial name : Dolby Digital
Codec ID : A_AC3
Duration : 2 h 19 min
Bit rate mode : Constant
Bit rate : 640 kb/s
Channel(s) : 6 channels
Channel layout : L R C LFE Ls Rs
Sampling rate : 48.0 kHz
Frame rate : 31.250 FPS (1536 SPF)
Compression mode : Lossy
Stream size : 637 MiB (1%)
Title : DD 5.1
Language : French
Service kind : Complete Main
Default : No
Forced : No
Original source medium : Blu-ray

Audio #6
ID : 7
ID in the original source medium : 4357 (0x1105)
Format : AC-3
Format/Info : Audio Coding 3
Commercial name : Dolby Digital
Codec ID : A_AC3
Duration : 2 h 19 min
Bit rate mode : Constant
Bit rate : 640 kb/s
Channel(s) : 6 channels
Channel layout : L R C LFE Ls Rs
Sampling rate : 48.0 kHz
Frame rate : 31.250 FPS (1536 SPF)
Compression mode : Lossy
Stream size : 637 MiB (1%)
Title : DD 5.1
Language : German
Service kind : Complete Main
Default : No
Forced : No
Original source medium : Blu-ray

Audio #7
ID : 8
ID in the original source medium : 4358 (0x1106)
Format : AC-3
Format/Info : Audio Coding 3
Commercial name : Dolby Digital
Codec ID : A_AC3
Duration : 2 h 19 min
Bit rate mode : Constant
Bit rate : 640 kb/s
Channel(s) : 6 channels
Channel layout : L R C LFE Ls Rs
Sampling rate : 48.0 kHz
Frame rate : 31.250 FPS (1536 SPF)
Compression mode : Lossy
Stream size : 637 MiB (1%)
Title : DD 5.1
Language : Italian
Service kind : Complete Main
Default : No
Forced : No
Original source medium : Blu-ray

Audio #8
ID : 9
ID in the original source medium : 4359 (0x1107)
Format : AC-3
Format/Info : Audio Coding 3
Commercial name : Dolby Digital
Codec ID : A_AC3
Duration : 2 h 19 min
Bit rate mode : Constant
Bit rate : 640 kb/s
Channel(s) : 6 channels
Channel layout : L R C LFE Ls Rs
Sampling rate : 48.0 kHz
Frame rate : 31.250 FPS (1536 SPF)
Compression mode : Lossy
Stream size : 637 MiB (1%)
Title : DD 5.1
Language : Japanese
Service kind : Complete Main
Default : No
Forced : No
Original source medium : Blu-ray

Audio #9
ID : 10
ID in the original source medium : 4360 (0x1108)
Format : AC-3
Format/Info : Audio Coding 3
Commercial name : Dolby Digital
Codec ID : A_AC3
Duration : 2 h 19 min
Bit rate mode : Constant
Bit rate : 640 kb/s
Channel(s) : 6 channels
Channel layout : L R C LFE Ls Rs
Sampling rate : 48.0 kHz
Frame rate : 31.250 FPS (1536 SPF)
Compression mode : Lossy
Stream size : 637 MiB (1%)
Title : DD 5.1
Language : Portuguese
Service kind : Complete Main
Default : No
Forced : No
Original source medium : Blu-ray

Audio #10
ID : 11
ID in the original source medium : 4361 (0x1109)
Format : AC-3
Format/Info : Audio Coding 3
Commercial name : Dolby Digital
Codec ID : A_AC3
Duration : 2 h 19 min
Bit rate mode : Constant
Bit rate : 640 kb/s
Channel(s) : 6 channels
Channel layout : L R C LFE Ls Rs
Sampling rate : 48.0 kHz
Frame rate : 31.250 FPS (1536 SPF)
Compression mode : Lossy
Stream size : 637 MiB (1%)
Title : DD 5.1
Language : Portuguese
Service kind : Complete Main
Default : No
Forced : No
Original source medium : Blu-ray

Audio #11
ID : 12
ID in the original source medium : 4362 (0x110A)
Format : AC-3
Format/Info : Audio Coding 3
Commercial name : Dolby Digital
Codec ID : A_AC3
Duration : 2 h 19 min
Bit rate mode : Constant
Bit rate : 640 kb/s
Channel(s) : 6 channels
Channel layout : L R C LFE Ls Rs
Sampling rate : 48.0 kHz
Frame rate : 31.250 FPS (1536 SPF)
Compression mode : Lossy
Stream size : 637 MiB (1%)
Title : DD 5.1
Language : Russian
Service kind : Complete Main
Default : No
Forced : No
Original source medium : Blu-ray

Audio #12
ID : 13
ID in the original source medium : 4363 (0x110B)
Format : AC-3
Format/Info : Audio Coding 3
Commercial name : Dolby Digital
Codec ID : A_AC3
Duration : 2 h 19 min
Bit rate mode : Constant
Bit rate : 640 kb/s
Channel(s) : 6 channels
Channel layout : L R C LFE Ls Rs
Sampling rate : 48.0 kHz
Frame rate : 31.250 FPS (1536 SPF)
Compression mode : Lossy
Stream size : 637 MiB (1%)
Title : DD 5.1
Language : Spanish
Service kind : Complete Main
Default : No
Forced : No
Original source medium : Blu-ray

Text #1
ID : 14
Format : UTF-8
Codec ID : S_TEXT/UTF8
Codec ID/Info : UTF-8 Plain Text
Duration : 2 h 15 min
Bit rate : 39 b/s
Frame rate : 0.150 FPS
Count of elements : 1221
Stream size : 39.7 KiB (0%)
Language : English
Default : Yes
Forced : No

Text #2
ID : 15
Format : UTF-8
Codec ID : S_TEXT/UTF8
Codec ID/Info : UTF-8 Plain Text
Duration : 2 h 18 min
Bit rate : 43 b/s
Frame rate : 0.187 FPS
Count of elements : 1556
Stream size : 44.4 KiB (0%)
Title : SDH
Language : English
Default : No
Forced : No

Text #3
ID : 16
ID in the original source medium : 4769 (0x12A1)
Format : PGS
Muxing mode : zlib
Codec ID : S_HDMV/PGS
Codec ID/Info : Picture based subtitle format used on BDs/HD-DVDs
Duration : 2 h 19 min
Bit rate : 19.8 kb/s
Frame rate : 0.276 FPS
Count of elements : 2302
Stream size : 19.7 MiB (0%)
Language : English
Default : No
Forced : No
Original source medium : Blu-ray

Text #4
ID : 17
ID in the original source medium : 4768 (0x12A0)
Format : PGS
Muxing mode : zlib
Codec ID : S_HDMV/PGS
Codec ID/Info : Picture based subtitle format used on BDs/HD-DVDs
Duration : 2 h 18 min
Bit rate : 26.5 kb/s
Frame rate : 0.387 FPS
Count of elements : 3227
Stream size : 26.3 MiB (0%)
Title : SDH
Language : English
Default : No
Forced : No
Original source medium : Blu-ray

Text #5
ID : 18
ID in the original source medium : 4772 (0x12A4)
Format : PGS
Muxing mode : zlib
Codec ID : S_HDMV/PGS
Codec ID/Info : Picture based subtitle format used on BDs/HD-DVDs
Duration : 2 h 14 min
Bit rate : 17.6 kb/s
Frame rate : 0.277 FPS
Count of elements : 2230
Stream size : 16.9 MiB (0%)
Language : 简体
Default : No
Forced : No
Original source medium : Blu-ray

Text #6
ID : 19
ID in the original source medium : 4773 (0x12A5)
Format : PGS
Muxing mode : zlib
Codec ID : S_HDMV/PGS
Codec ID/Info : Picture based subtitle format used on BDs/HD-DVDs
Duration : 2 h 14 min
Bit rate : 17.2 kb/s
Frame rate : 0.292 FPS
Count of elements : 2348
Stream size : 16.5 MiB (0%)
Language : 繁体
Default : No
Forced : No
Original source medium : Blu-ray

Text #7
ID : 20
ID in the original source medium : 4774 (0x12A6)
Format : PGS
Muxing mode : zlib
Codec ID : S_HDMV/PGS
Codec ID/Info : Picture based subtitle format used on BDs/HD-DVDs
Duration : 2 h 14 min
Bit rate : 18.0 kb/s
Frame rate : 0.285 FPS
Count of elements : 2288
Stream size : 17.2 MiB (0%)
Language : Czech
Default : No
Forced : No
Original source medium : Blu-ray

Text #8
ID : 21
ID in the original source medium : 4774 (0x12A6)
Format : PGS
Muxing mode : zlib
Codec ID : S_HDMV/PGS
Codec ID/Info : Picture based subtitle format used on BDs/HD-DVDs
Duration : 1 h 28 min
Bit rate : 142 b/s
Frame rate : 0.002 FPS
Count of elements : 10
Stream size : 91.7 KiB (0%)
Language : Czech
Default : No
Forced : No
Original source medium : Blu-ray

Text #9
ID : 22
ID in the original source medium : 4775 (0x12A7)
Format : PGS
Muxing mode : zlib
Codec ID : S_HDMV/PGS
Codec ID/Info : Picture based subtitle format used on BDs/HD-DVDs
Duration : 2 h 19 min
Bit rate : 18.3 kb/s
Frame rate : 0.233 FPS
Count of elements : 1944
Stream size : 18.2 MiB (0%)
Language : Danish
Default : No
Forced : No
Original source medium : Blu-ray

Text #10
ID : 23
ID in the original source medium : 4776 (0x12A8)
Format : PGS
Muxing mode : zlib
Codec ID : S_HDMV/PGS
Codec ID/Info : Picture based subtitle format used on BDs/HD-DVDs
Duration : 2 h 14 min
Bit rate : 19.2 kb/s
Frame rate : 0.216 FPS
Count of elements : 1738
Stream size : 18.4 MiB (0%)
Language : Dutch
Default : No
Forced : No
Original source medium : Blu-ray

Text #11
ID : 24
ID in the original source medium : 4777 (0x12A9)
Format : PGS
Muxing mode : zlib
Codec ID : S_HDMV/PGS
Codec ID/Info : Picture based subtitle format used on BDs/HD-DVDs
Duration : 2 h 14 min
Bit rate : 18.3 kb/s
Frame rate : 0.289 FPS
Count of elements : 2322
Stream size : 17.6 MiB (0%)
Language : Finnish
Default : No
Forced : No
Original source medium : Blu-ray

Text #12
ID : 25
ID in the original source medium : 4778 (0x12AA)
Format : PGS
Muxing mode : zlib
Codec ID : S_HDMV/PGS
Codec ID/Info : Picture based subtitle format used on BDs/HD-DVDs
Duration : 2 h 19 min
Bit rate : 15.8 kb/s
Frame rate : 0.279 FPS
Count of elements : 2328
Stream size : 15.7 MiB (0%)
Language : French
Default : No
Forced : No
Original source medium : Blu-ray

Text #13
ID : 26
ID in the original source medium : 4779 (0x12AB)
Format : PGS
Muxing mode : zlib
Codec ID : S_HDMV/PGS
Codec ID/Info : Picture based subtitle format used on BDs/HD-DVDs
Duration : 2 h 14 min
Bit rate : 19.5 kb/s
Frame rate : 0.256 FPS
Count of elements : 2058
Stream size : 18.7 MiB (0%)
Language : German
Default : No
Forced : No
Original source medium : Blu-ray

Text #14
ID : 27
ID in the original source medium : 4780 (0x12AC)
Format : PGS
Muxing mode : zlib
Codec ID : S_HDMV/PGS
Codec ID/Info : Picture based subtitle format used on BDs/HD-DVDs
Duration : 2 h 14 min
Bit rate : 20.1 kb/s
Frame rate : 0.286 FPS
Count of elements : 2296
Stream size : 19.3 MiB (0%)
Language : Greek
Default : No
Forced : No
Original source medium : Blu-ray

Text #15
ID : 28
ID in the original source medium : 4781 (0x12AD)
Format : PGS
Muxing mode : zlib
Codec ID : S_HDMV/PGS
Codec ID/Info : Picture based subtitle format used on BDs/HD-DVDs
Duration : 2 h 14 min
Bit rate : 17.4 kb/s
Frame rate : 0.285 FPS
Count of elements : 2292
Stream size : 16.7 MiB (0%)
Language : Hungarian
Default : No
Forced : No
Original source medium : Blu-ray

Text #16
ID : 29
ID in the original source medium : 4782 (0x12AE)
Format : PGS
Muxing mode : zlib
Codec ID : S_HDMV/PGS
Codec ID/Info : Picture based subtitle format used on BDs/HD-DVDs
Duration : 2 h 19 min
Bit rate : 20.8 kb/s
Frame rate : 0.280 FPS
Count of elements : 2338
Stream size : 20.7 MiB (0%)
Language : Italian
Default : No
Forced : No
Original source medium : Blu-ray

Text #17
ID : 30
ID in the original source medium : 4783 (0x12AF)
Format : PGS
Muxing mode : zlib
Codec ID : S_HDMV/PGS
Codec ID/Info : Picture based subtitle format used on BDs/HD-DVDs
Duration : 2 h 14 min
Bit rate : 15.3 kb/s
Frame rate : 0.278 FPS
Count of elements : 2235
Stream size : 14.7 MiB (0%)
Language : Japanese
Default : No
Forced : No
Original source medium : Blu-ray

Text #18
ID : 31
ID in the original source medium : 4784 (0x12B0)
Format : PGS
Muxing mode : zlib
Codec ID : S_HDMV/PGS
Codec ID/Info : Picture based subtitle format used on BDs/HD-DVDs
Duration : 2 h 19 min
Bit rate : 12.8 kb/s
Frame rate : 0.270 FPS
Count of elements : 2250
Stream size : 12.7 MiB (0%)
Language : Korean
Default : No
Forced : No
Original source medium : Blu-ray

Text #19
ID : 32
ID in the original source medium : 4785 (0x12B1)
Format : PGS
Muxing mode : zlib
Codec ID : S_HDMV/PGS
Codec ID/Info : Picture based subtitle format used on BDs/HD-DVDs
Duration : 2 h 14 min
Bit rate : 19.3 kb/s
Frame rate : 0.299 FPS
Count of elements : 2404
Stream size : 18.5 MiB (0%)
Language : Lithuanian
Default : No
Forced : No
Original source medium : Blu-ray

Text #20
ID : 33
ID in the original source medium : 4786 (0x12B2)
Format : PGS
Muxing mode : zlib
Codec ID : S_HDMV/PGS
Codec ID/Info : Picture based subtitle format used on BDs/HD-DVDs
Duration : 2 h 14 min
Bit rate : 16.9 kb/s
Frame rate : 0.251 FPS
Count of elements : 2016
Stream size : 16.2 MiB (0%)
Language : Norwegian
Default : No
Forced : No
Original source medium : Blu-ray

Text #21
ID : 34
ID in the original source medium : 4787 (0x12B3)
Format : PGS
Muxing mode : zlib
Codec ID : S_HDMV/PGS
Codec ID/Info : Picture based subtitle format used on BDs/HD-DVDs
Duration : 2 h 14 min
Bit rate : 17.2 kb/s
Frame rate : 0.289 FPS
Count of elements : 2322
Stream size : 16.5 MiB (0%)
Language : Polish
Default : No
Forced : No
Original source medium : Blu-ray

Text #22
ID : 35
ID in the original source medium : 4788 (0x12B4)
Format : PGS
Muxing mode : zlib
Codec ID : S_HDMV/PGS
Codec ID/Info : Picture based subtitle format used on BDs/HD-DVDs
Duration : 2 h 19 min
Bit rate : 17.6 kb/s
Frame rate : 0.269 FPS
Count of elements : 2248
Stream size : 17.5 MiB (0%)
Language : Portuguese
Default : No
Forced : No
Original source medium : Blu-ray

Text #23
ID : 36
ID in the original source medium : 4788 (0x12B4)
Format : PGS
Muxing mode : zlib
Codec ID : S_HDMV/PGS
Codec ID/Info : Picture based subtitle format used on BDs/HD-DVDs
Duration : 2 h 14 min
Bit rate : 188 b/s
Frame rate : 0.003 FPS
Count of elements : 22
Stream size : 186 KiB (0%)
Language : Portuguese
Default : No
Forced : No
Original source medium : Blu-ray

Text #24
ID : 37
ID in the original source medium : 4789 (0x12B5)
Format : PGS
Muxing mode : zlib
Codec ID : S_HDMV/PGS
Codec ID/Info : Picture based subtitle format used on BDs/HD-DVDs
Duration : 2 h 19 min
Bit rate : 19.4 kb/s
Frame rate : 0.274 FPS
Count of elements : 2286
Stream size : 19.3 MiB (0%)
Language : Portuguese
Default : No
Forced : No
Original source medium : Blu-ray

Text #25
ID : 38
ID in the original source medium : 4790 (0x12B6)
Format : PGS
Muxing mode : zlib
Codec ID : S_HDMV/PGS
Codec ID/Info : Picture based subtitle format used on BDs/HD-DVDs
Duration : 2 h 14 min
Bit rate : 21.0 kb/s
Frame rate : 0.258 FPS
Count of elements : 2074
Stream size : 20.1 MiB (0%)
Language : Romanian
Default : No
Forced : No
Original source medium : Blu-ray

Text #26
ID : 39
ID in the original source medium : 4791 (0x12B7)
Format : PGS
Muxing mode : zlib
Codec ID : S_HDMV/PGS
Codec ID/Info : Picture based subtitle format used on BDs/HD-DVDs
Duration : 2 h 14 min
Bit rate : 20.8 kb/s
Frame rate : 0.294 FPS
Count of elements : 2362
Stream size : 20.0 MiB (0%)
Language : Spanish
Default : No
Forced : No
Original source medium : Blu-ray

Text #27
ID : 40
ID in the original source medium : 4792 (0x12B8)
Format : PGS
Muxing mode : zlib
Codec ID : S_HDMV/PGS
Codec ID/Info : Picture based subtitle format used on BDs/HD-DVDs
Duration : 2 h 14 min
Bit rate : 19.0 kb/s
Frame rate : 0.282 FPS
Count of elements : 2269
Stream size : 18.2 MiB (0%)
Language : Spanish
Default : No
Forced : No
Original source medium : Blu-ray

Text #28
ID : 41
ID in the original source medium : 4793 (0x12B9)
Format : PGS
Muxing mode : zlib
Codec ID : S_HDMV/PGS
Codec ID/Info : Picture based subtitle format used on BDs/HD-DVDs
Duration : 2 h 19 min
Bit rate : 18.9 kb/s
Frame rate : 0.231 FPS
Count of elements : 1926
Stream size : 18.8 MiB (0%)
Language : Swedish
Default : No
Forced : No
Original source medium : Blu-ray

Text #29
ID : 42
ID in the original source medium : 4794 (0x12BA)
Format : PGS
Muxing mode : zlib
Codec ID : S_HDMV/PGS
Codec ID/Info : Picture based subtitle format used on BDs/HD-DVDs
Duration : 2 h 14 min
Bit rate : 19.6 kb/s
Frame rate : 0.288 FPS
Count of elements : 2314
Stream size : 18.8 MiB (0%)
Language : Thai
Default : No
Forced : No
Original source medium : Blu-ray

Text #30
ID : 43
ID in the original source medium : 4795 (0x12BB)
Format : PGS
Muxing mode : zlib
Codec ID : S_HDMV/PGS
Codec ID/Info : Picture based subtitle format used on BDs/HD-DVDs
Duration : 2 h 14 min
Bit rate : 21.4 kb/s
Frame rate : 0.285 FPS
Count of elements : 2290
Stream size : 20.5 MiB (0%)
Language : Turkish
Default : No
Forced : No
Original source medium : Blu-ray

Text #31
ID : 44
ID in the original source medium : 4796 (0x12BC)
Format : PGS
Muxing mode : zlib
Codec ID : S_HDMV/PGS
Codec ID/Info : Picture based subtitle format used on BDs/HD-DVDs
Duration : 2 h 14 min
Bit rate : 137 b/s
Frame rate : 0.003 FPS
Count of elements : 24
Stream size : 135 KiB (0%)
Language : Japanese
Default : No
Forced : No
Original source medium : Blu-ray

Text #32
ID : 45
ID in the original source medium : 4797 (0x12BD)
Format : PGS
Muxing mode : zlib
Codec ID : S_HDMV/PGS
Codec ID/Info : Picture based subtitle format used on BDs/HD-DVDs
Duration : 2 h 19 min
Bit rate : 673 b/s
Frame rate : 0.009 FPS
Count of elements : 72
Stream size : 687 KiB (0%)
Language : Russian
Default : No
Forced : No
Original source medium : Blu-ray

Text #33
ID : 46
ID in the original source medium : 4797 (0x12BD)
Format : PGS
Muxing mode : zlib
Codec ID : S_HDMV/PGS
Codec ID/Info : Picture based subtitle format used on BDs/HD-DVDs
Duration : 2 h 18 min
Bit rate : 678 b/s
Frame rate : 0.008 FPS
Count of elements : 70
Stream size : 687 KiB (0%)
Language : Russian
Default : No
Forced : No
Original source medium : Blu-ray

Menu
00:00:00.000 : en:Chapter 01
00:07:59.604 : en:Chapter 02
00:16:55.055 : en:Chapter 03
00:24:44.983 : en:Chapter 04
00:30:12.894 : en:Chapter 05
00:40:08.531 : en:Chapter 06
00:49:24.586 : en:Chapter 07
00:59:27.605 : en:Chapter 08
01:06:34.573 : en:Chapter 09
01:15:23.435 : en:Chapter 10
01:22:16.723 : en:Chapter 11
01:30:17.453 : en:Chapter 12
01:40:46.373 : en:Chapter 13
01:49:10.627 : en:Chapter 14
01:59:57.148 : en:Chapter 15
02:06:11.355 : en:Chapter 16

新种推荐使用qBittorrent、uTorrent等下载软件,有条件的推荐115更好的下载软件!

蜘蛛侠3(68.19GB)Spider-Man.3.2007.PROPER.2160p.BluRay.REMUX.HEVC.DTS-HD.MA.TrueHD.7.1.Atmos-FGT-【2160P蓝光原盘

游客,如果您要查看本帖隐藏内容请回复





4KQQ海报.gif

上一篇:蜘蛛侠2 / Spider-Man 2 (2004) 4K蓝光REMUX版本
下一篇:超凡蜘蛛侠[简繁中字] (2012)4K蓝光REMUX版本下载
回复

使用道具 举报

0

主题

2

帖子

9

积分

新手上路

Rank: 1

积分
9
发表于 2022-12-18 12:22:33 | 显示全部楼层
不错的资源,谢谢分享!
回复 支持 反对

使用道具 举报

您需要登录后才可以回帖 登录 | 立即注册

本版积分规则

精彩图文
Archiver|手机版|TAG|Sitemap|新帖|专题|联系我们:邮箱: 4kjia.com@gmail.com   

4k家园   ©2019