[4K UHD 蓝光原盘] 超凡蜘蛛侠[简繁中字] (2012)4K蓝光REMUX版本下载

[复制链接]

主题

帖子

0

积分

超级版主

Rank: 8Rank: 8

积分
0
 楼主| 发表于 2022-12-18 10:21:52 | 显示全部楼层 |阅读模式
本帖最后由 没完没了 于 2022-12-18 11:47 编辑

超凡蜘蛛侠.png

◎译  名 超凡蜘蛛侠/新蜘蛛侠/神奇蜘蛛侠/蜘蛛人:惊奇再起(台)/蜘蛛侠:惊世现新(港)/蜘蛛侠4/蜘蛛侠前传
◎片  名 The Amazing Spider-Man
◎年  代 2012
◎产  地 美国
◎类  别 动作 / 科幻 / 冒险
◎语  言 英语
◎上映日期 2012-07-03(美国) / 2012-08-27(中国大陆)
◎IMDb评分 6.9/10 from 657213 users 更新: 2022-12-15
◎IMDb链接 https://www.imdb.com/title/tt0948470/
◎豆瓣评分 7.7/10 from 318063 users 更新: 2022-12-18
◎豆瓣链接 https://movie.douban.com/subject/2129132/
◎片  长 136分钟(美国/中国大陆)
◎导  演 马克·韦布 Marc Webb
◎编  剧 史蒂夫·迪特寇 Steve Ditko / 斯坦·李 Stan Lee / 詹姆斯·范德比尔特 James Vanderbilt
◎主  演 安德鲁·加菲尔德 Andrew Garfield
       艾玛·斯通 Emma Stone
       瑞斯·伊凡斯 Rhys Ifans
       马丁·辛 Martin Sheen
       莎莉·菲尔德 Sally Field
       C·托马斯·豪威尔 C. Thomas Howell
       丹尼斯·利瑞 Denis Leary
       朱丽安妮·尼科尔森 Julianne Nicholson
       坎贝尔·斯科特 Campbell Scott
       安妮·帕里西 Annie Parisse
       伊尔凡·可汗 Irrfan Khan
         迈尔斯·艾略特 Miles Elliot
       汉娜·马克斯 Hannah Marks
       马克·多尔蒂 Mark Daugherty
       维森特·拉雷斯卡 Vincent Laresca
       基思·坎贝尔 Keith Campbell
       凯文·麦克克科尔 Kevin McCorkle
       蒂娅·德克萨达 Tia Texada
       杰·卡普托 Jay Caputo
       珍妮弗·莱昂斯 Jennifer Lyons
       迈克尔·麦斯 Michael Massee
       史蒂夫·德卡斯特罗 Steve DeCastro
       安德莉亚·西斯托 Andrea Sixtos
       查理·迪皮尤 Charlie DePew
       凯尔西·周 Kelsey Asbille Chow
       安迪·佩索亚 Andy Pessoa
       麦克斯·查尔斯 Max Charles
       雷弗·甘特沃特 Leif Gantvoort
       艾伯丝·戴维兹 Embeth Davidtz
       斯凯勒·吉桑多 Skyler Gisondo
       艾波·斯蒂文斯 Amber Stevens
       肯特·绍克内克 Kent Shocknek
       芭芭拉·伊芙·哈里斯 Barbara Eve Harris
       吉尔·弗林特 Jill Flint
       克里斯·泽尔卡 Chris Zylka


◎简  介

  童年的一起突发事件,令彼得·帕克(安德鲁·加菲尔德 Andrew Garfield 饰)和父母生离死别。转眼彼得成为一名高中生,他偶然发现父亲的公文包,并从叔父本(马丁·辛 Martin Sheen 饰)处得到线索,于是启程前往奥斯库公司拜访父亲当年的合作伙伴——科特·康纳斯博士(瑞斯·伊凡斯 Rhys Ifans 饰)。在公司内四处寻找线索的彼得意外被蜘蛛咬了一口,回程途中他的身体发生奇异的变化。在康纳斯博士德引导下,彼得不断了解并发掘体内着超乎寻常的能力,喜怒哀乐,各种意想不到的事情迅速向他袭来。直到某日,他便成了影响深远的超级战士蜘蛛侠。

  而城市内也出现了凶恶的蜥蜴人,彼得不平凡的人生就此展开……

◎获奖情况

  第40届动画安妮奖 ?(2013)
  最佳真人电影动画效果(提名)
  最佳真人电影动画角色(提名) 佐藤淳?/?罗杰·维扎尔德?/?麦克斯·泰里

  第19届美国演员工会奖 ?(2013)
  电影最佳特技群戏(提名) 托尼·安格洛蒂?/?安迪·阿姆斯特朗?/?基斯·亚当斯?/?维克·阿姆斯特朗?/?妮娜·阿姆斯特朗

  第14届美国青少年选择奖 ?(2012)
  最佳电影反派(提名) 瑞斯·伊凡斯
  最佳暑期动作冒险电影(提名)
  最佳暑期电影男演员(提名) 安德鲁·加菲尔德
  最佳暑期电影女演员(提名) 艾玛·斯通

  第3届豆瓣电影鑫像奖 ?(2013)
  鑫豆单元最佳视觉效果(提名)
Video
ID : 1
ID in the original source medium : 4113 (0x1011)
Format : HEVC
Format/Info : High Efficiency Video Coding
Format profile : Main 10@L5.1@High
HDR format : SMPTE ST 2086, HDR10 compatible
Codec ID : V_MPEGH/ISO/HEVC
Duration : 2 h 16 min
Bit rate : 42.5 Mb/s
Width : 3 840 pixels
Height : 2 160 pixels
Display aspect ratio : 16:9
Frame rate mode : Constant
Frame rate : 23.976 (24000/1001) FPS
Color space : YUV
Chroma subsampling : 4:2:0 (Type 2)
Bit depth : 10 bits
Bits/(Pixel*Frame) : 0.214
Stream size : 40.4 GiB (72%)
Language : English
Default : No
Forced : No
Color range : Limited
Color primaries : BT.2020
Transfer characteristics : PQ
Matrix coefficients : BT.2020 non-constant
Mastering display color primaries : Display P3
Mastering display luminance : min: 0.0050 cd/m2, max: 4000 cd/m2
Maximum Content Light Level : 4809 cd/m2
Maximum Frame-Average Light Level : 1138 cd/m2
Original source medium : Blu-ray

Audio #1
ID : 2
ID in the original source medium : 4352 (0x1100)
Format : MLP FBA 16-ch
Format/Info : Meridian Lossless Packing FBA with 16-channel presentation
Commercial name : Dolby TrueHD with Dolby Atmos
Codec ID : A_TRUEHD
Duration : 2 h 16 min
Bit rate mode : Variable
Bit rate : 5 191 kb/s
Maximum bit rate : 8 358 kb/s
Channel(s) : 8 channels
Channel layout : L R C LFE Ls Rs Lb Rb
Sampling rate : 48.0 kHz
Frame rate : 1 200.000 FPS (40 SPF)
Bit depth : 24 bits
Compression mode : Lossless
Stream size : 4.94 GiB (9%)
Title : TrueHD 7.1 Atmos
Language : English
Default : Yes
Forced : No
Original source medium : Blu-ray
Number of dynamic objects : 11
Bed channel count : 1 channel
Bed channel configuration : LFE

Audio #2
ID : 3
Format : DTS XLL
Format/Info : Digital Theater Systems
Commercial name : DTS-HD Master Audio
Codec ID : A_DTS
Duration : 2 h 16 min
Bit rate mode : Variable
Bit rate : 4 180 kb/s
Channel(s) : 8 channels
Channel layout : C L R LFE Lb Rb Lss Rss
Sampling rate : 48.0 kHz
Frame rate : 93.750 FPS (512 SPF)
Bit depth : 24 bits
Compression mode : Lossless
Stream size : 3.98 GiB (7%)
Title : DTS-HD MA 7.1
Language : English
Default : No
Forced : No

Audio #3
ID : 4
ID in the original source medium : 4352 (0x1100)
Format : AC-3
Format/Info : Audio Coding 3
Commercial name : Dolby Digital
Codec ID : A_AC3
Duration : 2 h 16 min
Bit rate mode : Constant
Bit rate : 640 kb/s
Channel(s) : 6 channels
Channel layout : L R C LFE Ls Rs
Sampling rate : 48.0 kHz
Frame rate : 31.250 FPS (1536 SPF)
Compression mode : Lossy
Stream size : 624 MiB (1%)
Title : DD 5.1
Language : English
Service kind : Complete Main
Default : No
Forced : No
Original source medium : Blu-ray

Audio #4
ID : 5
ID in the original source medium : 4353 (0x1101)
Format : AC-3
Format/Info : Audio Coding 3
Commercial name : Dolby Digital
Codec ID : A_AC3
Duration : 2 h 16 min
Bit rate mode : Constant
Bit rate : 640 kb/s
Channel(s) : 6 channels
Channel layout : L R C LFE Ls Rs
Sampling rate : 48.0 kHz
Frame rate : 31.250 FPS (1536 SPF)
Compression mode : Lossy
Stream size : 624 MiB (1%)
Title : DD 5.1
Language : English
Service kind : Complete Main
Default : No
Forced : No
Original source medium : Blu-ray

Audio #5
ID : 6
ID in the original source medium : 4354 (0x1102)
Format : AC-3
Format/Info : Audio Coding 3
Commercial name : Dolby Digital
Codec ID : A_AC3
Duration : 2 h 16 min
Bit rate mode : Constant
Bit rate : 640 kb/s
Channel(s) : 6 channels
Channel layout : L R C LFE Ls Rs
Sampling rate : 48.0 kHz
Frame rate : 31.250 FPS (1536 SPF)
Compression mode : Lossy
Stream size : 624 MiB (1%)
Title : DD 5.1
Language : Czech
Service kind : Complete Main
Default : No
Forced : No
Original source medium : Blu-ray

Audio #6
ID : 7
ID in the original source medium : 4355 (0x1103)
Format : AC-3
Format/Info : Audio Coding 3
Commercial name : Dolby Digital
Codec ID : A_AC3
Duration : 2 h 16 min
Bit rate mode : Constant
Bit rate : 640 kb/s
Channel(s) : 6 channels
Channel layout : L R C LFE Ls Rs
Sampling rate : 48.0 kHz
Frame rate : 31.250 FPS (1536 SPF)
Compression mode : Lossy
Stream size : 624 MiB (1%)
Title : DD 5.1
Language : French
Service kind : Complete Main
Default : No
Forced : No
Original source medium : Blu-ray

Audio #7
ID : 8
ID in the original source medium : 4356 (0x1104)
Format : AC-3
Format/Info : Audio Coding 3
Commercial name : Dolby Digital
Codec ID : A_AC3
Duration : 2 h 16 min
Bit rate mode : Constant
Bit rate : 640 kb/s
Channel(s) : 6 channels
Channel layout : L R C LFE Ls Rs
Sampling rate : 48.0 kHz
Frame rate : 31.250 FPS (1536 SPF)
Compression mode : Lossy
Stream size : 624 MiB (1%)
Title : DD 5.1
Language : German
Service kind : Complete Main
Default : No
Forced : No
Original source medium : Blu-ray

Audio #8
ID : 9
ID in the original source medium : 4357 (0x1105)
Format : AC-3
Format/Info : Audio Coding 3
Commercial name : Dolby Digital
Codec ID : A_AC3
Duration : 2 h 16 min
Bit rate mode : Constant
Bit rate : 640 kb/s
Channel(s) : 6 channels
Channel layout : L R C LFE Ls Rs
Sampling rate : 48.0 kHz
Frame rate : 31.250 FPS (1536 SPF)
Compression mode : Lossy
Stream size : 624 MiB (1%)
Title : DD 5.1
Language : Italian
Service kind : Complete Main
Default : No
Forced : No
Original source medium : Blu-ray

Audio #9
ID : 10
ID in the original source medium : 4358 (0x1106)
Format : AC-3
Format/Info : Audio Coding 3
Commercial name : Dolby Digital
Codec ID : A_AC3
Duration : 2 h 16 min
Bit rate mode : Constant
Bit rate : 640 kb/s
Channel(s) : 6 channels
Channel layout : L R C LFE Ls Rs
Sampling rate : 48.0 kHz
Frame rate : 31.250 FPS (1536 SPF)
Compression mode : Lossy
Stream size : 624 MiB (1%)
Title : DD 5.1
Language : Japanese
Service kind : Complete Main
Default : No
Forced : No
Original source medium : Blu-ray

Audio #10
ID : 11
ID in the original source medium : 4359 (0x1107)
Format : AC-3
Format/Info : Audio Coding 3
Commercial name : Dolby Digital
Codec ID : A_AC3
Duration : 2 h 16 min
Bit rate mode : Constant
Bit rate : 640 kb/s
Channel(s) : 6 channels
Channel layout : L R C LFE Ls Rs
Sampling rate : 48.0 kHz
Frame rate : 31.250 FPS (1536 SPF)
Compression mode : Lossy
Stream size : 624 MiB (1%)
Title : DD 5.1
Language : Portuguese
Service kind : Complete Main
Default : No
Forced : No
Original source medium : Blu-ray

Audio #11
ID : 12
ID in the original source medium : 4360 (0x1108)
Format : AC-3
Format/Info : Audio Coding 3
Commercial name : Dolby Digital
Codec ID : A_AC3
Duration : 2 h 16 min
Bit rate mode : Constant
Bit rate : 640 kb/s
Channel(s) : 6 channels
Channel layout : L R C LFE Ls Rs
Sampling rate : 48.0 kHz
Frame rate : 31.250 FPS (1536 SPF)
Compression mode : Lossy
Stream size : 624 MiB (1%)
Title : DD 5.1
Language : Russian
Service kind : Complete Main
Default : No
Forced : No
Original source medium : Blu-ray

Audio #12
ID : 13
ID in the original source medium : 4361 (0x1109)
Format : AC-3
Format/Info : Audio Coding 3
Commercial name : Dolby Digital
Codec ID : A_AC3
Duration : 2 h 16 min
Bit rate mode : Constant
Bit rate : 640 kb/s
Channel(s) : 6 channels
Channel layout : L R C LFE Ls Rs
Sampling rate : 48.0 kHz
Frame rate : 31.250 FPS (1536 SPF)
Compression mode : Lossy
Stream size : 624 MiB (1%)
Title : DD 5.1
Language : Spanish
Service kind : Complete Main
Default : No
Forced : No
Original source medium : Blu-ray

Audio #13
ID : 14
ID in the original source medium : 4362 (0x110A)
Format : AC-3
Format/Info : Audio Coding 3
Commercial name : Dolby Digital
Codec ID : A_AC3
Duration : 2 h 16 min
Bit rate mode : Constant
Bit rate : 640 kb/s
Channel(s) : 6 channels
Channel layout : L R C LFE Ls Rs
Sampling rate : 48.0 kHz
Frame rate : 31.250 FPS (1536 SPF)
Compression mode : Lossy
Stream size : 624 MiB (1%)
Title : DD 5.1
Language : Turkish
Service kind : Complete Main
Default : No
Forced : No
Original source medium : Blu-ray

Text #1
ID : 15
Format : UTF-8
Codec ID : S_TEXT/UTF8
Codec ID/Info : UTF-8 Plain Text
Duration : 2 h 9 min
Bit rate : 45 b/s
Frame rate : 0.183 FPS
Count of elements : 1420
Stream size : 43.2 KiB (0%)
Language : English
Default : Yes
Forced : No

Text #2
ID : 16
Format : UTF-8
Codec ID : S_TEXT/UTF8
Codec ID/Info : UTF-8 Plain Text
Duration : 2 h 14 min
Bit rate : 47 b/s
Frame rate : 0.209 FPS
Count of elements : 1680
Stream size : 46.6 KiB (0%)
Title : SDH
Language : English
Default : No
Forced : No

Text #3
ID : 17
ID in the original source medium : 4768 (0x12A0)
Format : PGS
Muxing mode : zlib
Codec ID : S_HDMV/PGS
Codec ID/Info : Picture based subtitle format used on BDs/HD-DVDs
Duration : 2 h 14 min
Bit rate : 28.4 kb/s
Frame rate : 0.431 FPS
Count of elements : 3466
Stream size : 27.2 MiB (0%)
Title : SDH
Language : English
Default : No
Forced : No
Original source medium : Blu-ray

Text #4
ID : 18
ID in the original source medium : 4769 (0x12A1)
Format : PGS
Muxing mode : zlib
Codec ID : S_HDMV/PGS
Codec ID/Info : Picture based subtitle format used on BDs/HD-DVDs
Duration : 2 h 15 min
Bit rate : 23.8 kb/s
Frame rate : 0.335 FPS
Count of elements : 2720
Stream size : 23.0 MiB (0%)
Language : English
Default : No
Forced : No
Original source medium : Blu-ray

Text #5
ID : 19
ID in the original source medium : 4770 (0x12A2)
Format : PGS
Muxing mode : zlib
Codec ID : S_HDMV/PGS
Codec ID/Info : Picture based subtitle format used on BDs/HD-DVDs
Duration : 2 h 15 min
Bit rate : 28.1 kb/s
Frame rate : 0.426 FPS
Count of elements : 3470
Stream size : 27.3 MiB (0%)
Title : SDH
Language : English
Default : No
Forced : No
Original source medium : Blu-ray

Text #6
ID : 20
ID in the original source medium : 4771 (0x12A3)
Format : PGS
Muxing mode : zlib
Codec ID : S_HDMV/PGS
Codec ID/Info : Picture based subtitle format used on BDs/HD-DVDs
Duration : 2 h 15 min
Bit rate : 23.8 kb/s
Frame rate : 0.336 FPS
Count of elements : 2726
Stream size : 23.0 MiB (0%)
Language : English
Default : No
Forced : No
Original source medium : Blu-ray

Text #7
ID : 21
ID in the original source medium : 4772 (0x12A4)
Format : PGS
Muxing mode : zlib
Codec ID : S_HDMV/PGS
Codec ID/Info : Picture based subtitle format used on BDs/HD-DVDs
Duration : 2 h 15 min
Bit rate : 19.1 kb/s
Frame rate : 0.386 FPS
Count of elements : 3134
Stream size : 18.5 MiB (0%)
Language : 简体
Default : No
Forced : No
Original source medium : Blu-ray

Text #8
ID : 22
ID in the original source medium : 4773 (0x12A5)
Format : PGS
Muxing mode : zlib
Codec ID : S_HDMV/PGS
Codec ID/Info : Picture based subtitle format used on BDs/HD-DVDs
Duration : 2 h 15 min
Bit rate : 22.6 kb/s
Frame rate : 0.386 FPS
Count of elements : 3130
Stream size : 21.8 MiB (0%)
Language : 繁体
Default : No
Forced : No
Original source medium : Blu-ray

Text #9
ID : 23
ID in the original source medium : 4773 (0x12A5)
Format : PGS
Muxing mode : zlib
Codec ID : S_HDMV/PGS
Codec ID/Info : Picture based subtitle format used on BDs/HD-DVDs
Duration : 1 h 51 min
Bit rate : 567 b/s
Frame rate : 0.009 FPS
Count of elements : 62
Stream size : 464 KiB (0%)
Language : Chinese
Default : No
Forced : No
Original source medium : Blu-ray

Text #10
ID : 24
ID in the original source medium : 4774 (0x12A6)
Format : PGS
Muxing mode : zlib
Codec ID : S_HDMV/PGS
Codec ID/Info : Picture based subtitle format used on BDs/HD-DVDs
Duration : 2 h 9 min
Bit rate : 21.3 kb/s
Frame rate : 0.406 FPS
Count of elements : 3146
Stream size : 19.7 MiB (0%)
Language : Chinese
Default : No
Forced : No
Original source medium : Blu-ray

Text #11
ID : 25
ID in the original source medium : 4775 (0x12A7)
Format : PGS
Muxing mode : zlib
Codec ID : S_HDMV/PGS
Codec ID/Info : Picture based subtitle format used on BDs/HD-DVDs
Duration : 2 h 15 min
Bit rate : 18.5 kb/s
Frame rate : 0.362 FPS
Count of elements : 2938
Stream size : 17.9 MiB (0%)
Language : Czech
Default : No
Forced : No
Original source medium : Blu-ray

Text #12
ID : 26
ID in the original source medium : 4776 (0x12A8)
Format : PGS
Muxing mode : zlib
Codec ID : S_HDMV/PGS
Codec ID/Info : Picture based subtitle format used on BDs/HD-DVDs
Duration : 2 h 15 min
Bit rate : 21.8 kb/s
Frame rate : 0.363 FPS
Count of elements : 2946
Stream size : 21.1 MiB (0%)
Language : Danish
Default : No
Forced : No
Original source medium : Blu-ray

Text #13
ID : 27
ID in the original source medium : 4777 (0x12A9)
Format : PGS
Muxing mode : zlib
Codec ID : S_HDMV/PGS
Codec ID/Info : Picture based subtitle format used on BDs/HD-DVDs
Duration : 2 h 15 min
Bit rate : 20.8 kb/s
Frame rate : 0.379 FPS
Count of elements : 3072
Stream size : 20.2 MiB (0%)
Language : Dutch
Default : No
Forced : No
Original source medium : Blu-ray

Text #14
ID : 28
ID in the original source medium : 4778 (0x12AA)
Format : PGS
Muxing mode : zlib
Codec ID : S_HDMV/PGS
Codec ID/Info : Picture based subtitle format used on BDs/HD-DVDs
Duration : 2 h 9 min
Bit rate : 23.2 kb/s
Frame rate : 0.402 FPS
Count of elements : 3118
Stream size : 21.5 MiB (0%)
Language : Estonian
Default : No
Forced : No
Original source medium : Blu-ray

Text #15
ID : 29
ID in the original source medium : 4779 (0x12AB)
Format : PGS
Muxing mode : zlib
Codec ID : S_HDMV/PGS
Codec ID/Info : Picture based subtitle format used on BDs/HD-DVDs
Duration : 2 h 15 min
Bit rate : 19.1 kb/s
Frame rate : 0.359 FPS
Count of elements : 2914
Stream size : 18.5 MiB (0%)
Language : Finnish
Default : No
Forced : No
Original source medium : Blu-ray

Text #16
ID : 30
ID in the original source medium : 4780 (0x12AC)
Format : PGS
Muxing mode : zlib
Codec ID : S_HDMV/PGS
Codec ID/Info : Picture based subtitle format used on BDs/HD-DVDs
Duration : 2 h 15 min
Bit rate : 18.6 kb/s
Frame rate : 0.331 FPS
Count of elements : 2688
Stream size : 18.0 MiB (0%)
Language : French
Default : No
Forced : No
Original source medium : Blu-ray

Text #17
ID : 31
ID in the original source medium : 4780 (0x12AC)
Format : PGS
Muxing mode : zlib
Codec ID : S_HDMV/PGS
Codec ID/Info : Picture based subtitle format used on BDs/HD-DVDs
Duration : 2 h 2 min
Bit rate : 113 b/s
Frame rate : 0.001 FPS
Count of elements : 8
Stream size : 101 KiB (0%)
Language : French
Default : No
Forced : No
Original source medium : Blu-ray

Text #18
ID : 32
ID in the original source medium : 4781 (0x12AD)
Format : PGS
Muxing mode : zlib
Codec ID : S_HDMV/PGS
Codec ID/Info : Picture based subtitle format used on BDs/HD-DVDs
Duration : 2 h 15 min
Bit rate : 24.7 kb/s
Frame rate : 0.384 FPS
Count of elements : 3118
Stream size : 23.9 MiB (0%)
Language : German
Default : No
Forced : No
Original source medium : Blu-ray

Text #19
ID : 33
ID in the original source medium : 4781 (0x12AD)
Format : PGS
Muxing mode : zlib
Codec ID : S_HDMV/PGS
Codec ID/Info : Picture based subtitle format used on BDs/HD-DVDs
Duration : 2 h 2 min
Bit rate : 152 b/s
Frame rate : 0.001 FPS
Count of elements : 10
Stream size : 136 KiB (0%)
Language : German
Default : No
Forced : No
Original source medium : Blu-ray

Text #20
ID : 34
ID in the original source medium : 4782 (0x12AE)
Format : PGS
Muxing mode : zlib
Codec ID : S_HDMV/PGS
Codec ID/Info : Picture based subtitle format used on BDs/HD-DVDs
Duration : 2 h 9 min
Bit rate : 24.1 kb/s
Frame rate : 0.381 FPS
Count of elements : 2950
Stream size : 22.3 MiB (0%)
Language : Greek
Default : No
Forced : No
Original source medium : Blu-ray

Text #21
ID : 35
ID in the original source medium : 4783 (0x12AF)
Format : PGS
Muxing mode : zlib
Codec ID : S_HDMV/PGS
Codec ID/Info : Picture based subtitle format used on BDs/HD-DVDs
Duration : 2 h 15 min
Bit rate : 25.4 kb/s
Frame rate : 0.385 FPS
Count of elements : 3120
Stream size : 24.6 MiB (0%)
Language : Italian
Default : No
Forced : No
Original source medium : Blu-ray

Text #22
ID : 36
ID in the original source medium : 4783 (0x12AF)
Format : PGS
Muxing mode : zlib
Codec ID : S_HDMV/PGS
Codec ID/Info : Picture based subtitle format used on BDs/HD-DVDs
Duration : 2 h 2 min
Bit rate : 107 b/s
Frame rate : 0.001 FPS
Count of elements : 8
Stream size : 96.5 KiB (0%)
Language : Italian
Default : No
Forced : No
Original source medium : Blu-ray

Text #23
ID : 37
ID in the original source medium : 4784 (0x12B0)
Format : PGS
Muxing mode : zlib
Codec ID : S_HDMV/PGS
Codec ID/Info : Picture based subtitle format used on BDs/HD-DVDs
Duration : 2 h 9 min
Bit rate : 17.3 kb/s
Frame rate : 0.310 FPS
Count of elements : 2405
Stream size : 15.9 MiB (0%)
Language : Japanese
Default : No
Forced : No
Original source medium : Blu-ray

Text #24
ID : 38
ID in the original source medium : 4785 (0x12B1)
Format : PGS
Muxing mode : zlib
Codec ID : S_HDMV/PGS
Codec ID/Info : Picture based subtitle format used on BDs/HD-DVDs
Duration : 2 h 15 min
Bit rate : 14.7 kb/s
Frame rate : 0.372 FPS
Count of elements : 3024
Stream size : 14.2 MiB (0%)
Language : Korean
Default : No
Forced : No
Original source medium : Blu-ray

Text #25
ID : 39
ID in the original source medium : 4786 (0x12B2)
Format : PGS
Muxing mode : zlib
Codec ID : S_HDMV/PGS
Codec ID/Info : Picture based subtitle format used on BDs/HD-DVDs
Duration : 2 h 9 min
Bit rate : 25.0 kb/s
Frame rate : 0.404 FPS
Count of elements : 3128
Stream size : 23.1 MiB (0%)
Language : Lithuanian
Default : No
Forced : No
Original source medium : Blu-ray

Text #26
ID : 40
ID in the original source medium : 4787 (0x12B3)
Format : PGS
Muxing mode : zlib
Codec ID : S_HDMV/PGS
Codec ID/Info : Picture based subtitle format used on BDs/HD-DVDs
Duration : 2 h 15 min
Bit rate : 18.6 kb/s
Frame rate : 0.358 FPS
Count of elements : 2906
Stream size : 17.9 MiB (0%)
Language : Norwegian
Default : No
Forced : No
Original source medium : Blu-ray

Text #27
ID : 41
ID in the original source medium : 4788 (0x12B4)
Format : PGS
Muxing mode : zlib
Codec ID : S_HDMV/PGS
Codec ID/Info : Picture based subtitle format used on BDs/HD-DVDs
Duration : 2 h 15 min
Bit rate : 21.6 kb/s
Frame rate : 0.364 FPS
Count of elements : 2950
Stream size : 20.9 MiB (0%)
Language : Polish
Default : No
Forced : No
Original source medium : Blu-ray

Text #28
ID : 42
ID in the original source medium : 4789 (0x12B5)
Format : PGS
Muxing mode : zlib
Codec ID : S_HDMV/PGS
Codec ID/Info : Picture based subtitle format used on BDs/HD-DVDs
Duration : 2 h 9 min
Bit rate : 23.7 kb/s
Frame rate : 0.399 FPS
Count of elements : 3094
Stream size : 21.9 MiB (0%)
Language : Portuguese
Default : No
Forced : No
Original source medium : Blu-ray

Text #29
ID : 43
ID in the original source medium : 4790 (0x12B6)
Format : PGS
Muxing mode : zlib
Codec ID : S_HDMV/PGS
Codec ID/Info : Picture based subtitle format used on BDs/HD-DVDs
Duration : 2 h 9 min
Bit rate : 23.8 kb/s
Frame rate : 0.377 FPS
Count of elements : 2924
Stream size : 22.0 MiB (0%)
Language : Portuguese
Default : No
Forced : No
Original source medium : Blu-ray

Text #30
ID : 44
ID in the original source medium : 4791 (0x12B7)
Format : PGS
Muxing mode : zlib
Codec ID : S_HDMV/PGS
Codec ID/Info : Picture based subtitle format used on BDs/HD-DVDs
Duration : 2 h 15 min
Bit rate : 24.2 kb/s
Frame rate : 0.382 FPS
Count of elements : 3100
Stream size : 23.4 MiB (0%)
Language : Romanian
Default : No
Forced : No
Original source medium : Blu-ray

Text #31
ID : 45
ID in the original source medium : 4792 (0x12B8)
Format : PGS
Muxing mode : zlib
Codec ID : S_HDMV/PGS
Codec ID/Info : Picture based subtitle format used on BDs/HD-DVDs
Duration : 2 h 9 min
Bit rate : 23.9 kb/s
Frame rate : 0.393 FPS
Count of elements : 3048
Stream size : 22.1 MiB (0%)
Language : Russian
Default : No
Forced : No
Original source medium : Blu-ray

Text #32
ID : 46
ID in the original source medium : 4792 (0x12B8)
Format : PGS
Muxing mode : zlib
Codec ID : S_HDMV/PGS
Codec ID/Info : Picture based subtitle format used on BDs/HD-DVDs
Duration : 13 min 42 s
Bit rate : 1 998 b/s
Frame rate : 0.024 FPS
Count of elements : 20
Stream size : 201 KiB (0%)
Language : Russian
Default : No
Forced : No
Original source medium : Blu-ray

Text #33
ID : 47
ID in the original source medium : 4793 (0x12B9)
Format : PGS
Muxing mode : zlib
Codec ID : S_HDMV/PGS
Codec ID/Info : Picture based subtitle format used on BDs/HD-DVDs
Duration : 2 h 15 min
Bit rate : 21.4 kb/s
Frame rate : 0.350 FPS
Count of elements : 2838
Stream size : 20.7 MiB (0%)
Language : Spanish
Default : No
Forced : No
Original source medium : Blu-ray

Text #34
ID : 48
ID in the original source medium : 4793 (0x12B9)
Format : PGS
Muxing mode : zlib
Codec ID : S_HDMV/PGS
Codec ID/Info : Picture based subtitle format used on BDs/HD-DVDs
Duration : 2 h 2 min
Bit rate : 121 b/s
Frame rate : 0.001 FPS
Count of elements : 8
Stream size : 108 KiB (0%)
Language : Spanish
Default : No
Forced : No
Original source medium : Blu-ray

Text #35
ID : 49
ID in the original source medium : 4794 (0x12BA)
Format : PGS
Muxing mode : zlib
Codec ID : S_HDMV/PGS
Codec ID/Info : Picture based subtitle format used on BDs/HD-DVDs
Duration : 2 h 15 min
Bit rate : 22.4 kb/s
Frame rate : 0.371 FPS
Count of elements : 3014
Stream size : 21.6 MiB (0%)
Language : Spanish
Default : No
Forced : No
Original source medium : Blu-ray

Text #36
ID : 50
ID in the original source medium : 4795 (0x12BB)
Format : PGS
Muxing mode : zlib
Codec ID : S_HDMV/PGS
Codec ID/Info : Picture based subtitle format used on BDs/HD-DVDs
Duration : 2 h 15 min
Bit rate : 17.8 kb/s
Frame rate : 0.330 FPS
Count of elements : 2680
Stream size : 17.2 MiB (0%)
Language : Swedish
Default : No
Forced : No
Original source medium : Blu-ray

Text #37
ID : 51
ID in the original source medium : 4796 (0x12BC)
Format : PGS
Muxing mode : zlib
Codec ID : S_HDMV/PGS
Codec ID/Info : Picture based subtitle format used on BDs/HD-DVDs
Duration : 2 h 15 min
Bit rate : 21.4 kb/s
Frame rate : 0.383 FPS
Count of elements : 3104
Stream size : 20.7 MiB (0%)
Language : Thai
Default : No
Forced : No
Original source medium : Blu-ray

Text #38
ID : 52
ID in the original source medium : 4797 (0x12BD)
Format : PGS
Muxing mode : zlib
Codec ID : S_HDMV/PGS
Codec ID/Info : Picture based subtitle format used on BDs/HD-DVDs
Duration : 2 h 9 min
Bit rate : 26.6 kb/s
Frame rate : 0.398 FPS
Count of elements : 3084
Stream size : 24.6 MiB (0%)
Language : Turkish
Default : No
Forced : No
Original source medium : Blu-ray

Text #39
ID : 53
ID in the original source medium : 4798 (0x12BE)
Format : PGS
Muxing mode : zlib
Codec ID : S_HDMV/PGS
Codec ID/Info : Picture based subtitle format used on BDs/HD-DVDs
Duration : 1 s 981 ms
Bit rate : 83.9 kb/s
Frame rate : 1.010 FPS
Count of elements : 2
Stream size : 20.3 KiB (0%)
Language : Japanese
Default : No
Forced : No
Original source medium : Blu-ray

Menu
00:00:00.000 : en:Chapter 01
00:07:45.923 : en:Chapter 02
00:14:39.670 : en:Chapter 03
00:22:57.167 : en:Chapter 04
00:32:58.226 : en:Chapter 05
00:41:25.065 : en:Chapter 06
00:48:42.377 : en:Chapter 07
00:55:10.932 : en:Chapter 08
01:03:17.293 : en:Chapter 09
01:12:28.719 : en:Chapter 10
01:17:51.750 : en:Chapter 11
01:24:38.656 : en:Chapter 12
01:34:04.388 : en:Chapter 13
01:42:59.548 : en:Chapter 14
01:52:16.020 : en:Chapter 15
02:00:52.912 : en:Chapter 16

新种推荐使用qBittorrent、uTorrent等下载软件,有条件的推荐115更好的下载软件!

超凡蜘蛛侠(56.41GB)The.Amazing.Spider-Man.2012.PROPER.2160p.BluRay.REMUX.HEVC.DTS-HD.MA.TrueHD.7.1.Atmos-FGT-【2160P蓝光REMUX】
游客,如果您要查看本帖隐藏内容请回复




4Q211826fxv4qxz856xz6dxv.gif

上一篇:蜘蛛侠3 [简繁中字] / Spider-Man 3 (2007) 4K蓝光REMUX版本
下一篇:超凡蜘蛛侠2 / The Amazing Spider-Man 2 (2014) 4K蓝光REMUX版本
回复

使用道具 举报

0

主题

1

帖子

6

积分

新手上路

Rank: 1

积分
6
发表于 2022-12-22 10:12:20 | 显示全部楼层
LJTLJTLJT
回复

使用道具 举报

0

主题

3

帖子

18

积分

新手上路

Rank: 1

积分
18
发表于 2022-12-22 11:50:56 | 显示全部楼层
试试看
回复

使用道具 举报

0

主题

1

帖子

6

积分

新手上路

Rank: 1

积分
6
发表于 昨天 22:31 来自手机 | 显示全部楼层
6661111111111111
回复 支持 反对

使用道具 举报

您需要登录后才可以回帖 登录 | 立即注册

本版积分规则

精彩图文
Archiver|手机版|TAG|Sitemap|新帖|专题|联系我们:邮箱: 4kjia.com@gmail.com   

4k家园   ©2019