[4K UHD 蓝光原盘] 超凡蜘蛛侠2 / The Amazing Spider-Man 2 (2014) 4K蓝光REMUX版本

[复制链接]

主题

帖子

0

积分

超级版主

Rank: 8Rank: 8

积分
0
 楼主| 发表于 2022-12-18 10:30:39 | 显示全部楼层 |阅读模式
本帖最后由 没完没了 于 2022-12-18 11:45 编辑

超凡蜘蛛侠2.png

◎译  名 超凡蜘蛛侠2/蜘蛛人惊奇再起2:电光之战(台)/蜘蛛侠2 : 决战电魔(港)/超凡蜘蛛侠2:电光人崛起
◎片  名 The Amazing Spider-Man 2
◎年  代 2014
◎国  家 美国
◎类  别 动作/冒险
◎语  言 英语
◎上映日期 2014-05-02(美国)/2014-05-04(中国大陆)
◎IMDb评分 6.6/10 from 499487 users 更新 : 2022-12-16
◎IMDb链接 http://www.imdb.com/title/tt1872181/
◎豆瓣评分 7.7/10 from 282804 users 更新 : 2022-12-18
◎豆瓣链接 https://movie.douban.com/subject/6082518/
◎片  长 142分钟
◎整理链接 https://www.uump4.net
◎导  演 马克·韦布 Marc Webb
◎主  演 安德鲁·加菲尔德 Andrew Garfield
       艾玛·斯通 Emma Stone
       杰米·福克斯 Jamie Foxx
       戴恩·德哈恩 Dane DeHaan
       坎贝尔·斯科特 Campbell Scott
       艾伯丝·戴维兹 Embeth Davidtz
       科鲁姆·费奥瑞 Colm Feore
       保罗·吉亚玛提 Paul Giamatti
       莎莉·菲尔德 Sally Field
       克里斯·泽尔卡 Chris Zylka
       丹尼斯·利瑞 Denis Leary
       弗兰克·迪尔 Frank Deal
       马尔顿·索克斯 Marton Csokas
       斯坦·李 Stan Lee
       麦克斯·查尔斯 Max Charles
       费莉西蒂·琼斯 Felicity Jones

◎简  介

  能力越大,责任越大。蜘蛛侠彼得·帕克(安德鲁·加菲尔德 Andrew Garfield 饰)在全力和犯罪、灾难做斗争的同时,终于迎来了毕业的时刻。可是曾经的一段心结,让他和女友格温·斯坦西(艾玛·斯通 Emma Stone 饰)的关系降至冰点。格温应聘于为全城提供电力的 奥斯本集团公司,同一期间发生的两件事,不由得左右这家公司和彼得等人的命运。奥斯本的掌门人病故,他的儿子哈利(戴恩·德哈恩 Dane DeHaan 饰)以20岁的年龄接受这家市值2000亿美元的巨无霸。另一方面,极度崇拜蜘蛛侠的电力工程师麦克斯·威尔·迪伦(杰米·福克斯 Jamie Foxx 饰)在维修机组时意外身亡,当他再度醒来时发现自己变成了全身充满电能的超人类。
  感到受了欺骗的麦克斯与蜘蛛侠在时代广场展开对决,而彼得和哈利的友情也将遭到命运的戏弄……

◎获奖情况

  第42届动画安妮奖  (2015)
  最佳真人电影动画效果(提名)

  第16届美国青少年选择奖  (2014)
  最佳科幻/奇幻电影(提名)
  最佳科幻/奇幻电影男演员(提名) 安德鲁·加菲尔德
  最佳科幻/奇幻电影女演员(提名) 艾玛·斯通
  最佳电影反派(提名) 杰米·福克斯
  最佳电影吻戏(提名) 艾玛·斯通 / 安德鲁·加菲尔德

  第1届豆瓣电影年度榜单  (2014)
  5月最受关注电影(提名)

Video
ID : 1
ID in the original source medium : 4113 (0x1011)
Format : HEVC
Format/Info : High Efficiency Video Coding
Format profile : Main 10@L5.1@High
HDR format : SMPTE ST 2086, HDR10 compatible
Codec ID : V_MPEGH/ISO/HEVC
Duration : 2 h 21 min
Bit rate : 48.5 Mb/s
Width : 3 840 pixels
Height : 2 160 pixels
Display aspect ratio : 16:9
Frame rate mode : Constant
Frame rate : 23.976 (24000/1001) FPS
Color space : YUV
Chroma subsampling : 4:2:0 (Type 2)
Bit depth : 10 bits
Bits/(Pixel*Frame) : 0.244
Stream size : 48.0 GiB (79%)
Language : English
Default : No
Forced : No
Color range : Limited
Color primaries : BT.2020
Transfer characteristics : PQ
Matrix coefficients : BT.2020 non-constant
Mastering display color primaries : Display P3
Mastering display luminance : min: 0.0050 cd/m2, max: 4000 cd/m2
Maximum Content Light Level : 1977 cd/m2
Maximum Frame-Average Light Level : 1112 cd/m2
Original source medium : Blu-ray

Audio #1
ID : 2
ID in the original source medium : 4352 (0x1100)
Format : MLP FBA 16-ch
Format/Info : Meridian Lossless Packing FBA with 16-channel presentation
Commercial name : Dolby TrueHD with Dolby Atmos
Codec ID : A_TRUEHD
Duration : 2 h 21 min
Bit rate mode : Variable
Bit rate : 4 396 kb/s
Maximum bit rate : 7 680 kb/s
Channel(s) : 8 channels
Channel layout : L R C LFE Ls Rs Lb Rb
Sampling rate : 48.0 kHz
Frame rate : 1 200.000 FPS (40 SPF)
Bit depth : 24 bits
Compression mode : Lossless
Stream size : 4.35 GiB (7%)
Title : TrueHD 7.1 Atmos
Language : English
Default : Yes
Forced : No
Original source medium : Blu-ray
Number of dynamic objects : 11
Bed channel count : 1 channel
Bed channel configuration : LFE

Audio #2
ID : 3
Format : DTS XLL
Format/Info : Digital Theater Systems
Commercial name : DTS-HD Master Audio
Codec ID : A_DTS
Duration : 2 h 21 min
Bit rate mode : Variable
Bit rate : 3 923 kb/s
Channel(s) : 8 channels
Channel layout : C L R LFE Lb Rb Lss Rss
Sampling rate : 48.0 kHz
Frame rate : 93.750 FPS (512 SPF)
Bit depth : 24 bits
Compression mode : Lossless
Stream size : 3.88 GiB (6%)
Title : DTS-HD MA 7.1
Language : English
Default : No
Forced : No

Audio #3
ID : 4
ID in the original source medium : 4352 (0x1100)
Format : AC-3
Format/Info : Audio Coding 3
Commercial name : Dolby Digital
Codec ID : A_AC3
Duration : 2 h 21 min
Bit rate mode : Constant
Bit rate : 640 kb/s
Channel(s) : 6 channels
Channel layout : L R C LFE Ls Rs
Sampling rate : 48.0 kHz
Frame rate : 31.250 FPS (1536 SPF)
Compression mode : Lossy
Stream size : 648 MiB (1%)
Title : DD 5.1
Language : English
Service kind : Complete Main
Default : No
Forced : No
Original source medium : Blu-ray

Audio #4
ID : 5
ID in the original source medium : 4353 (0x1101)
Format : AC-3
Format/Info : Audio Coding 3
Commercial name : Dolby Digital
Codec ID : A_AC3
Duration : 2 h 21 min
Bit rate mode : Constant
Bit rate : 448 kb/s
Channel(s) : 6 channels
Channel layout : L R C LFE Ls Rs
Sampling rate : 48.0 kHz
Frame rate : 31.250 FPS (1536 SPF)
Compression mode : Lossy
Stream size : 454 MiB (1%)
Title : DD 5.1
Language : English
Service kind : Complete Main
Default : No
Forced : No
Original source medium : Blu-ray

Audio #5
ID : 6
ID in the original source medium : 4354 (0x1102)
Format : DTS XLL
Format/Info : Digital Theater Systems
Commercial name : DTS-HD Master Audio
Codec ID : A_DTS
Duration : 2 h 21 min
Bit rate mode : Variable
Bit rate : 2 365 kb/s
Channel(s) : 6 channels
Channel layout : C L R Ls Rs LFE
Sampling rate : 48.0 kHz
Frame rate : 93.750 FPS (512 SPF)
Bit depth : 16 bits
Compression mode : Lossless
Stream size : 2.34 GiB (4%)
Title : DTS-HD MA 5.1
Language : French
Default : No
Forced : No
Original source medium : Blu-ray

Audio #6
ID : 7
ID in the original source medium : 4355 (0x1103)
Format : AC-3
Format/Info : Audio Coding 3
Commercial name : Dolby Digital
Codec ID : A_AC3
Duration : 2 h 21 min
Bit rate mode : Constant
Bit rate : 640 kb/s
Channel(s) : 6 channels
Channel layout : L R C LFE Ls Rs
Sampling rate : 48.0 kHz
Frame rate : 31.250 FPS (1536 SPF)
Compression mode : Lossy
Stream size : 648 MiB (1%)
Title : DD 5.1
Language : Spanish
Service kind : Complete Main
Default : No
Forced : No
Original source medium : Blu-ray

Audio #7
ID : 8
ID in the original source medium : 4356 (0x1104)
Format : AC-3
Format/Info : Audio Coding 3
Commercial name : Dolby Digital
Format settings : Dolby Surround
Codec ID : A_AC3
Duration : 2 h 21 min
Bit rate mode : Constant
Bit rate : 192 kb/s
Channel(s) : 2 channels
Channel layout : L R
Sampling rate : 48.0 kHz
Frame rate : 31.250 FPS (1536 SPF)
Compression mode : Lossy
Stream size : 194 MiB (0%)
Title : DD 2.0
Language : English
Service kind : Complete Main
Default : No
Forced : No
Original source medium : Blu-ray

Text #1
ID : 9
Format : UTF-8
Codec ID : S_TEXT/UTF8
Codec ID/Info : UTF-8 Plain Text
Duration : 2 h 16 min
Bit rate : 58 b/s
Frame rate : 0.225 FPS
Count of elements : 1842
Stream size : 58.8 KiB (0%)
Language : English
Default : Yes
Forced : No

Text #2
ID : 10
Format : UTF-8
Codec ID : S_TEXT/UTF8
Codec ID/Info : UTF-8 Plain Text
Duration : 2 h 19 min
Bit rate : 61 b/s
Frame rate : 0.255 FPS
Count of elements : 2143
Stream size : 62.7 KiB (0%)
Title : SDH
Language : English
Default : No
Forced : No

Text #3
ID : 11
ID in the original source medium : 4768 (0x12A0)
Format : PGS
Muxing mode : zlib
Codec ID : S_HDMV/PGS
Codec ID/Info : Picture based subtitle format used on BDs/HD-DVDs
Duration : 2 h 19 min
Bit rate : 25.7 kb/s
Frame rate : 0.511 FPS
Count of elements : 4287
Stream size : 25.7 MiB (0%)
Language : English
Default : No
Forced : No
Original source medium : Blu-ray

Text #4
ID : 12
ID in the original source medium : 4769 (0x12A1)
Format : PGS
Muxing mode : zlib
Codec ID : S_HDMV/PGS
Codec ID/Info : Picture based subtitle format used on BDs/HD-DVDs
Duration : 2 h 10 min
Bit rate : 32.1 kb/s
Frame rate : 0.431 FPS
Count of elements : 3375
Stream size : 29.9 MiB (0%)
Title : SDH
Language : English
Default : No
Forced : No
Original source medium : Blu-ray

Text #5
ID : 13
ID in the original source medium : 4770 (0x12A2)
Format : PGS
Muxing mode : zlib
Codec ID : S_HDMV/PGS
Codec ID/Info : Picture based subtitle format used on BDs/HD-DVDs
Duration : 2 h 20 min
Bit rate : 24.5 kb/s
Frame rate : 0.372 FPS
Count of elements : 3135
Stream size : 24.7 MiB (0%)
Language : French
Default : No
Forced : No
Original source medium : Blu-ray

Text #6
ID : 14
ID in the original source medium : 4771 (0x12A3)
Format : PGS
Muxing mode : zlib
Codec ID : S_HDMV/PGS
Codec ID/Info : Picture based subtitle format used on BDs/HD-DVDs
Duration : 2 h 20 min
Bit rate : 27.0 kb/s
Frame rate : 0.405 FPS
Count of elements : 3416
Stream size : 27.1 MiB (0%)
Language : Spanish
Default : No
Forced : No
Original source medium : Blu-ray

Text #7
ID : 15
ID in the original source medium : 4771 (0x12A3)
Format : PGS
Muxing mode : zlib
Codec ID : S_HDMV/PGS
Codec ID/Info : Picture based subtitle format used on BDs/HD-DVDs
Duration : 1 h 43 min
Bit rate : 163 b/s
Frame rate : 0.003 FPS
Count of elements : 16
Stream size : 124 KiB (0%)
Language : Spanish
Default : No
Forced : No
Original source medium : Blu-ray

Text #8
ID : 16
ID in the original source medium : 4772 (0x12A4)
Format : PGS
Muxing mode : zlib
Codec ID : S_HDMV/PGS
Codec ID/Info : Picture based subtitle format used on BDs/HD-DVDs
Duration : 2 h 20 min
Bit rate : 65.3 kb/s
Frame rate : 0.662 FPS
Count of elements : 5582
Stream size : 65.7 MiB (0%)
Title : COMMENTARY
Language : English
Default : No
Forced : No
Original source medium : Blu-ray

Text #9
ID : 17
ID in the original source medium : 4773 (0x12A5)
Format : PGS
Muxing mode : zlib
Codec ID : S_HDMV/PGS
Codec ID/Info : Picture based subtitle format used on BDs/HD-DVDs
Duration : 2 h 20 min
Bit rate : 56.2 kb/s
Frame rate : 0.665 FPS
Count of elements : 5606
Stream size : 56.5 MiB (0%)
Title : COMMENTARY
Language : Spanish
Default : No
Forced : No
Original source medium : Blu-ray

Menu
00:00:00.000 : en:Chapter 01
00:07:05.007 : en:Chapter 02
00:14:28.200 : en:Chapter 03
00:20:13.837 : en:Chapter 04
00:29:27.098 : en:Chapter 05
00:39:02.590 : en:Chapter 06
00:50:56.553 : en:Chapter 07
00:59:52.755 : en:Chapter 08
01:08:53.129 : en:Chapter 09
01:16:20.117 : en:Chapter 10
01:25:27.705 : en:Chapter 11
01:35:23.259 : en:Chapter 12
01:41:29.958 : en:Chapter 13
01:49:18.343 : en:Chapter 14
01:57:00.346 : en:Chapter 15
02:04:44.351 : en:Chapter 16

新种推荐使用qBittorrent、uTorrent等下载软件,有条件的推荐115更好的下载软件!

超凡蜘蛛侠2(60.60GB)The.Amazing.Spider-Man.2.2014.PROPER.2160p.BluRay.REMUX.HEVC.DTS-HD.MA.TrueHD.7.1.Atmos-FGT-【2160P蓝光REMUX】
游客,如果您要查看本帖隐藏内容请回复






4Q211826fxv4qxz856xz6dxv.gif

上一篇:超凡蜘蛛侠[简繁中字] (2012)4K蓝光REMUX版本下载
下一篇:蜘蛛侠:英雄归来[简繁中字] (2017) 4K蓝光REMUX版本下载
回复

使用道具 举报

0

主题

3

帖子

18

积分

新手上路

Rank: 1

积分
18
发表于 2022-12-22 11:51:54 | 显示全部楼层
SHSHI
回复

使用道具 举报

0

主题

2

帖子

15

积分

4K家园VIP

Rank: 9Rank: 9Rank: 9

积分
15
发表于 2023-1-22 23:12:17 来自手机 | 显示全部楼层
走开走开
回复

使用道具 举报

0

主题

2

帖子

15

积分

4K家园VIP

Rank: 9Rank: 9Rank: 9

积分
15
发表于 2023-1-22 23:12:32 来自手机 | 显示全部楼层
大喊大叫
回复

使用道具 举报

您需要登录后才可以回帖 登录 | 立即注册

本版积分规则

精彩图文
Archiver|手机版|TAG|Sitemap|新帖|专题|联系我们:邮箱: 4kjia.com@gmail.com   

4k家园   ©2019