[4K UHD 蓝光原盘] 蜘蛛侠:英雄远征[简繁中字] (2019) 4K蓝光REMUX版本下载

[复制链接]

主题

帖子

0

积分

超级版主

Rank: 8Rank: 8

积分
0
 楼主| 发表于 2022-12-18 10:44:14 | 显示全部楼层 |阅读模式
本帖最后由 没完没了 于 2022-12-18 11:37 编辑

蜘蛛侠:英雄远征.png

◎译  名 蜘蛛侠:英雄远征/新蜘蛛侠2/蜘蛛侠:决战千里(港)/蜘蛛侠:归来2/蜘蛛侠:离家日(台)/蜘蛛侠:英雄归来2/蜘蛛侠:远离故乡/蜘蛛侠2/蜘蛛侠2:离家出走(豆友译名)/蜘蛛侠2:英雄离乡/蜘蛛侠2:远离家乡
◎片  名 Spider-Man: Far from Home
◎年  代 2019
◎产  地 美国
◎类  别 动作 / 科幻 / 冒险
◎语  言 英语
◎上映日期 2019-06-28(中国大陆) / 2019-07-02(美国)
◎IMDb评分 7.4/10 from 492222 users 更新 : 2022-12-15
◎IMDb链接 https://www.imdb.com/title/tt6320628/
◎豆瓣评分 7.6/10 from 573731 users 更新 : 2022-12-18
◎豆瓣链接 https://movie.douban.com/subject/26931786/
◎片  长 127分钟
◎导  演 乔·沃茨 Jon Watts
◎编  剧 克里斯·麦克纳 Chris McKenna / 埃里克·萨默斯 Erik Sommers / 史蒂夫·迪特寇 Steve Ditko / 斯坦·李 Stan Lee
◎主  演 汤姆·赫兰德 Tom Holland
       赞达亚 Zendaya
       杰克·吉伦哈尔 Jake Gyllenhaal
       寇碧·史莫德斯 Cobie Smulders
       塞缪尔·杰克逊 Samuel L. Jackson
       乔恩·费儒 Jon Favreau
       玛丽莎·托梅 Marisa Tomei
       雅各布·巴特朗 Jacob Batalon
       安格瑞·赖斯 Angourie Rice
       马丁·斯塔尔 Martin Starr
       瑞米·海依 Remy Hii
       纽曼·阿卡 Numan Acar
       托尼·雷沃罗利 Tony Revolori
       J·B·斯穆夫 J.B. Smoove
       赫米基·马德拉 Hemky Madera
       戴维娜·西塔拉姆 Davina Sitaram
       约瑟夫·朗 Joseph Long
       露丝·霍洛克斯 Ruth Horrocks
       哈廷·帕特尔 Hiten Patel
       杰罗恩·凡·康宁斯伯格 Jeroen van Koningsbrugge
       莱昂尼斯·德洛桑托斯 Leonys Delossantos
       查利·蕾娅·埃斯奎尔 Charlie Rhea Esquér
       费斯·洛根 Faith Logan
       J·K·西蒙斯 J.K. Simmons
       小罗伯特·唐尼 Robert Downey Jr.


◎简  介

  在复仇者联盟众英雄的努力下,于灭霸无限手套事件中化作为灰烬的人们,重新回到了人世间,曾经消失的蜘蛛侠 彼得帕克 也回归到了普通的生活之中,数月后,蜘蛛侠彼得帕克所在的学校举行了欧洲旅游,帕克也在其中, 在欧州威尼斯旅行时,一个巨大无比的水怪袭击了威尼斯,不敌敌人的蜘蛛侠幸得一位自称神秘客的男子搭救才击退敌人,之后 神盾局局长找上正在旅游的彼得帕克并要求其加入神盾局,并安排神秘客协助帕克,神秘客自称来自其他宇宙,并告知一群名为元素众的邪恶势力已经入侵这个宇宙了,为了守护来之不易的和平,蜘蛛侠决定与神秘客联手,然而在神秘客那头罩之中,似乎隐藏着什么不为人知的真相……

◎获奖情况

  第5届豆瓣电影年度榜单  (2018)
  最值得期待的外语电影(提名)
Video
ID : 1
ID in the original source medium : 4113 (0x1011)
Format : HEVC
Format/Info : High Efficiency Video Coding
Format profile : Main 10@L5.1@High
HDR format : Dolby Vision, Version 1.0, dvhe.07.06, BL+EL+RPU, Blu-ray compatible / SMPTE ST 2086, HDR10 compatible
Codec ID : V_MPEGH/ISO/HEVC
Duration : 2 h 9 min
Bit rate : 55.8 Mb/s
Width : 3 840 pixels
Height : 2 160 pixels
Display aspect ratio : 16:9
Frame rate mode : Constant
Frame rate : 23.976 (24000/1001) FPS
Color space : YUV
Chroma subsampling : 4:2:0 (Type 2)
Bit depth : 10 bits
Bits/(Pixel*Frame) : 0.280
Stream size : 50.4 GiB (74%)
Language : English
Default : No
Forced : No
Color range : Limited
Color primaries : BT.2020
Transfer characteristics : PQ
Matrix coefficients : BT.2020 non-constant
Mastering display color primaries : Display P3
Mastering display luminance : min: 0.0001 cd/m2, max: 1000 cd/m2
Maximum Content Light Level : 9978 cd/m2
Maximum Frame-Average Light Level : 614 cd/m2
Original source medium : Blu-ray

Audio #1
ID : 2
ID in the original source medium : 4352 (0x1100)
Format : MLP FBA 16-ch
Format/Info : Meridian Lossless Packing FBA with 16-channel presentation
Commercial name : Dolby TrueHD with Dolby Atmos
Codec ID : A_TRUEHD
Duration : 2 h 9 min
Bit rate mode : Variable
Bit rate : 3 077 kb/s
Maximum bit rate : 5 397 kb/s
Channel(s) : 8 channels
Channel layout : L R C LFE Ls Rs Lb Rb
Sampling rate : 48.0 kHz
Frame rate : 1 200.000 FPS (40 SPF)
Bit depth : 24 bits
Compression mode : Lossless
Stream size : 2.78 GiB (4%)
Title : Surround 7.1
Language : English
Default : Yes
Forced : No
Original source medium : Blu-ray
Number of dynamic objects : 11
Bed channel count : 1 channel
Bed channel configuration : LFE

Audio #2
ID : 3
Format : DTS XLL
Format/Info : Digital Theater Systems
Commercial name : DTS-HD Master Audio
Codec ID : A_DTS
Duration : 2 h 9 min
Bit rate mode : Variable
Bit rate : 4 344 kb/s
Channel(s) : 8 channels
Channel layout : C L R LFE Lb Rb Lss Rss
Sampling rate : 48.0 kHz
Frame rate : 93.750 FPS (512 SPF)
Bit depth : 24 bits
Compression mode : Lossless
Stream size : 3.93 GiB (6%)
Title : DTS-HD MA 7.1
Language : English
Default : No
Forced : No

Audio #3
ID : 4
ID in the original source medium : 4352 (0x1100)
Format : AC-3
Format/Info : Audio Coding 3
Commercial name : Dolby Digital
Codec ID : A_AC3
Duration : 2 h 9 min
Bit rate mode : Constant
Bit rate : 640 kb/s
Channel(s) : 6 channels
Channel layout : L R C LFE Ls Rs
Sampling rate : 48.0 kHz
Frame rate : 31.250 FPS (1536 SPF)
Compression mode : Lossy
Stream size : 592 MiB (1%)
Title : DD 5.1
Language : English
Service kind : Complete Main
Default : No
Forced : No
Original source medium : Blu-ray

Audio #4
ID : 5
ID in the original source medium : 4353 (0x1101)
Format : AC-3
Format/Info : Audio Coding 3
Commercial name : Dolby Digital
Codec ID : A_AC3
Duration : 2 h 9 min
Bit rate mode : Constant
Bit rate : 640 kb/s
Channel(s) : 6 channels
Channel layout : L R C LFE Ls Rs
Sampling rate : 48.0 kHz
Frame rate : 31.250 FPS (1536 SPF)
Compression mode : Lossy
Stream size : 592 MiB (1%)
Title : DD 5.1
Language : English
Service kind : Complete Main
Default : No
Forced : No
Original source medium : Blu-ray

Audio #5
ID : 6
ID in the original source medium : 4354 (0x1102)
Format : AC-3
Format/Info : Audio Coding 3
Commercial name : Dolby Digital
Codec ID : A_AC3
Duration : 2 h 9 min
Bit rate mode : Constant
Bit rate : 640 kb/s
Channel(s) : 6 channels
Channel layout : L R C LFE Ls Rs
Sampling rate : 48.0 kHz
Frame rate : 31.250 FPS (1536 SPF)
Compression mode : Lossy
Stream size : 592 MiB (1%)
Title : DD 5.1
Language : Czech
Service kind : Complete Main
Default : No
Forced : No
Original source medium : Blu-ray

Audio #6
ID : 7
ID in the original source medium : 4355 (0x1103)
Format : AC-3
Format/Info : Audio Coding 3
Commercial name : Dolby Digital
Codec ID : A_AC3
Duration : 2 h 9 min
Bit rate mode : Constant
Bit rate : 640 kb/s
Channel(s) : 6 channels
Channel layout : L R C LFE Ls Rs
Sampling rate : 48.0 kHz
Frame rate : 31.250 FPS (1536 SPF)
Compression mode : Lossy
Stream size : 592 MiB (1%)
Title : DD 5.1
Language : French
Service kind : Complete Main
Default : No
Forced : No
Original source medium : Blu-ray

Audio #7
ID : 8
ID in the original source medium : 4356 (0x1104)
Format : AC-3
Format/Info : Audio Coding 3
Commercial name : Dolby Digital
Codec ID : A_AC3
Duration : 2 h 9 min
Bit rate mode : Constant
Bit rate : 640 kb/s
Channel(s) : 6 channels
Channel layout : L R C LFE Ls Rs
Sampling rate : 48.0 kHz
Frame rate : 31.250 FPS (1536 SPF)
Compression mode : Lossy
Stream size : 592 MiB (1%)
Title : DD 5.1
Language : French
Service kind : Complete Main
Default : No
Forced : No
Original source medium : Blu-ray

Audio #8
ID : 9
ID in the original source medium : 4357 (0x1105)
Format : AC-3
Format/Info : Audio Coding 3
Commercial name : Dolby Digital
Codec ID : A_AC3
Duration : 2 h 9 min
Bit rate mode : Constant
Bit rate : 640 kb/s
Channel(s) : 6 channels
Channel layout : L R C LFE Ls Rs
Sampling rate : 48.0 kHz
Frame rate : 31.250 FPS (1536 SPF)
Compression mode : Lossy
Stream size : 592 MiB (1%)
Title : DD 5.1
Language : Hindi
Service kind : Complete Main
Default : No
Forced : No
Original source medium : Blu-ray

Audio #9
ID : 10
ID in the original source medium : 4358 (0x1106)
Format : AC-3
Format/Info : Audio Coding 3
Commercial name : Dolby Digital
Codec ID : A_AC3
Duration : 2 h 9 min
Bit rate mode : Constant
Bit rate : 640 kb/s
Channel(s) : 6 channels
Channel layout : L R C LFE Ls Rs
Sampling rate : 48.0 kHz
Frame rate : 31.250 FPS (1536 SPF)
Compression mode : Lossy
Stream size : 592 MiB (1%)
Title : DD 5.1
Language : Hungarian
Service kind : Complete Main
Default : No
Forced : No
Original source medium : Blu-ray

Audio #10
ID : 11
ID in the original source medium : 4359 (0x1107)
Format : AC-3
Format/Info : Audio Coding 3
Commercial name : Dolby Digital
Codec ID : A_AC3
Duration : 2 h 9 min
Bit rate mode : Constant
Bit rate : 640 kb/s
Channel(s) : 6 channels
Channel layout : L R C LFE Ls Rs
Sampling rate : 48.0 kHz
Frame rate : 31.250 FPS (1536 SPF)
Compression mode : Lossy
Stream size : 592 MiB (1%)
Title : DD 5.1
Language : Polish
Service kind : Complete Main
Default : No
Forced : No
Original source medium : Blu-ray

Audio #11
ID : 12
ID in the original source medium : 4360 (0x1108)
Format : DTS XLL
Format/Info : Digital Theater Systems
Commercial name : DTS-HD Master Audio
Codec ID : A_DTS
Duration : 2 h 9 min
Bit rate mode : Variable
Bit rate : 2 361 kb/s
Channel(s) : 6 channels
Channel layout : C L R Ls Rs LFE
Sampling rate : 48.0 kHz
Frame rate : 93.750 FPS (512 SPF)
Bit depth : 16 bits
Compression mode : Lossless
Stream size : 2.13 GiB (3%)
Title : DTS-HD MA 5.1
Language : Portuguese
Default : No
Forced : No
Original source medium : Blu-ray

Audio #12
ID : 13
ID in the original source medium : 4361 (0x1109)
Format : AC-3
Format/Info : Audio Coding 3
Commercial name : Dolby Digital
Codec ID : A_AC3
Duration : 2 h 9 min
Bit rate mode : Constant
Bit rate : 640 kb/s
Channel(s) : 6 channels
Channel layout : L R C LFE Ls Rs
Sampling rate : 48.0 kHz
Frame rate : 31.250 FPS (1536 SPF)
Compression mode : Lossy
Stream size : 592 MiB (1%)
Title : DD 5.1
Language : Slovak
Service kind : Complete Main
Default : No
Forced : No
Original source medium : Blu-ray

Audio #13
ID : 14
ID in the original source medium : 4362 (0x110A)
Format : AC-3
Format/Info : Audio Coding 3
Commercial name : Dolby Digital
Codec ID : A_AC3
Duration : 2 h 9 min
Bit rate mode : Constant
Bit rate : 640 kb/s
Channel(s) : 6 channels
Channel layout : L R C LFE Ls Rs
Sampling rate : 48.0 kHz
Frame rate : 31.250 FPS (1536 SPF)
Compression mode : Lossy
Stream size : 592 MiB (1%)
Title : DD 5.1
Language : Spanish
Service kind : Complete Main
Default : No
Forced : No
Original source medium : Blu-ray

Audio #14
ID : 15
ID in the original source medium : 4363 (0x110B)
Format : AC-3
Format/Info : Audio Coding 3
Commercial name : Dolby Digital
Codec ID : A_AC3
Duration : 2 h 9 min
Bit rate mode : Constant
Bit rate : 640 kb/s
Channel(s) : 6 channels
Channel layout : L R C LFE Ls Rs
Sampling rate : 48.0 kHz
Frame rate : 31.250 FPS (1536 SPF)
Compression mode : Lossy
Stream size : 592 MiB (1%)
Title : DD 5.1
Language : Tamil
Service kind : Complete Main
Default : No
Forced : No
Original source medium : Blu-ray

Audio #15
ID : 16
ID in the original source medium : 4364 (0x110C)
Format : AC-3
Format/Info : Audio Coding 3
Commercial name : Dolby Digital
Codec ID : A_AC3
Duration : 2 h 9 min
Bit rate mode : Constant
Bit rate : 640 kb/s
Channel(s) : 6 channels
Channel layout : L R C LFE Ls Rs
Sampling rate : 48.0 kHz
Frame rate : 31.250 FPS (1536 SPF)
Compression mode : Lossy
Stream size : 592 MiB (1%)
Title : DD 5.1
Language : Telugu
Service kind : Complete Main
Default : No
Forced : No
Original source medium : Blu-ray

Audio #16
ID : 17
ID in the original source medium : 4365 (0x110D)
Format : AC-3
Format/Info : Audio Coding 3
Commercial name : Dolby Digital
Codec ID : A_AC3
Duration : 2 h 9 min
Bit rate mode : Constant
Bit rate : 640 kb/s
Channel(s) : 6 channels
Channel layout : L R C LFE Ls Rs
Sampling rate : 48.0 kHz
Frame rate : 31.250 FPS (1536 SPF)
Compression mode : Lossy
Stream size : 592 MiB (1%)
Title : DD 5.1
Language : Thai
Service kind : Complete Main
Default : No
Forced : No
Original source medium : Blu-ray

Audio #17
ID : 18
ID in the original source medium : 4366 (0x110E)
Format : AC-3
Format/Info : Audio Coding 3
Commercial name : Dolby Digital
Codec ID : A_AC3
Duration : 2 h 9 min
Bit rate mode : Constant
Bit rate : 640 kb/s
Channel(s) : 6 channels
Channel layout : L R C LFE Ls Rs
Sampling rate : 48.0 kHz
Frame rate : 31.250 FPS (1536 SPF)
Compression mode : Lossy
Stream size : 592 MiB (1%)
Title : DD 5.1
Language : Turkish
Service kind : Complete Main
Default : No
Forced : No
Original source medium : Blu-ray

Text #1
ID : 19
Format : UTF-8
Codec ID : S_TEXT/UTF8
Codec ID/Info : UTF-8 Plain Text
Duration : 2 h 7 min
Bit rate : 66 b/s
Frame rate : 0.226 FPS
Count of elements : 1735
Stream size : 62.2 KiB (0%)
Language : English
Default : Yes
Forced : No

Text #2
ID : 20
Format : UTF-8
Codec ID : S_TEXT/UTF8
Codec ID/Info : UTF-8 Plain Text
Duration : 2 h 8 min
Bit rate : 67 b/s
Frame rate : 0.241 FPS
Count of elements : 1855
Stream size : 63.8 KiB (0%)
Title : SDH
Language : English
Default : No
Forced : No

Text #3
ID : 21
ID in the original source medium : 4768 (0x12A0)
Format : PGS
Muxing mode : zlib
Codec ID : S_HDMV/PGS
Codec ID/Info : Picture based subtitle format used on BDs/HD-DVDs
Duration : 2 h 8 min
Bit rate : 42.1 kb/s
Frame rate : 0.502 FPS
Count of elements : 3858
Stream size : 38.6 MiB (0%)
Language : English
Default : No
Forced : No
Original source medium : Blu-ray

Text #4
ID : 22
ID in the original source medium : 4769 (0x12A1)
Format : PGS
Muxing mode : zlib
Codec ID : S_HDMV/PGS
Codec ID/Info : Picture based subtitle format used on BDs/HD-DVDs
Duration : 2 h 7 min
Bit rate : 38.9 kb/s
Frame rate : 0.450 FPS
Count of elements : 3450
Stream size : 35.5 MiB (0%)
Language : English
Default : No
Forced : No
Original source medium : Blu-ray

Text #5
ID : 23
ID in the original source medium : 4770 (0x12A2)
Format : PGS
Muxing mode : zlib
Codec ID : S_HDMV/PGS
Codec ID/Info : Picture based subtitle format used on BDs/HD-DVDs
Duration : 2 h 7 min
Bit rate : 38.9 kb/s
Frame rate : 0.452 FPS
Count of elements : 3466
Stream size : 35.6 MiB (0%)
Language : English
Default : No
Forced : No
Original source medium : Blu-ray

Text #6
ID : 24
ID in the original source medium : 4771 (0x12A3)
Format : PGS
Muxing mode : zlib
Codec ID : S_HDMV/PGS
Codec ID/Info : Picture based subtitle format used on BDs/HD-DVDs
Duration : 2 h 8 min
Bit rate : 20.2 kb/s
Frame rate : 0.447 FPS
Count of elements : 3446
Stream size : 18.6 MiB (0%)
Language : Arabic
Default : No
Forced : No
Original source medium : Blu-ray

Text #7
ID : 25
ID in the original source medium : 4772 (0x12A4)
Format : PGS
Muxing mode : zlib
Codec ID : S_HDMV/PGS
Codec ID/Info : Picture based subtitle format used on BDs/HD-DVDs
Duration : 2 h 8 min
Bit rate : 34.7 kb/s
Frame rate : 0.444 FPS
Count of elements : 3424
Stream size : 31.9 MiB (0%)
Language : Bulgarian
Default : No
Forced : No
Original source medium : Blu-ray

Text #8
ID : 26
ID in the original source medium : 4773 (0x12A5)
Format : PGS
Muxing mode : zlib
Codec ID : S_HDMV/PGS
Codec ID/Info : Picture based subtitle format used on BDs/HD-DVDs
Duration : 2 h 8 min
Bit rate : 31.5 kb/s
Frame rate : 0.449 FPS
Count of elements : 3460
Stream size : 29.0 MiB (0%)
Language : 简体
Default : No
Forced : No
Original source medium : Blu-ray

Text #9
ID : 27
ID in the original source medium : 4774 (0x12A6)
Format : PGS
Muxing mode : zlib
Codec ID : S_HDMV/PGS
Codec ID/Info : Picture based subtitle format used on BDs/HD-DVDs
Duration : 2 h 8 min
Bit rate : 32.7 kb/s
Frame rate : 0.448 FPS
Count of elements : 3454
Stream size : 30.1 MiB (0%)
Language : 繁体
Default : No
Forced : No
Original source medium : Blu-ray

Text #10
ID : 28
ID in the original source medium : 4775 (0x12A7)
Format : PGS
Muxing mode : zlib
Codec ID : S_HDMV/PGS
Codec ID/Info : Picture based subtitle format used on BDs/HD-DVDs
Duration : 2 h 8 min
Bit rate : 28.0 kb/s
Frame rate : 0.453 FPS
Count of elements : 3496
Stream size : 25.8 MiB (0%)
Language : Chinese
Default : No
Forced : No
Original source medium : Blu-ray

Text #11
ID : 29
ID in the original source medium : 4776 (0x12A8)
Format : PGS
Muxing mode : zlib
Codec ID : S_HDMV/PGS
Codec ID/Info : Picture based subtitle format used on BDs/HD-DVDs
Duration : 2 h 8 min
Bit rate : 31.3 kb/s
Frame rate : 0.445 FPS
Count of elements : 3436
Stream size : 28.8 MiB (0%)
Language : Croatian
Default : No
Forced : No
Original source medium : Blu-ray

Text #12
ID : 30
ID in the original source medium : 4777 (0x12A9)
Format : PGS
Muxing mode : zlib
Codec ID : S_HDMV/PGS
Codec ID/Info : Picture based subtitle format used on BDs/HD-DVDs
Duration : 2 h 8 min
Bit rate : 34.1 kb/s
Frame rate : 0.436 FPS
Count of elements : 3356
Stream size : 31.3 MiB (0%)
Language : Czech
Default : No
Forced : No
Original source medium : Blu-ray

Text #13
ID : 31
ID in the original source medium : 4778 (0x12AA)
Format : PGS
Muxing mode : zlib
Codec ID : S_HDMV/PGS
Codec ID/Info : Picture based subtitle format used on BDs/HD-DVDs
Duration : 2 h 8 min
Bit rate : 31.6 kb/s
Frame rate : 0.434 FPS
Count of elements : 3348
Stream size : 29.1 MiB (0%)
Language : French
Default : No
Forced : No
Original source medium : Blu-ray

Text #14
ID : 32
ID in the original source medium : 4779 (0x12AB)
Format : PGS
Muxing mode : zlib
Codec ID : S_HDMV/PGS
Codec ID/Info : Picture based subtitle format used on BDs/HD-DVDs
Duration : 2 h 8 min
Bit rate : 37.6 kb/s
Frame rate : 0.446 FPS
Count of elements : 3434
Stream size : 34.5 MiB (0%)
Language : Greek
Default : No
Forced : No
Original source medium : Blu-ray

Text #15
ID : 33
ID in the original source medium : 4780 (0x12AC)
Format : PGS
Muxing mode : zlib
Codec ID : S_HDMV/PGS
Codec ID/Info : Picture based subtitle format used on BDs/HD-DVDs
Duration : 2 h 8 min
Bit rate : 28.4 kb/s
Frame rate : 0.442 FPS
Count of elements : 3414
Stream size : 26.1 MiB (0%)
Language : Hebrew
Default : No
Forced : No
Original source medium : Blu-ray

Text #16
ID : 34
ID in the original source medium : 4781 (0x12AD)
Format : PGS
Muxing mode : zlib
Codec ID : S_HDMV/PGS
Codec ID/Info : Picture based subtitle format used on BDs/HD-DVDs
Duration : 2 h 8 min
Bit rate : 32.9 kb/s
Frame rate : 0.400 FPS
Count of elements : 3082
Stream size : 30.2 MiB (0%)
Language : Hungarian
Default : No
Forced : No
Original source medium : Blu-ray

Text #17
ID : 35
ID in the original source medium : 4782 (0x12AE)
Format : PGS
Muxing mode : zlib
Codec ID : S_HDMV/PGS
Codec ID/Info : Picture based subtitle format used on BDs/HD-DVDs
Duration : 2 h 8 min
Bit rate : 35.1 kb/s
Frame rate : 0.424 FPS
Count of elements : 3270
Stream size : 32.3 MiB (0%)
Language : Icelandic
Default : No
Forced : No
Original source medium : Blu-ray

Text #18
ID : 36
ID in the original source medium : 4783 (0x12AF)
Format : PGS
Muxing mode : zlib
Codec ID : S_HDMV/PGS
Codec ID/Info : Picture based subtitle format used on BDs/HD-DVDs
Duration : 2 h 8 min
Bit rate : 37.8 kb/s
Frame rate : 0.431 FPS
Count of elements : 3326
Stream size : 34.7 MiB (0%)
Language : Indonesian
Default : No
Forced : No
Original source medium : Blu-ray

Text #19
ID : 37
ID in the original source medium : 4784 (0x12B0)
Format : PGS
Muxing mode : zlib
Codec ID : S_HDMV/PGS
Codec ID/Info : Picture based subtitle format used on BDs/HD-DVDs
Duration : 2 h 8 min
Bit rate : 28.6 kb/s
Frame rate : 0.451 FPS
Count of elements : 3482
Stream size : 26.3 MiB (0%)
Language : Korean
Default : No
Forced : No
Original source medium : Blu-ray

Text #20
ID : 38
ID in the original source medium : 4785 (0x12B1)
Format : PGS
Muxing mode : zlib
Codec ID : S_HDMV/PGS
Codec ID/Info : Picture based subtitle format used on BDs/HD-DVDs
Duration : 2 h 8 min
Bit rate : 32.1 kb/s
Frame rate : 0.431 FPS
Count of elements : 3326
Stream size : 29.6 MiB (0%)
Language : Polish
Default : No
Forced : No
Original source medium : Blu-ray

Text #21
ID : 39
ID in the original source medium : 4786 (0x12B2)
Format : PGS
Muxing mode : zlib
Codec ID : S_HDMV/PGS
Codec ID/Info : Picture based subtitle format used on BDs/HD-DVDs
Duration : 2 h 8 min
Bit rate : 34.4 kb/s
Frame rate : 0.434 FPS
Count of elements : 3350
Stream size : 31.6 MiB (0%)
Language : Portuguese
Default : No
Forced : No
Original source medium : Blu-ray

Text #22
ID : 40
ID in the original source medium : 4786 (0x12B2)
Format : PGS
Muxing mode : zlib
Codec ID : S_HDMV/PGS
Codec ID/Info : Picture based subtitle format used on BDs/HD-DVDs
Duration : 2 h 8 min
Bit rate : 248 b/s
Frame rate : 0.003 FPS
Count of elements : 24
Stream size : 234 KiB (0%)
Language : Portuguese
Default : No
Forced : No
Original source medium : Blu-ray

Text #23
ID : 41
ID in the original source medium : 4787 (0x12B3)
Format : PGS
Muxing mode : zlib
Codec ID : S_HDMV/PGS
Codec ID/Info : Picture based subtitle format used on BDs/HD-DVDs
Duration : 2 h 8 min
Bit rate : 37.0 kb/s
Frame rate : 0.434 FPS
Count of elements : 3350
Stream size : 34.0 MiB (0%)
Language : Portuguese
Default : No
Forced : No
Original source medium : Blu-ray

Text #24
ID : 42
ID in the original source medium : 4788 (0x12B4)
Format : PGS
Muxing mode : zlib
Codec ID : S_HDMV/PGS
Codec ID/Info : Picture based subtitle format used on BDs/HD-DVDs
Duration : 2 h 8 min
Bit rate : 35.0 kb/s
Frame rate : 0.412 FPS
Count of elements : 3176
Stream size : 32.2 MiB (0%)
Language : Romanian
Default : No
Forced : No
Original source medium : Blu-ray

Text #25
ID : 43
ID in the original source medium : 4789 (0x12B5)
Format : PGS
Muxing mode : zlib
Codec ID : S_HDMV/PGS
Codec ID/Info : Picture based subtitle format used on BDs/HD-DVDs
Duration : 2 h 8 min
Bit rate : 35.0 kb/s
Frame rate : 0.448 FPS
Count of elements : 3454
Stream size : 32.2 MiB (0%)
Language : Serbian
Default : No
Forced : No
Original source medium : Blu-ray

Text #26
ID : 44
ID in the original source medium : 4790 (0x12B6)
Format : PGS
Muxing mode : zlib
Codec ID : S_HDMV/PGS
Codec ID/Info : Picture based subtitle format used on BDs/HD-DVDs
Duration : 2 h 8 min
Bit rate : 31.6 kb/s
Frame rate : 0.446 FPS
Count of elements : 3438
Stream size : 29.1 MiB (0%)
Language : Slovak
Default : No
Forced : No
Original source medium : Blu-ray

Text #27
ID : 45
ID in the original source medium : 4791 (0x12B7)
Format : PGS
Muxing mode : zlib
Codec ID : S_HDMV/PGS
Codec ID/Info : Picture based subtitle format used on BDs/HD-DVDs
Duration : 2 h 8 min
Bit rate : 29.6 kb/s
Frame rate : 0.379 FPS
Count of elements : 2920
Stream size : 27.2 MiB (0%)
Language : Slovenian
Default : No
Forced : No
Original source medium : Blu-ray

Text #28
ID : 46
ID in the original source medium : 4792 (0x12B8)
Format : PGS
Muxing mode : zlib
Codec ID : S_HDMV/PGS
Codec ID/Info : Picture based subtitle format used on BDs/HD-DVDs
Duration : 2 h 8 min
Bit rate : 36.5 kb/s
Frame rate : 0.446 FPS
Count of elements : 3438
Stream size : 33.6 MiB (0%)
Language : Spanish
Default : No
Forced : No
Original source medium : Blu-ray

Text #29
ID : 47
ID in the original source medium : 4792 (0x12B8)
Format : PGS
Muxing mode : zlib
Codec ID : S_HDMV/PGS
Codec ID/Info : Picture based subtitle format used on BDs/HD-DVDs
Duration : 2 h 8 min
Bit rate : 261 b/s
Frame rate : 0.003 FPS
Count of elements : 24
Stream size : 246 KiB (0%)
Language : Spanish
Default : No
Forced : No
Original source medium : Blu-ray

Text #30
ID : 48
ID in the original source medium : 4793 (0x12B9)
Format : PGS
Muxing mode : zlib
Codec ID : S_HDMV/PGS
Codec ID/Info : Picture based subtitle format used on BDs/HD-DVDs
Duration : 2 h 8 min
Bit rate : 33.0 kb/s
Frame rate : 0.454 FPS
Count of elements : 3504
Stream size : 30.4 MiB (0%)
Language : Thai
Default : No
Forced : No
Original source medium : Blu-ray

Text #31
ID : 49
ID in the original source medium : 4794 (0x12BA)
Format : PGS
Muxing mode : zlib
Codec ID : S_HDMV/PGS
Codec ID/Info : Picture based subtitle format used on BDs/HD-DVDs
Duration : 2 h 8 min
Bit rate : 36.7 kb/s
Frame rate : 0.445 FPS
Count of elements : 3436
Stream size : 33.8 MiB (0%)
Language : Turkish
Default : No
Forced : No
Original source medium : Blu-ray

Text #32
ID : 50
ID in the original source medium : 4795 (0x12BB)
Format : PGS
Muxing mode : zlib
Codec ID : S_HDMV/PGS
Codec ID/Info : Picture based subtitle format used on BDs/HD-DVDs
Duration : 2 h 8 min
Bit rate : 237 b/s
Frame rate : 0.003 FPS
Count of elements : 22
Stream size : 224 KiB (0%)
Title : FORCED
Language : French
Default : No
Forced : No
Original source medium : Blu-ray

Text #33
ID : 51
ID in the original source medium : 4795 (0x12BB)
Format : PGS
Muxing mode : zlib
Codec ID : S_HDMV/PGS
Codec ID/Info : Picture based subtitle format used on BDs/HD-DVDs
Duration : 2 h 8 min
Bit rate : 237 b/s
Frame rate : 0.003 FPS
Count of elements : 22
Stream size : 224 KiB (0%)
Title : FORCED
Language : French
Default : No
Forced : No
Original source medium : Blu-ray

Menu
00:00:00.000 : en:Chapter 01
00:09:35.032 : en:Chapter 02
00:16:06.715 : en:Chapter 03
00:25:18.475 : en:Chapter 04
00:35:26.332 : en:Chapter 05
00:41:57.014 : en:Chapter 06
00:49:49.736 : en:Chapter 07
00:57:09.134 : en:Chapter 08
01:04:50.636 : en:Chapter 09
01:15:57.052 : en:Chapter 10
01:22:49.089 : en:Chapter 11
01:29:25.193 : en:Chapter 12
01:36:43.214 : en:Chapter 13
01:44:46.989 : en:Chapter 14
01:52:17.147 : en:Chapter 15
01:57:45.433 : en:Chapter 16

新种推荐使用qBittorrent、uTorrent等下载软件,有条件的推荐115更好的下载软件!

蜘蛛侠:英雄远征(67.85GB)Spider-Man.Far.from.Home.2019.PROPER.2160p.BluRay.REMUX.HEVC.DTS-HD.MA.TrueHD.7.1.Atmos-FGT-【2160P蓝光REMUX】
游客,如果您要查看本帖隐藏内容请回复

以下为英文字幕版本
蜘蛛侠:英雄远征(10.44GBGB)Spider-Man.Far.from.Home.2019.2160p.UHD.BluRay.x265.10bit.HDR.TrueHD.7.1.Atmos
游客,如果您要查看本帖隐藏内容请回复

蜘蛛侠:英雄远征(7.95GB)Spider-Man.Far.from.Home.2019.2160p.UHD.BluRay.x265.10bit.HDR.DDP5.1.Atmos
游客,如果您要查看本帖隐藏内容请回复






4Q211826fxv4qxz856xz6dxv.gif


上一篇:蜘蛛侠:英雄归来[简繁中字] (2017) 4K蓝光REMUX版本下载
下一篇:惊奇队长 [简繁中字] / Captain Marvel (2019) 4K蓝光REMUX版本
回复

使用道具 举报

0

主题

5

帖子

60

积分

新手上路

Rank: 1

积分
60
发表于 2022-12-18 10:49:48 | 显示全部楼层
感谢楼主分享
回复 支持 反对

使用道具 举报

主题

帖子

0

积分

新手上路

Rank: 1

积分
0
发表于 2022-12-18 12:14:09 | 显示全部楼层
感谢楼主分享
回复 支持 反对

使用道具 举报

0

主题

7

帖子

20

积分

新手上路

Rank: 1

积分
20
发表于 2022-12-19 10:50:04 | 显示全部楼层
谢谢楼主分享此好片
回复 支持 反对

使用道具 举报

您需要登录后才可以回帖 登录 | 立即注册

本版积分规则

精彩图文
Archiver|手机版|TAG|Sitemap|新帖|专题|联系我们:邮箱: 4kjia.com@gmail.com   

4k家园   ©2019