[4K UHD 蓝光原盘] 惊奇队长 [简繁中字] / Captain Marvel (2019) 4K蓝光REMUX版本

[复制链接]

主题

帖子

0

积分

超级版主

Rank: 8Rank: 8

积分
0
 楼主| 发表于 2022-12-18 12:06:40 | 显示全部楼层 |阅读模式
本帖最后由 没完没了 于 2022-12-18 12:09 编辑

惊奇队长.png

◎译  名 惊奇队长 / Marvel队长(港) / 惊奇女士 / 漫威队长
◎片  名 Captain Marvel
◎年  代 2019
◎产  地 美国
◎类  别 动作 / 科幻 / 冒险
◎语  言 英语
◎上映日期 2019-03-08(美国/中国大陆)
◎IMDb评分 7.1/10 from 268698 users
◎豆瓣评分 7.0/10 from 298554 users
◎片  长 124分钟
◎导  演 安娜·波顿 Anna Boden / 瑞安·弗雷克 Ryan Fleck
◎编  剧 安娜·波顿 Anna Boden / 瑞安·弗雷克 Ryan Fleck / 吉内瓦·德沃莱特-罗宾森 Geneva Dworet-Robertson / 尼科尔·帕尔曼 Nicole Perlman / 梅格·勒福夫 Meg LeFauve
◎主  演 布丽·拉尔森 Brie Larson
       裘德·洛 Jude Law
       塞缪尔·杰克逊 Samuel L. Jackson
       本·门德尔森 Ben Mendelsohn
       安妮特·贝宁 Annette Bening
       麦肯娜·格瑞丝 Mckenna Grace
       克拉克·格雷格 Clark Gregg
       嘉玛·陈 Gemma Chan
       李·佩斯 Lee Pace
       杰曼·翰苏 Djimon Hounsou
       拉什纳·林奇 Lashana Lynch
       阿基拉·阿克巴 Akira Akbar
       科林·福特 Colin Ford
       卓库·莫度 Chuku Modu
       肯内特·米歇尔 Kenneth Mitchell
       罗伯特·卡辛斯基 Robert Kazinsky
       詹姆斯·莫里森 James Morrison
       皮特·普劳泽克 Pete Ploszek
       马修·马希尔 Matthew Maher
       安东尼·莫利纳利 Anthony Molinari
       马修·弗林·贝罗斯 Matthew Flynn Bellows
       加斯顿·达尔莫 Gastón Dalmau
       亚当·哈特 Adam Hart
       马克·多尔蒂 Mark Daugherty
       雷尼尔·鲁菲诺 Rayniel Rufino
       约翰·盖蒂尔 John Gettier
       斯坦·李 Stan Lee
       克里斯·埃文斯 Chris Evans
       斯嘉丽·约翰逊 Scarlett Johansson
       马克·鲁弗洛 Mark Ruffalo
       唐·钱德尔 Don Cheadle



◎简  介

  在围剿斯克鲁人的战斗中,克里人星际战队成员弗斯(布丽·拉尔森 Brie Larson 饰)不幸成为对方的俘虏。斯克鲁人尝试探究弗斯的记忆,最终发现连弗斯本人都不知道的一段往事,进而也得知名为温迪?劳森博士的女子掌握着他们急于得到的时空引擎。趁对方不备,拥有强大超能力的弗斯摆脱束缚,逃到了代号为C-53的地球,而这里也正是她那段失落的记忆的发生地。未过多久,神盾局探员弗瑞特工(塞缪尔·杰克逊 Samuel L. Jackson 饰)找上门来,而紧随其后的斯克鲁人更是引发了地球人前所未见的大骚动。
在这一过程中,弗瑞特工意识到事态的严重性,并且帮助弗斯认清本来的自己。倔强的弗斯,终于找到了真正需要保护的东西……

◎获奖情况

  第5届豆瓣电影年度榜单(2018)
  最值得期待的外语电影(提名)

Video
ID : 1
ID in the original source medium : 4113 (0x1011)
Format : HEVC
Format/Info : High Efficiency Video Coding
Format profile : Main 10@L5.1@High
HDR format : SMPTE ST 2086, HDR10 compatible
Codec ID : V_MPEGH/ISO/HEVC
Duration : 2 h 3 min
Bit rate : 47.0 Mb/s
Width : 3 840 pixels
Height : 2 160 pixels
Display aspect ratio : 16:9
Frame rate mode : Constant
Frame rate : 23.976 (24000/1001) FPS
Color space : YUV
Chroma subsampling : 4:2:0 (Type 2)
Bit depth : 10 bits
Bits/(Pixel*Frame) : 0.236
Stream size : 40.6 GiB (75%)
Writing library : ATEME Titan File 3.9.0 (4.9.0.0)
Language : English
Default : No
Forced : No
Color range : Limited
Color primaries : BT.2020
Transfer characteristics : PQ
Matrix coefficients : BT.2020 non-constant
Mastering display color primaries : Display P3
Mastering display luminance : min: 0.0020 cd/m2, max: 1000 cd/m2
Original source medium : Blu-ray

Audio #1
ID : 2
ID in the original source medium : 4352 (0x1100)
Format : MLP FBA 16-ch
Format/Info : Meridian Lossless Packing FBA with 16-channel presentation
Commercial name : Dolby TrueHD with Dolby Atmos
Codec ID : A_TRUEHD
Duration : 2 h 3 min
Bit rate mode : Variable
Bit rate : 4 613 kb/s
Maximum bit rate : 7 317 kb/s
Channel(s) : 8 channels
Channel layout : L R C LFE Ls Rs Lb Rb
Sampling rate : 48.0 kHz
Frame rate : 1 200.000 FPS (40 SPF)
Bit depth : 24 bits
Compression mode : Lossless
Stream size : 3.99 GiB (7%)
Title : TrueHD 7.1 Atmos
Language : English
Default : Yes
Forced : No
Original source medium : Blu-ray
Number of dynamic objects : 13
Bed channel count : 1 channel
Bed channel configuration : LFE

Audio #2
ID : 3
Format : DTS XLL
Format/Info : Digital Theater Systems
Commercial name : DTS-HD Master Audio
Codec ID : A_DTS
Duration : 2 h 3 min
Bit rate mode : Variable
Bit rate : 4 100 kb/s
Channel(s) : 8 channels
Channel layout : C L R LFE Lb Rb Lss Rss
Sampling rate : 48.0 kHz
Frame rate : 93.750 FPS (512 SPF)
Bit depth : 24 bits
Compression mode : Lossless
Stream size : 3.54 GiB (7%)
Title : DTS-HD MA 7.1
Language : English
Default : No
Forced : No

Audio #3
ID : 4
ID in the original source medium : 4352 (0x1100)
Format : AC-3
Format/Info : Audio Coding 3
Commercial name : Dolby Digital
Codec ID : A_AC3
Duration : 2 h 3 min
Bit rate mode : Constant
Bit rate : 640 kb/s
Channel(s) : 6 channels
Channel layout : L R C LFE Ls Rs
Sampling rate : 48.0 kHz
Frame rate : 31.250 FPS (1536 SPF)
Compression mode : Lossy
Stream size : 566 MiB (1%)
Title : DD 5.1
Language : English
Service kind : Complete Main
Default : No
Forced : No
Original source medium : Blu-ray

Audio #4
ID : 5
ID in the original source medium : 4353 (0x1101)
Format : AC-3
Format/Info : Audio Coding 3
Commercial name : Dolby Digital
Codec ID : A_AC3
Duration : 2 h 3 min
Bit rate mode : Constant
Bit rate : 320 kb/s
Channel(s) : 2 channels
Channel layout : L R
Sampling rate : 48.0 kHz
Frame rate : 31.250 FPS (1536 SPF)
Compression mode : Lossy
Stream size : 283 MiB (1%)
Title : DD 2.0
Language : English
Service kind : Complete Main
Default : No
Forced : No
Original source medium : Blu-ray

Audio #5
ID : 6
ID in the original source medium : 4354 (0x1102)
Format : AC-3
Format/Info : Audio Coding 3
Commercial name : Dolby Digital
Codec ID : A_AC3
Duration : 2 h 3 min
Bit rate mode : Constant
Bit rate : 640 kb/s
Channel(s) : 6 channels
Channel layout : L R C LFE Ls Rs
Sampling rate : 48.0 kHz
Frame rate : 31.250 FPS (1536 SPF)
Compression mode : Lossy
Stream size : 566 MiB (1%)
Title : DD 5.1
Language : French
Service kind : Complete Main
Default : No
Forced : No
Original source medium : Blu-ray

Audio #6
ID : 7
Format : E-AC-3
Format/Info : Enhanced AC-3
Commercial name : Dolby Digital Plus
Format profile : Blu-ray Disc
Codec ID : A_EAC3
Duration : 2 h 3 min
Bit rate mode : Constant
Bit rate : 1 024 kb/s
Channel(s) : 8 channels
Channel layout : L R C LFE Ls Rs Lb Rb
Sampling rate : 48.0 kHz
Frame rate : 31.250 FPS (1536 SPF)
Compression mode : Lossy
Stream size : 906 MiB (2%)
Title : DDP 7.1
Language : French
Service kind : Complete Main
Default : No
Forced : No

Audio #7
ID : 8
Format : E-AC-3
Format/Info : Enhanced AC-3
Commercial name : Dolby Digital Plus
Format profile : Blu-ray Disc
Codec ID : A_EAC3
Duration : 2 h 3 min
Bit rate mode : Constant
Bit rate : 1 024 kb/s
Channel(s) : 8 channels
Channel layout : L R C LFE Ls Rs Lb Rb
Sampling rate : 48.0 kHz
Frame rate : 31.250 FPS (1536 SPF)
Compression mode : Lossy
Stream size : 906 MiB (2%)
Title : DDP 7.1
Language : Spanish
Service kind : Complete Main
Default : No
Forced : No

Audio #8
ID : 9
Format : E-AC-3
Format/Info : Enhanced AC-3
Commercial name : Dolby Digital Plus
Format profile : Blu-ray Disc
Codec ID : A_EAC3
Duration : 2 h 3 min
Bit rate mode : Constant
Bit rate : 1 024 kb/s
Channel(s) : 8 channels
Channel layout : L R C LFE Ls Rs Lb Rb
Sampling rate : 48.0 kHz
Frame rate : 31.250 FPS (1536 SPF)
Compression mode : Lossy
Stream size : 906 MiB (2%)
Title : DDP 7.1
Language : German
Service kind : Complete Main
Default : No
Forced : No

Audio #9
ID : 10
Format : E-AC-3
Format/Info : Enhanced AC-3
Commercial name : Dolby Digital Plus
Format profile : Blu-ray Disc
Codec ID : A_EAC3
Duration : 2 h 3 min
Bit rate mode : Constant
Bit rate : 1 024 kb/s
Channel(s) : 8 channels
Channel layout : L R C LFE Ls Rs Lb Rb
Sampling rate : 48.0 kHz
Frame rate : 31.250 FPS (1536 SPF)
Compression mode : Lossy
Stream size : 906 MiB (2%)
Title : DDP 7.1
Language : Italian
Service kind : Complete Main
Default : No
Forced : No

Audio #10
ID : 11
Format : E-AC-3
Format/Info : Enhanced AC-3
Commercial name : Dolby Digital Plus
Format profile : Blu-ray Disc
Codec ID : A_EAC3
Duration : 2 h 3 min
Bit rate mode : Constant
Bit rate : 1 024 kb/s
Channel(s) : 8 channels
Channel layout : L R C LFE Ls Rs Lb Rb
Sampling rate : 48.0 kHz
Frame rate : 31.250 FPS (1536 SPF)
Compression mode : Lossy
Stream size : 906 MiB (2%)
Title : DDP 7.1
Language : Japanese
Service kind : Complete Main
Default : No
Forced : No

Text #1
ID : 12
Format : UTF-8
Codec ID : S_TEXT/UTF8
Codec ID/Info : UTF-8 Plain Text
Duration : 1 h 53 min
Bit rate : 47 b/s
Frame rate : 0.206 FPS
Count of elements : 1408
Stream size : 40.0 KiB (0%)
Language : English
Default : Yes
Forced : No

Text #2
ID : 13
Format : UTF-8
Codec ID : S_TEXT/UTF8
Codec ID/Info : UTF-8 Plain Text
Duration : 2 h 2 min
Bit rate : 49 b/s
Frame rate : 0.225 FPS
Count of elements : 1651
Stream size : 44.0 KiB (0%)
Title : SDH
Language : English
Default : No
Forced : No

Text #3
ID : 14
ID in the original source medium : 4768 (0x12A0)
Format : PGS
Muxing mode : zlib
Codec ID : S_HDMV/PGS
Codec ID/Info : Picture based subtitle format used on BDs/HD-DVDs
Duration : 2 h 2 min
Bit rate : 32.8 kb/s
Frame rate : 0.453 FPS
Count of elements : 3330
Stream size : 28.7 MiB (0%)
Language : English
Default : No
Forced : No
Original source medium : Blu-ray

Text #4
ID : 15
ID in the original source medium : 4769 (0x12A1)
Format : PGS
Muxing mode : zlib
Codec ID : S_HDMV/PGS
Codec ID/Info : Picture based subtitle format used on BDs/HD-DVDs
Duration : 2 h 2 min
Bit rate : 29.3 kb/s
Frame rate : 0.362 FPS
Count of elements : 2656
Stream size : 25.6 MiB (0%)
Language : French
Default : No
Forced : No
Original source medium : Blu-ray

Text #5
ID : 16
ID in the original source medium : 4770 (0x12A2)
Format : PGS
Muxing mode : zlib
Codec ID : S_HDMV/PGS
Codec ID/Info : Picture based subtitle format used on BDs/HD-DVDs
Duration : 2 h 2 min
Bit rate : 24.0 kb/s
Frame rate : 0.352 FPS
Count of elements : 2582
Stream size : 21.0 MiB (0%)
Language : French
Default : No
Forced : No
Original source medium : Blu-ray

Text #6
ID : 17
ID in the original source medium : 4771 (0x12A3)
Format : PGS
Muxing mode : zlib
Codec ID : S_HDMV/PGS
Codec ID/Info : Picture based subtitle format used on BDs/HD-DVDs
Duration : 2 h 2 min
Bit rate : 28.1 kb/s
Frame rate : 0.357 FPS
Count of elements : 2614
Stream size : 24.6 MiB (0%)
Language : Spanish
Default : No
Forced : No
Original source medium : Blu-ray

Text #7
ID : 18
ID in the original source medium : 4772 (0x12A4)
Format : PGS
Muxing mode : zlib
Codec ID : S_HDMV/PGS
Codec ID/Info : Picture based subtitle format used on BDs/HD-DVDs
Duration : 2 h 2 min
Bit rate : 25.9 kb/s
Frame rate : 0.355 FPS
Count of elements : 2600
Stream size : 22.6 MiB (0%)
Language : German
Default : No
Forced : No
Original source medium : Blu-ray

Text #8
ID : 19
ID in the original source medium : 4773 (0x12A5)
Format : PGS
Muxing mode : zlib
Codec ID : S_HDMV/PGS
Codec ID/Info : Picture based subtitle format used on BDs/HD-DVDs
Duration : 2 h 2 min
Bit rate : 28.7 kb/s
Frame rate : 0.354 FPS
Count of elements : 2594
Stream size : 25.1 MiB (0%)
Language : Italian
Default : No
Forced : No
Original source medium : Blu-ray

Text #9
ID : 20
ID in the original source medium : 4774 (0x12A6)
Format : PGS
Muxing mode : zlib
Codec ID : S_HDMV/PGS
Codec ID/Info : Picture based subtitle format used on BDs/HD-DVDs
Duration : 2 h 1 min
Bit rate : 20.5 kb/s
Frame rate : 0.319 FPS
Count of elements : 2328
Stream size : 17.8 MiB (0%)
Language : Japanese
Default : No
Forced : No
Original source medium : Blu-ray

Text #10
ID : 21
ID in the original source medium : 4775 (0x12A7)
Format : PGS
Muxing mode : zlib
Codec ID : S_HDMV/PGS
Codec ID/Info : Picture based subtitle format used on BDs/HD-DVDs
Duration : 2 h 2 min
Bit rate : 17.0 kb/s
Frame rate : 0.359 FPS
Count of elements : 2638
Stream size : 14.9 MiB (0%)
Language : 简体
Default : No
Forced : No
Original source medium : Blu-ray

Text #11
ID : 22
ID in the original source medium : 4776 (0x12A8)
Format : PGS
Muxing mode : zlib
Codec ID : S_HDMV/PGS
Codec ID/Info : Picture based subtitle format used on BDs/HD-DVDs
Duration : 2 h 2 min
Bit rate : 25.9 kb/s
Frame rate : 0.275 FPS
Count of elements : 2014
Stream size : 22.7 MiB (0%)
Language : Dutch
Default : No
Forced : No
Original source medium : Blu-ray

Text #12
ID : 23
ID in the original source medium : 4777 (0x12A9)
Format : PGS
Muxing mode : zlib
Codec ID : S_HDMV/PGS
Codec ID/Info : Picture based subtitle format used on BDs/HD-DVDs
Duration : 2 h 2 min
Bit rate : 15.1 kb/s
Frame rate : 0.357 FPS
Count of elements : 2624
Stream size : 13.2 MiB (0%)
Language : Korean
Default : No
Forced : No
Original source medium : Blu-ray

Text #13
ID : 24
ID in the original source medium : 4778 (0x12AA)
Format : PGS
Muxing mode : zlib
Codec ID : S_HDMV/PGS
Codec ID/Info : Picture based subtitle format used on BDs/HD-DVDs
Duration : 2 h 2 min
Bit rate : 25.6 kb/s
Frame rate : 0.355 FPS
Count of elements : 2600
Stream size : 22.4 MiB (0%)
Language : Norwegian
Default : No
Forced : No
Original source medium : Blu-ray

Text #14
ID : 25
ID in the original source medium : 4779 (0x12AB)
Format : PGS
Muxing mode : zlib
Codec ID : S_HDMV/PGS
Codec ID/Info : Picture based subtitle format used on BDs/HD-DVDs
Duration : 2 h 2 min
Bit rate : 23.6 kb/s
Frame rate : 0.240 FPS
Count of elements : 1760
Stream size : 20.6 MiB (0%)
Language : Swedish
Default : No
Forced : No
Original source medium : Blu-ray

Text #15
ID : 26
ID in the original source medium : 4780 (0x12AC)
Format : PGS
Muxing mode : zlib
Codec ID : S_HDMV/PGS
Codec ID/Info : Picture based subtitle format used on BDs/HD-DVDs
Duration : 2 h 2 min
Bit rate : 19.5 kb/s
Frame rate : 0.360 FPS
Count of elements : 2642
Stream size : 17.1 MiB (0%)
Language : 繁体
Default : No
Forced : No
Original source medium : Blu-ray

Text #16
ID : 27
ID in the original source medium : 4781 (0x12AD)
Format : PGS
Muxing mode : zlib
Codec ID : S_HDMV/PGS
Codec ID/Info : Picture based subtitle format used on BDs/HD-DVDs
Duration : 1 h 55 min
Bit rate : 660 b/s
Frame rate : 0.011 FPS
Count of elements : 74
Stream size : 559 KiB (0%)
Title : FORCED
Language : French
Default : No
Forced : No
Original source medium : Blu-ray

Text #17
ID : 28
ID in the original source medium : 4782 (0x12AE)
Format : PGS
Muxing mode : zlib
Codec ID : S_HDMV/PGS
Codec ID/Info : Picture based subtitle format used on BDs/HD-DVDs
Duration : 1 h 55 min
Bit rate : 350 b/s
Frame rate : 0.004 FPS
Count of elements : 28
Stream size : 296 KiB (0%)
Title : FORCED
Language : French
Default : No
Forced : No
Original source medium : Blu-ray

Text #18
ID : 29
ID in the original source medium : 4783 (0x12AF)
Format : PGS
Muxing mode : zlib
Codec ID : S_HDMV/PGS
Codec ID/Info : Picture based subtitle format used on BDs/HD-DVDs
Duration : 1 h 55 min
Bit rate : 452 b/s
Frame rate : 0.005 FPS
Count of elements : 32
Stream size : 383 KiB (0%)
Title : FORCED
Language : Spanish
Default : No
Forced : No
Original source medium : Blu-ray

Text #19
ID : 30
ID in the original source medium : 4784 (0x12B0)
Format : PGS
Muxing mode : zlib
Codec ID : S_HDMV/PGS
Codec ID/Info : Picture based subtitle format used on BDs/HD-DVDs
Duration : 1 h 55 min
Bit rate : 398 b/s
Frame rate : 0.004 FPS
Count of elements : 28
Stream size : 337 KiB (0%)
Title : FORCED
Language : Italian
Default : No
Forced : No
Original source medium : Blu-ray

Text #20
ID : 31
ID in the original source medium : 4785 (0x12B1)
Format : PGS
Muxing mode : zlib
Codec ID : S_HDMV/PGS
Codec ID/Info : Picture based subtitle format used on BDs/HD-DVDs
Duration : 1 h 53 min
Bit rate : 421 b/s
Frame rate : 0.006 FPS
Count of elements : 38
Stream size : 351 KiB (0%)
Title : FORCED
Language : Japanese
Default : No
Forced : No
Original source medium : Blu-ray

Menu
00:00:00.000 : en:Chapter 01
00:06:51.285 : en:Chapter 02
00:14:07.012 : en:Chapter 03
00:23:17.437 : en:Chapter 04
00:29:37.192 : en:Chapter 05
00:35:06.938 : en:Chapter 06
00:44:07.227 : en:Chapter 07
00:50:42.581 : en:Chapter 08
00:56:17.791 : en:Chapter 09
01:03:01.986 : en:Chapter 10
01:11:16.563 : en:Chapter 11
01:17:48.330 : en:Chapter 12
01:27:02.175 : en:Chapter 13
01:33:21.512 : en:Chapter 14
01:40:50.669 : en:Chapter 15
01:46:23.919 : en:Chapter 16
01:52:49.053 : en:Chapter 17

推荐使用qBittorrent、uTorrent等下载软件,有条件的推荐115更好的下载软件!

惊奇队长(54.08GB)Captain.Marvel.2019.PROPER.2160p.BluRay.REMUX.HEVC.DTS-HD.MA.TrueHD.7.1.Atmos-FGT-【2160P蓝光REMUX】
游客,如果您要查看本帖隐藏内容请回复


以下为英文版本链接
惊奇队长(11.31GB)Captain.Marvel.2019.2160p.UHD.BluRay.x265.10bit.HDR.TrueHD.7.1.Atmos
游客,如果您要查看本帖隐藏内容请回复

惊奇队长(7.60GB)Captain.Marvel.2019.2160p.UHD.BluRay.x265.10bit.HDR.DDP5.1.Atmos
游客,如果您要查看本帖隐藏内容请回复


4KQQ海报.gif


上一篇:蜘蛛侠:英雄远征[简繁中字] (2019) 4K蓝光REMUX版本下载
下一篇:信条 [简繁中字] Tenet (2020) 4K蓝光REMUX版本下载
回复

使用道具 举报

您需要登录后才可以回帖 登录 | 立即注册

本版积分规则

精彩图文
Archiver|手机版|TAG|Sitemap|新帖|专题|联系我们:邮箱: 4kjia.com@gmail.com   

4k家园   ©2019