[4K UHD 蓝光原盘] 信条 [简繁中字] Tenet (2020) 4K蓝光REMUX版本下载

[复制链接]

主题

帖子

0

积分

超级版主

Rank: 8Rank: 8

积分
0
 楼主| 发表于 2022-12-18 12:30:13 | 显示全部楼层 |阅读模式

QQ图片20221218123243_副本.png

◎标  题 信条
◎译  名 TENET天能(港 / 台) / 时空追捕 / TENƎ⊥ / Tempus / 天呐天(豆友译名)
◎片  名 Tenet
◎年  代 2020
◎产  地 美国 / 英国
◎类  别 剧情 / 动作 / 科幻
◎语  言 英语 / 俄语 / 乌克兰语 / 爱沙尼亚语 / 印地语 / 挪威语
◎上映日期 2020-09-04(中国大陆) / 2020-08-26(英国) / 2020-09-03(美国)
◎IMDb评分 7.3/10 from 503034 users 更新 : 2022-12-16
◎IMDb链接 https://www.imdb.com/title/tt6723592/
◎豆瓣评分 7.6/10 from 689279 users 更新 : 2022-12-18
◎豆瓣链接 https://movie.douban.com/subject/30444960/
◎片  长 150分钟
◎导  演 克里斯托弗·诺兰 Christopher Nolan
◎编  剧 克里斯托弗·诺兰 Christopher Nolan
◎演  员 约翰·大卫·华盛顿 John David Washington
       罗伯特·帕丁森 Robert Pattinson
       伊丽莎白·德比茨基 Elizabeth Debicki
       肯尼思·布拉纳 Kenneth Branagh
       亚伦·泰勒-约翰逊 Aaron Taylor-Johnson
       迪宝·卡帕蒂娅 Dimple Kapadia
       克蕾曼丝·波西 Clémence Poésy
       希米什·帕特尔 Himesh Patel
       安德鲁·霍华德 Andrew Howard
       尤里·科洛科利尼科夫 Yuri Kolokolnikov
       迈克尔·凯恩 Michael Caine
       马丁·唐文 Martin Donovan
       卡里娜·韦尔瓦 Carina Velva
       乔纳森·坎普 Jonathan Camp
       凯蒂·麦克凯布 Katie McCabe
       贝恩·科拉科 Bern Collaço
       安东尼·莫利纳利 Anthony Molinari
       特伦特·布克斯顿 Trent Buxton
       英格丽·玛格斯 Ingrid Margus
       瑞奇·切劳洛 Rich Ceraulo
       劳里·谢泼德 Laurie Shepherd
       马克·克雷尼克 Mark Krenik
       亚历克斯·威克索 Alex Wexo
       丹兹尔·史密斯 Denzil Smith
       马塞尔·萨巴特 Marcel Sabat
       杰里米·西奥伯德 Jeremy Theobald
       菲奥娜·道里夫 Fiona Dourif
       约翰·威斯利·查特曼 John Wesley Chatham
       杰克·卡特莫尔-斯科特 Jack Cutmore-Scott
       杰佛逊·豪尔 Jefferson Hall
       凯莱布·斯比尔亚兹 Caleb Spillyards
       肖恩·艾弗里 Sean Avery
       吉米·斯达 Jimmy Star
       卡德罗莎·奥娜·卡罗尔
       托马斯·海斯利普 Thomas Hayslip
       艾玛·托马斯 Emma Thomas
       克里斯托弗·诺兰 Christopher Nolan
       路德维格·戈兰松 Ludwig Göransson
       霍伊特·范·霍特玛 Hoyte Van Hoytema
       詹妮弗·拉梅 Jennifer Lame
       约翰·帕帕席德拉 John Papsidera
       内森·克劳利 Nathan Crowley
       托比·布里顿 Toby Britton
       埃格特·克蒂尔森 Eggert Ketilsson
       海伦娜·福尔摩斯 Helena Holmes
       伊曼纽尔·德利斯 Emmanuel Delis
       罗里·布鲁恩 Rory Bruen
       杰弗里·库兰 Jeffrey Kurland
       毛里齐奥·纳迪 Maurizio Nardi
       乌迪安·贝加尔 Udayan Baijal
       埃兰·霍夫曼 Eilam Hoffman


◎简  介


  世界存亡危在旦夕,“信条”一词是唯一的线索与武器。主人公穿梭于全球各地,开展特工活动,力求揭示“信条”之谜,并完成一项超越了真实时间的神秘任务。这项任务并非时间之旅,而是【时空逆转】。
Video
ID : 1
ID in the original source medium : 4113 (0x1011)
Format : HEVC
Format/Info : High Efficiency Video Coding
Format profile : Main 10@L5.1@High
HDR format : SMPTE ST 2086, HDR10 compatible
Codec ID : V_MPEGH/ISO/HEVC
Duration : 2 h 30 min
Bit rate : 57.5 Mb/s
Width : 3 840 pixels
Height : 2 160 pixels
Display aspect ratio : 16:9
Frame rate mode : Constant
Frame rate : 23.976 (24000/1001) FPS
Color space : YUV
Chroma subsampling : 4:2:0 (Type 2)
Bit depth : 10 bits
Bits/(Pixel*Frame) : 0.289
Stream size : 60.3 GiB (78%)
Language : English
Default : No
Forced : No
Color range : Limited
Color primaries : BT.2020
Transfer characteristics : PQ
Matrix coefficients : BT.2020 non-constant
Mastering display color primaries : Display P3
Mastering display luminance : min: 0.0050 cd/m2, max: 4000 cd/m2
Maximum Content Light Level : 349 cd/m2
Maximum Frame-Average Light Level : 86 cd/m2
Original source medium : Blu-ray

Audio #1
ID : 2
ID in the original source medium : 4352 (0x1100)
Format : DTS XLL
Format/Info : Digital Theater Systems
Commercial name : DTS-HD Master Audio
Codec ID : A_DTS
Duration : 2 h 30 min
Bit rate mode : Variable
Bit rate : 4 036 kb/s
Channel(s) : 6 channels
Channel layout : C L R Ls Rs LFE
Sampling rate : 48.0 kHz
Frame rate : 93.750 FPS (512 SPF)
Bit depth : 24 bits
Compression mode : Lossless
Stream size : 4.23 GiB (5%)
Title : DTS-HD MA 5.1
Language : English
Default : Yes
Forced : No
Original source medium : Blu-ray

Audio #2
ID : 3
Format : AC-3
Format/Info : Audio Coding 3
Commercial name : Dolby Digital
Codec ID : A_AC3
Duration : 2 h 30 min
Bit rate mode : Constant
Bit rate : 640 kb/s
Channel(s) : 6 channels
Channel layout : L R C LFE Ls Rs
Sampling rate : 48.0 kHz
Frame rate : 31.250 FPS (1536 SPF)
Compression mode : Lossy
Stream size : 687 MiB (1%)
Title : DD 5.1
Language : English
Service kind : Complete Main
Default : No
Forced : No

Audio #3
ID : 4
ID in the original source medium : 4353 (0x1101)
Format : AC-3
Format/Info : Audio Coding 3
Commercial name : Dolby Digital
Codec ID : A_AC3
Duration : 2 h 30 min
Bit rate mode : Constant
Bit rate : 640 kb/s
Channel(s) : 6 channels
Channel layout : L R C LFE Ls Rs
Sampling rate : 48.0 kHz
Frame rate : 31.250 FPS (1536 SPF)
Compression mode : Lossy
Stream size : 687 MiB (1%)
Title : DD 5.1
Language : English
Service kind : Complete Main
Default : No
Forced : No
Original source medium : Blu-ray

Audio #4
ID : 5
ID in the original source medium : 4354 (0x1102)
Format : AC-3
Format/Info : Audio Coding 3
Commercial name : Dolby Digital
Codec ID : A_AC3
Duration : 2 h 30 min
Bit rate mode : Constant
Bit rate : 448 kb/s
Channel(s) : 6 channels
Channel layout : L R C LFE Ls Rs
Sampling rate : 48.0 kHz
Frame rate : 31.250 FPS (1536 SPF)
Compression mode : Lossy
Stream size : 481 MiB (1%)
Title : DD 5.1
Language : French
Service kind : Complete Main
Default : No
Forced : No
Original source medium : Blu-ray

Audio #5
ID : 6
ID in the original source medium : 4355 (0x1103)
Format : DTS XLL
Format/Info : Digital Theater Systems
Commercial name : DTS-HD Master Audio
Codec ID : A_DTS
Duration : 2 h 30 min
Bit rate mode : Variable
Bit rate : 2 376 kb/s
Channel(s) : 6 channels
Channel layout : C L R Ls Rs LFE
Sampling rate : 48.0 kHz
Frame rate : 93.750 FPS (512 SPF)
Bit depth : 16 bits
Compression mode : Lossless
Stream size : 2.49 GiB (3%)
Title : DTS-HD MA 5.1
Language : French
Default : No
Forced : No
Original source medium : Blu-ray

Audio #6
ID : 7
ID in the original source medium : 4356 (0x1104)
Format : DTS XLL
Format/Info : Digital Theater Systems
Commercial name : DTS-HD Master Audio
Codec ID : A_DTS
Duration : 2 h 30 min
Bit rate mode : Variable
Bit rate : 2 367 kb/s
Channel(s) : 6 channels
Channel layout : C L R Ls Rs LFE
Sampling rate : 48.0 kHz
Frame rate : 93.750 FPS (512 SPF)
Bit depth : 16 bits
Compression mode : Lossless
Stream size : 2.48 GiB (3%)
Title : DTS-HD MA 5.1
Language : German
Default : No
Forced : No
Original source medium : Blu-ray

Audio #7
ID : 8
ID in the original source medium : 4357 (0x1105)
Format : AC-3
Format/Info : Audio Coding 3
Commercial name : Dolby Digital
Format settings : Dolby Surround
Codec ID : A_AC3
Duration : 2 h 30 min
Bit rate mode : Constant
Bit rate : 192 kb/s
Channel(s) : 2 channels
Channel layout : L R
Sampling rate : 48.0 kHz
Frame rate : 31.250 FPS (1536 SPF)
Compression mode : Lossy
Stream size : 206 MiB (0%)
Title : DD 2.0
Language : German
Service kind : Complete Main
Default : No
Forced : No
Original source medium : Blu-ray

Audio #8
ID : 9
ID in the original source medium : 4358 (0x1106)
Format : AC-3
Format/Info : Audio Coding 3
Commercial name : Dolby Digital
Codec ID : A_AC3
Duration : 2 h 30 min
Bit rate mode : Constant
Bit rate : 640 kb/s
Channel(s) : 6 channels
Channel layout : L R C LFE Ls Rs
Sampling rate : 48.0 kHz
Frame rate : 31.250 FPS (1536 SPF)
Compression mode : Lossy
Stream size : 687 MiB (1%)
Title : DD 5.1
Language : Italian
Service kind : Complete Main
Default : No
Forced : No
Original source medium : Blu-ray

Audio #9
ID : 10
ID in the original source medium : 4359 (0x1107)
Format : AC-3
Format/Info : Audio Coding 3
Commercial name : Dolby Digital
Codec ID : A_AC3
Duration : 2 h 30 min
Bit rate mode : Constant
Bit rate : 640 kb/s
Channel(s) : 6 channels
Channel layout : L R C LFE Ls Rs
Sampling rate : 48.0 kHz
Frame rate : 31.250 FPS (1536 SPF)
Compression mode : Lossy
Stream size : 687 MiB (1%)
Title : DD 5.1
Language : Spanish
Service kind : Complete Main
Default : No
Forced : No
Original source medium : Blu-ray

Audio #10
ID : 11
ID in the original source medium : 4360 (0x1108)
Format : AC-3
Format/Info : Audio Coding 3
Commercial name : Dolby Digital
Codec ID : A_AC3
Duration : 2 h 30 min
Bit rate mode : Constant
Bit rate : 640 kb/s
Channel(s) : 6 channels
Channel layout : L R C LFE Ls Rs
Sampling rate : 48.0 kHz
Frame rate : 31.250 FPS (1536 SPF)
Compression mode : Lossy
Stream size : 687 MiB (1%)
Title : DD 5.1
Language : Spanish
Service kind : Complete Main
Default : No
Forced : No
Original source medium : Blu-ray

Audio #11
ID : 12
ID in the original source medium : 4361 (0x1109)
Format : AC-3
Format/Info : Audio Coding 3
Commercial name : Dolby Digital
Codec ID : A_AC3
Duration : 2 h 30 min
Bit rate mode : Constant
Bit rate : 640 kb/s
Channel(s) : 6 channels
Channel layout : L R C LFE Ls Rs
Sampling rate : 48.0 kHz
Frame rate : 31.250 FPS (1536 SPF)
Compression mode : Lossy
Stream size : 687 MiB (1%)
Title : DD 5.1
Language : Czech
Service kind : Complete Main
Default : No
Forced : No
Original source medium : Blu-ray

Audio #12
ID : 13
ID in the original source medium : 4362 (0x110A)
Format : AC-3
Format/Info : Audio Coding 3
Commercial name : Dolby Digital
Codec ID : A_AC3
Duration : 2 h 30 min
Bit rate mode : Constant
Bit rate : 640 kb/s
Channel(s) : 6 channels
Channel layout : L R C LFE Ls Rs
Sampling rate : 48.0 kHz
Frame rate : 31.250 FPS (1536 SPF)
Compression mode : Lossy
Stream size : 687 MiB (1%)
Title : DD 5.1
Language : Hindi
Service kind : Complete Main
Default : No
Forced : No
Original source medium : Blu-ray

Audio #13
ID : 14
ID in the original source medium : 4363 (0x110B)
Format : AC-3
Format/Info : Audio Coding 3
Commercial name : Dolby Digital
Codec ID : A_AC3
Duration : 2 h 30 min
Bit rate mode : Constant
Bit rate : 640 kb/s
Channel(s) : 6 channels
Channel layout : L R C LFE Ls Rs
Sampling rate : 48.0 kHz
Frame rate : 31.250 FPS (1536 SPF)
Compression mode : Lossy
Stream size : 687 MiB (1%)
Title : DD 5.1
Language : Polish
Service kind : Complete Main
Default : No
Forced : No
Original source medium : Blu-ray

Audio #14
ID : 15
ID in the original source medium : 4364 (0x110C)
Format : AC-3
Format/Info : Audio Coding 3
Commercial name : Dolby Digital
Codec ID : A_AC3
Duration : 2 h 30 min
Bit rate mode : Constant
Bit rate : 640 kb/s
Channel(s) : 6 channels
Channel layout : L R C LFE Ls Rs
Sampling rate : 48.0 kHz
Frame rate : 31.250 FPS (1536 SPF)
Compression mode : Lossy
Stream size : 687 MiB (1%)
Title : DD 5.1
Language : Thai
Service kind : Complete Main
Default : No
Forced : No
Original source medium : Blu-ray

Audio #15
ID : 16
ID in the original source medium : 4365 (0x110D)
Format : AC-3
Format/Info : Audio Coding 3
Commercial name : Dolby Digital
Codec ID : A_AC3
Duration : 2 h 30 min
Bit rate mode : Constant
Bit rate : 640 kb/s
Channel(s) : 6 channels
Channel layout : L R C LFE Ls Rs
Sampling rate : 48.0 kHz
Frame rate : 31.250 FPS (1536 SPF)
Compression mode : Lossy
Stream size : 687 MiB (1%)
Title : DD 5.1
Language : Japanese
Service kind : Complete Main
Default : No
Forced : No
Original source medium : Blu-ray

Text #1
ID : 17
Format : UTF-8
Codec ID : S_TEXT/UTF8
Codec ID/Info : UTF-8 Plain Text
Duration : 2 h 26 min
Bit rate : 52 b/s
Frame rate : 0.213 FPS
Count of elements : 1869
Stream size : 55.8 KiB (0%)
Language : English
Default : Yes
Forced : No

Text #2
ID : 18
Format : UTF-8
Codec ID : S_TEXT/UTF8
Codec ID/Info : UTF-8 Plain Text
Duration : 2 h 26 min
Bit rate : 57 b/s
Frame rate : 0.240 FPS
Count of elements : 2119
Stream size : 62.3 KiB (0%)
Title : SDH
Language : English
Default : No
Forced : No

Text #3
ID : 19
ID in the original source medium : 4768 (0x12A0)
Format : PGS
Muxing mode : zlib
Codec ID : S_HDMV/PGS
Codec ID/Info : Picture based subtitle format used on BDs/HD-DVDs
Duration : 2 h 26 min
Bit rate : 36.4 kb/s
Frame rate : 0.485 FPS
Count of elements : 4274
Stream size : 38.3 MiB (0%)
Language : English
Default : No
Forced : No
Original source medium : Blu-ray

Text #4
ID : 20
ID in the original source medium : 4769 (0x12A1)
Format : PGS
Muxing mode : zlib
Codec ID : S_HDMV/PGS
Codec ID/Info : Picture based subtitle format used on BDs/HD-DVDs
Duration : 2 h 28 min
Bit rate : 26.0 kb/s
Frame rate : 0.402 FPS
Count of elements : 3586
Stream size : 27.7 MiB (0%)
Language : French
Default : No
Forced : No
Original source medium : Blu-ray

Text #5
ID : 21
ID in the original source medium : 4770 (0x12A2)
Format : PGS
Muxing mode : zlib
Codec ID : S_HDMV/PGS
Codec ID/Info : Picture based subtitle format used on BDs/HD-DVDs
Duration : 2 h 24 min
Bit rate : 37.8 kb/s
Frame rate : 0.477 FPS
Count of elements : 4126
Stream size : 38.9 MiB (0%)
Language : German
Default : No
Forced : No
Original source medium : Blu-ray

Text #6
ID : 22
ID in the original source medium : 4771 (0x12A3)
Format : PGS
Muxing mode : zlib
Codec ID : S_HDMV/PGS
Codec ID/Info : Picture based subtitle format used on BDs/HD-DVDs
Duration : 2 h 24 min
Bit rate : 35.5 kb/s
Frame rate : 0.488 FPS
Count of elements : 4220
Stream size : 36.5 MiB (0%)
Language : Italian
Default : No
Forced : No
Original source medium : Blu-ray

Text #7
ID : 23
ID in the original source medium : 4772 (0x12A4)
Format : PGS
Muxing mode : zlib
Codec ID : S_HDMV/PGS
Codec ID/Info : Picture based subtitle format used on BDs/HD-DVDs
Duration : 2 h 28 min
Bit rate : 32.2 kb/s
Frame rate : 0.412 FPS
Count of elements : 3668
Stream size : 34.2 MiB (0%)
Language : Spanish
Default : No
Forced : No
Original source medium : Blu-ray

Text #8
ID : 24
ID in the original source medium : 4773 (0x12A5)
Format : PGS
Muxing mode : zlib
Codec ID : S_HDMV/PGS
Codec ID/Info : Picture based subtitle format used on BDs/HD-DVDs
Duration : 2 h 28 min
Bit rate : 29.0 kb/s
Frame rate : 0.313 FPS
Count of elements : 2790
Stream size : 30.8 MiB (0%)
Language : Dutch
Default : No
Forced : No
Original source medium : Blu-ray

Text #9
ID : 25
ID in the original source medium : 4774 (0x12A6)
Format : PGS
Muxing mode : zlib
Codec ID : S_HDMV/PGS
Codec ID/Info : Picture based subtitle format used on BDs/HD-DVDs
Duration : 2 h 22 min
Bit rate : 30.9 kb/s
Frame rate : 0.391 FPS
Count of elements : 3350
Stream size : 31.5 MiB (0%)
Language : 简体
Default : No
Forced : No
Original source medium : Blu-ray

Text #10
ID : 26
ID in the original source medium : 4775 (0x12A7)
Format : PGS
Muxing mode : zlib
Codec ID : S_HDMV/PGS
Codec ID/Info : Picture based subtitle format used on BDs/HD-DVDs
Duration : 2 h 22 min
Bit rate : 32.8 kb/s
Frame rate : 0.411 FPS
Count of elements : 3520
Stream size : 33.5 MiB (0%)
Language : 繁体
Default : No
Forced : No
Original source medium : Blu-ray

Text #11
ID : 27
ID in the original source medium : 4776 (0x12A8)
Format : PGS
Muxing mode : zlib
Codec ID : S_HDMV/PGS
Codec ID/Info : Picture based subtitle format used on BDs/HD-DVDs
Duration : 2 h 28 min
Bit rate : 29.6 kb/s
Frame rate : 0.408 FPS
Count of elements : 3640
Stream size : 31.4 MiB (0%)
Language : Chinese
Default : No
Forced : No
Original source medium : Blu-ray

Text #12
ID : 28
ID in the original source medium : 4777 (0x12A9)
Format : PGS
Muxing mode : zlib
Codec ID : S_HDMV/PGS
Codec ID/Info : Picture based subtitle format used on BDs/HD-DVDs
Duration : 2 h 28 min
Bit rate : 18.4 kb/s
Frame rate : 0.398 FPS
Count of elements : 3544
Stream size : 19.6 MiB (0%)
Language : Korean
Default : No
Forced : No
Original source medium : Blu-ray

Text #13
ID : 29
ID in the original source medium : 4778 (0x12AA)
Format : PGS
Muxing mode : zlib
Codec ID : S_HDMV/PGS
Codec ID/Info : Picture based subtitle format used on BDs/HD-DVDs
Duration : 2 h 22 min
Bit rate : 33.8 kb/s
Frame rate : 0.427 FPS
Count of elements : 3656
Stream size : 34.5 MiB (0%)
Language : Spanish
Default : No
Forced : No
Original source medium : Blu-ray

Text #14
ID : 30
ID in the original source medium : 4779 (0x12AB)
Format : PGS
Muxing mode : zlib
Codec ID : S_HDMV/PGS
Codec ID/Info : Picture based subtitle format used on BDs/HD-DVDs
Duration : 2 h 28 min
Bit rate : 27.4 kb/s
Frame rate : 0.409 FPS
Count of elements : 3646
Stream size : 29.1 MiB (0%)
Language : Czech
Default : No
Forced : No
Original source medium : Blu-ray

Text #15
ID : 31
ID in the original source medium : 4780 (0x12AC)
Format : PGS
Muxing mode : zlib
Codec ID : S_HDMV/PGS
Codec ID/Info : Picture based subtitle format used on BDs/HD-DVDs
Duration : 2 h 28 min
Bit rate : 29.5 kb/s
Frame rate : 0.287 FPS
Count of elements : 2554
Stream size : 31.3 MiB (0%)
Language : Danish
Default : No
Forced : No
Original source medium : Blu-ray

Text #16
ID : 32
ID in the original source medium : 4781 (0x12AD)
Format : PGS
Muxing mode : zlib
Codec ID : S_HDMV/PGS
Codec ID/Info : Picture based subtitle format used on BDs/HD-DVDs
Duration : 2 h 28 min
Bit rate : 32.6 kb/s
Frame rate : 0.414 FPS
Count of elements : 3692
Stream size : 34.6 MiB (0%)
Language : Finnish
Default : No
Forced : No
Original source medium : Blu-ray

Text #17
ID : 33
ID in the original source medium : 4782 (0x12AE)
Format : PGS
Muxing mode : zlib
Codec ID : S_HDMV/PGS
Codec ID/Info : Picture based subtitle format used on BDs/HD-DVDs
Duration : 2 h 28 min
Bit rate : 26.6 kb/s
Frame rate : 0.291 FPS
Count of elements : 2596
Stream size : 28.2 MiB (0%)
Language : Hungarian
Default : No
Forced : No
Original source medium : Blu-ray

Text #18
ID : 34
ID in the original source medium : 4783 (0x12AF)
Format : PGS
Muxing mode : zlib
Codec ID : S_HDMV/PGS
Codec ID/Info : Picture based subtitle format used on BDs/HD-DVDs
Duration : 2 h 28 min
Bit rate : 28.1 kb/s
Frame rate : 0.294 FPS
Count of elements : 2622
Stream size : 29.8 MiB (0%)
Language : Norwegian
Default : No
Forced : No
Original source medium : Blu-ray

Text #19
ID : 35
ID in the original source medium : 4784 (0x12B0)
Format : PGS
Muxing mode : zlib
Codec ID : S_HDMV/PGS
Codec ID/Info : Picture based subtitle format used on BDs/HD-DVDs
Duration : 2 h 28 min
Bit rate : 26.2 kb/s
Frame rate : 0.398 FPS
Count of elements : 3550
Stream size : 27.9 MiB (0%)
Language : Polish
Default : No
Forced : No
Original source medium : Blu-ray

Text #20
ID : 36
ID in the original source medium : 4785 (0x12B1)
Format : PGS
Muxing mode : zlib
Codec ID : S_HDMV/PGS
Codec ID/Info : Picture based subtitle format used on BDs/HD-DVDs
Duration : 2 h 28 min
Bit rate : 30.3 kb/s
Frame rate : 0.408 FPS
Count of elements : 3636
Stream size : 32.2 MiB (0%)
Language : Portuguese
Default : No
Forced : No
Original source medium : Blu-ray

Text #21
ID : 37
ID in the original source medium : 4786 (0x12B2)
Format : PGS
Muxing mode : zlib
Codec ID : S_HDMV/PGS
Codec ID/Info : Picture based subtitle format used on BDs/HD-DVDs
Duration : 2 h 28 min
Bit rate : 29.6 kb/s
Frame rate : 0.309 FPS
Count of elements : 2758
Stream size : 31.5 MiB (0%)
Language : Swedish
Default : No
Forced : No
Original source medium : Blu-ray

Text #22
ID : 38
ID in the original source medium : 4787 (0x12B3)
Format : PGS
Muxing mode : zlib
Codec ID : S_HDMV/PGS
Codec ID/Info : Picture based subtitle format used on BDs/HD-DVDs
Duration : 2 h 28 min
Bit rate : 28.8 kb/s
Frame rate : 0.413 FPS
Count of elements : 3684
Stream size : 30.6 MiB (0%)
Language : Thai
Default : No
Forced : No
Original source medium : Blu-ray

Text #23
ID : 39
ID in the original source medium : 4788 (0x12B4)
Format : PGS
Muxing mode : zlib
Codec ID : S_HDMV/PGS
Codec ID/Info : Picture based subtitle format used on BDs/HD-DVDs
Duration : 2 h 12 min
Bit rate : 228 b/s
Frame rate : 0.004 FPS
Count of elements : 28
Stream size : 221 KiB (0%)
Language : French
Default : No
Forced : No
Original source medium : Blu-ray

Text #24
ID : 40
ID in the original source medium : 4789 (0x12B5)
Format : PGS
Muxing mode : zlib
Codec ID : S_HDMV/PGS
Codec ID/Info : Picture based subtitle format used on BDs/HD-DVDs
Duration : 2 h 12 min
Bit rate : 204 b/s
Frame rate : 0.004 FPS
Count of elements : 34
Stream size : 198 KiB (0%)
Language : French
Default : No
Forced : No
Original source medium : Blu-ray

Text #25
ID : 41
ID in the original source medium : 4790 (0x12B6)
Format : PGS
Muxing mode : zlib
Codec ID : S_HDMV/PGS
Codec ID/Info : Picture based subtitle format used on BDs/HD-DVDs
Duration : 2 h 12 min
Bit rate : 144 b/s
Frame rate : 0.003 FPS
Count of elements : 22
Stream size : 140 KiB (0%)
Language : German
Default : No
Forced : No
Original source medium : Blu-ray

Text #26
ID : 42
ID in the original source medium : 4791 (0x12B7)
Format : PGS
Muxing mode : zlib
Codec ID : S_HDMV/PGS
Codec ID/Info : Picture based subtitle format used on BDs/HD-DVDs
Duration : 2 h 12 min
Bit rate : 216 b/s
Frame rate : 0.004 FPS
Count of elements : 32
Stream size : 210 KiB (0%)
Language : Italian
Default : No
Forced : No
Original source medium : Blu-ray

Text #27
ID : 43
ID in the original source medium : 4792 (0x12B8)
Format : PGS
Muxing mode : zlib
Codec ID : S_HDMV/PGS
Codec ID/Info : Picture based subtitle format used on BDs/HD-DVDs
Duration : 2 h 12 min
Bit rate : 204 b/s
Frame rate : 0.004 FPS
Count of elements : 32
Stream size : 198 KiB (0%)
Language : Spanish
Default : No
Forced : No
Original source medium : Blu-ray

Text #28
ID : 44
ID in the original source medium : 4793 (0x12B9)
Format : PGS
Muxing mode : zlib
Codec ID : S_HDMV/PGS
Codec ID/Info : Picture based subtitle format used on BDs/HD-DVDs
Duration : 104 ms
Bit rate : 5 384 b/s
Frame rate : 19.231 FPS
Count of elements : 2
Stream size : 70.0 Bytes (0%)
Language : Spanish
Default : No
Forced : No
Original source medium : Blu-ray

Text #29
ID : 45
ID in the original source medium : 4794 (0x12BA)
Format : PGS
Muxing mode : zlib
Codec ID : S_HDMV/PGS
Codec ID/Info : Picture based subtitle format used on BDs/HD-DVDs
Duration : 2 h 12 min
Bit rate : 146 b/s
Frame rate : 0.004 FPS
Count of elements : 28
Stream size : 142 KiB (0%)
Language : Czech
Default : No
Forced : No
Original source medium : Blu-ray

Text #30
ID : 46
ID in the original source medium : 4795 (0x12BB)
Format : PGS
Muxing mode : zlib
Codec ID : S_HDMV/PGS
Codec ID/Info : Picture based subtitle format used on BDs/HD-DVDs
Duration : 2 h 12 min
Bit rate : 154 b/s
Frame rate : 0.004 FPS
Count of elements : 28
Stream size : 149 KiB (0%)
Language : Hindi
Default : No
Forced : No
Original source medium : Blu-ray

Text #31
ID : 47
ID in the original source medium : 4796 (0x12BC)
Format : PGS
Muxing mode : zlib
Codec ID : S_HDMV/PGS
Codec ID/Info : Picture based subtitle format used on BDs/HD-DVDs
Duration : 2 h 21 min
Bit rate : 276 b/s
Frame rate : 0.006 FPS
Count of elements : 52
Stream size : 287 KiB (0%)
Language : Thai
Default : No
Forced : No
Original source medium : Blu-ray

Text #32
ID : 48
ID in the original source medium : 4797 (0x12BD)
Format : PGS
Muxing mode : zlib
Codec ID : S_HDMV/PGS
Codec ID/Info : Picture based subtitle format used on BDs/HD-DVDs
Duration : 2 h 22 min
Bit rate : 19.9 kb/s
Frame rate : 0.378 FPS
Count of elements : 3243
Stream size : 20.3 MiB (0%)
Language : Japanese
Default : No
Forced : No
Original source medium : Blu-ray

Text #33
ID : 49
ID in the original source medium : 4798 (0x12BE)
Format : PGS
Muxing mode : zlib
Codec ID : S_HDMV/PGS
Codec ID/Info : Picture based subtitle format used on BDs/HD-DVDs
Duration : 2 h 12 min
Bit rate : 187 b/s
Frame rate : 0.005 FPS
Count of elements : 36
Stream size : 182 KiB (0%)
Language : Japanese
Default : No
Forced : No
Original source medium : Blu-ray

Menu
00:00:00.000 : en:Chapter 01
00:09:39.412 : en:Chapter 02
00:19:30.502 : en:Chapter 03
00:28:18.238 : en:Chapter 04
00:38:49.368 : en:Chapter 05
00:49:20.165 : en:Chapter 06
01:00:33.254 : en:Chapter 07
01:09:41.260 : en:Chapter 08
01:22:36.368 : en:Chapter 09
01:30:54.740 : en:Chapter 10
01:39:40.391 : en:Chapter 11
01:51:02.572 : en:Chapter 12
01:59:40.756 : en:Chapter 13
02:11:42.853 : en:Chapter 14
02:19:06.838 : en:Chapter 15



新种推荐使用qBittorrent、uTorrent等下载软件,有条件的推荐115更好的下载软件!

信条(77.08GB)Tenet.2020.PROPER.IMAX.2160p.BluRay.REMUX.HEVC.DTS-HD.MA.5.1-FGT-【2160P蓝光REMUX】
游客,如果您要查看本帖隐藏内容请回复



4KQQ海报.gif

上一篇:惊奇队长 [简繁中字] / Captain Marvel (2019) 4K蓝光REMUX版本
下一篇:第一滴血4 / Tenet (2020) 4K蓝光REMUX版本下载
回复

使用道具 举报

0

主题

1

帖子

6

积分

新手上路

Rank: 1

积分
6
发表于 2022-12-18 14:41:09 | 显示全部楼层
感谢楼主分享
回复 支持 反对

使用道具 举报

主题

帖子

0

积分

新手上路

Rank: 1

积分
0
发表于 2022-12-18 16:26:44 | 显示全部楼层
感谢分享
回复

使用道具 举报

您需要登录后才可以回帖 登录 | 立即注册

本版积分规则

精彩图文
Archiver|手机版|TAG|Sitemap|新帖|专题|联系我们:邮箱: 4kjia.com@gmail.com   

4k家园   ©2019