[4K UHD 蓝光原盘] 第一滴血4 / Tenet (2020) 4K蓝光REMUX版本下载

[复制链接]

主题

帖子

0

积分

超级版主

Rank: 8Rank: 8

积分
0
 楼主| 发表于 2022-12-18 12:41:39 | 显示全部楼层 |阅读模式
QQ图片20221218124050_副本.png

◎标  题 第一滴血4
◎译  名 第四滴血 / 兰博4 / RAMBO 热血回归 / Rambo IV / John Rambo / Rambo The Fight Continues
◎片  名 Rambo
◎年  代 2008
◎产  地 美国 / 德国
◎类  别 动作 / 惊悚
◎语  言 英语 / 缅甸语 / 泰语
◎上映日期 2008-01-25(美国)
◎IMDb评分 7.0/10 from 233463 users 更新 : 2022-12-15
◎IMDb链接 https://www.imdb.com/title/tt0462499/
◎豆瓣评分 7.5/10 from 49033 users 更新 : 2022-12-15
◎豆瓣链接 https://movie.douban.com/subject/1440855/
◎片  长 92分钟 / 99分钟(加长版)
◎导  演 西尔维斯特·史泰龙 Sylvester Stallone
◎编  剧 亚特·蒙特拉斯特里 Art Monterastelli / 西尔维斯特·史泰龙 Sylvester Stallone / 大卫·莫瑞尔 David Morrell
◎演  员 西尔维斯特·史泰龙 Sylvester Stallone
       朱莉·本茨 Julie Benz
       马修·马斯登 Matthew Marsden
       格拉汉姆·麦克泰维什 Graham McTavish
       詹姆斯·维斯 James With
       保罗·舒尔茨 Paul Schulze
       蒂姆·康 Tim Kang
       Supakorn Kitsuwon Supakorn Kitsuwon
       马修·沃尔夫 Matthew Wolf
       肯·霍华德 Ken Howard


◎简  介


    军政府统治下的缅甸,其西部由于蕴含丰富资源而被军队觊觎多年,那里的儿童经常被军队强征入伍,针对平民的屠杀已经成了部分军人的娱乐……一支教会义工小队为了进入该地区向难民提供人道主义帮助,在泰国找到了隐居的兰博(西尔维斯特•史泰龙 Sylvester Stallone 饰),希望熟悉河道的后者提供帮助。兰博认为时局没有改变的可能,拒绝带路,但终被义工莎拉(Julie Benz 饰)的诚意打动,将他们送达。   岂料这支义工小队在村庄中遭到军队的袭击,生还者全部被掳走。教会获悉义工们身陷险境,组织雇佣兵营救,并再次委托兰博带路,这一次,兰博的态度发生了转变,他率领雇佣兵们潜入缅甸军营,又一次化身热血战士。

Video
ID : 1
ID in the original source medium : 4113 (0x1011)
Format : HEVC
Format/Info : High Efficiency Video Coding
Format profile : Main 10@L5.1@High
HDR format : Dolby Vision, Version 1.0, dvhe.07.06, BL+EL+RPU, Blu-ray compatible / SMPTE ST 2086, HDR10 compatible
Codec ID : V_MPEGH/ISO/HEVC
Duration : 1 h 39 min
Bit rate : 48.1 Mb/s
Width : 3 840 pixels
Height : 2 160 pixels
Display aspect ratio : 16:9
Frame rate mode : Constant
Frame rate : 23.976 (24000/1001) FPS
Color space : YUV
Chroma subsampling : 4:2:0 (Type 2)
Bit depth : 10 bits
Bits/(Pixel*Frame) : 0.242
Stream size : 33.3 GiB (81%)
Language : English
Default : No
Forced : No
Color range : Limited
Color primaries : BT.2020
Transfer characteristics : PQ
Matrix coefficients : BT.2020 non-constant
Mastering display color primaries : Display P3
Mastering display luminance : min: 0.0010 cd/m2, max: 1000 cd/m2
Maximum Content Light Level : 1000 cd/m2
Maximum Frame-Average Light Level : 932 cd/m2
Original source medium : Blu-ray

Audio #1
ID : 2
ID in the original source medium : 4352 (0x1100)
Format : MLP FBA 16-ch
Format/Info : Meridian Lossless Packing FBA with 16-channel presentation
Commercial name : Dolby TrueHD with Dolby Atmos
Codec ID : A_TRUEHD
Duration : 1 h 39 min
Bit rate mode : Variable
Bit rate : 5 671 kb/s
Maximum bit rate : 8 955 kb/s
Channel(s) : 8 channels
Channel layout : L R C LFE Ls Rs Lb Rb
Sampling rate : 48.0 kHz
Frame rate : 1 200.000 FPS (40 SPF)
Bit depth : 24 bits
Compression mode : Lossless
Stream size : 3.93 GiB (10%)
Title : TrueHD 7.1. Atmos
Language : English
Default : Yes
Forced : No
Original source medium : Blu-ray
Number of dynamic objects : 15
Bed channel count : 1 channel
Bed channel configuration : LFE

Audio #2
ID : 3
Format : DTS XLL
Format/Info : Digital Theater Systems
Commercial name : DTS-HD Master Audio
Codec ID : A_DTS
Duration : 1 h 39 min
Bit rate mode : Variable
Bit rate : 4 915 kb/s
Channel(s) : 8 channels
Channel layout : C L R LFE Lb Rb Lss Rss
Sampling rate : 48.0 kHz
Frame rate : 93.750 FPS (512 SPF)
Bit depth : 24 bits
Compression mode : Lossless
Stream size : 3.41 GiB (8%)
Title : DTS-HD MA 7.1
Language : English
Default : No
Forced : No

Audio #3
ID : 4
ID in the original source medium : 4352 (0x1100)
Format : AC-3
Format/Info : Audio Coding 3
Commercial name : Dolby Digital
Format settings : Dolby Surround EX
Codec ID : A_AC3
Duration : 1 h 39 min
Bit rate mode : Constant
Bit rate : 640 kb/s
Channel(s) : 6 channels
Channel layout : L R C LFE Ls Rs
Sampling rate : 48.0 kHz
Frame rate : 31.250 FPS (1536 SPF)
Compression mode : Lossy
Stream size : 454 MiB (1%)
Title : DD 5.1
Language : English
Service kind : Complete Main
Default : No
Forced : No
Original source medium : Blu-ray

Text #1
ID : 5
Format : UTF-8
Codec ID : S_TEXT/UTF8
Codec ID/Info : UTF-8 Plain Text
Duration : 1 h 25 min
Bit rate : 29 b/s
Frame rate : 0.108 FPS
Count of elements : 556
Stream size : 18.6 KiB (0%)
Language : English
Default : Yes
Forced : No

Text #2
ID : 6
Format : UTF-8
Codec ID : S_TEXT/UTF8
Codec ID/Info : UTF-8 Plain Text
Duration : 1 h 25 min
Bit rate : 33 b/s
Frame rate : 0.138 FPS
Count of elements : 706
Stream size : 21.0 KiB (0%)
Title : SDH
Language : English
Default : No
Forced : No

Text #3
ID : 7
ID in the original source medium : 4768 (0x12A0)
Format : PGS
Muxing mode : zlib
Codec ID : S_HDMV/PGS
Codec ID/Info : Picture based subtitle format used on BDs/HD-DVDs
Duration : 1 h 25 min
Bit rate : 19.1 kb/s
Frame rate : 0.219 FPS
Count of elements : 1124
Stream size : 11.7 MiB (0%)
Language : English
Default : No
Forced : No
Original source medium : Blu-ray

Text #4
ID : 8
ID in the original source medium : 4769 (0x12A1)
Format : PGS
Muxing mode : zlib
Codec ID : S_HDMV/PGS
Codec ID/Info : Picture based subtitle format used on BDs/HD-DVDs
Duration : 1 h 25 min
Bit rate : 23.1 kb/s
Frame rate : 0.278 FPS
Count of elements : 1426
Stream size : 14.1 MiB (0%)
Language : English
Default : No
Forced : No
Original source medium : Blu-ray

Text #5
ID : 9
ID in the original source medium : 4770 (0x12A2)
Format : PGS
Muxing mode : zlib
Codec ID : S_HDMV/PGS
Codec ID/Info : Picture based subtitle format used on BDs/HD-DVDs
Duration : 1 h 25 min
Bit rate : 19.3 kb/s
Frame rate : 0.257 FPS
Count of elements : 1320
Stream size : 11.8 MiB (0%)
Language : Spanish
Default : No
Forced : No
Original source medium : Blu-ray

Menu
00:00:00.000 : en:Chapter 01
00:06:04.197 : en:Chapter 02
00:11:33.359 : en:Chapter 03
00:22:41.735 : en:Chapter 04
00:28:31.543 : en:Chapter 05
00:33:17.662 : en:Chapter 06
00:42:31.966 : en:Chapter 07
00:47:26.134 : en:Chapter 08
00:52:06.790 : en:Chapter 09
00:59:18.012 : en:Chapter 10
01:03:30.848 : en:Chapter 11
01:08:02.953 : en:Chapter 12
01:13:43.460 : en:Chapter 13
01:19:02.195 : en:Chapter 14
01:24:37.238 : en:Chapter 15
01:27:17.523 : en:Chapter 16


关于下载问题:推荐使用qBittorrent、uTorrent等下载软件,有条件的推荐115更好的下载软件!

第一滴血4(41.18GB)Rambo.2008.PROPER.EXTENDED.2160p.BluRay.REMUX.HEVC.DTS-HD.MA.TrueHD.7.1.Atmos-FGT-【2160P蓝光REMUX】
游客,如果您要查看本帖隐藏内容请回复



4KQQ海报.gif

上一篇:信条 [简繁中字] Tenet (2020) 4K蓝光REMUX版本下载
下一篇:第一滴血 / First Blood (1982) 4K蓝光REMUX版本下载
回复

使用道具 举报

0

主题

3

帖子

12

积分

新手上路

Rank: 1

积分
12
发表于 2022-12-18 12:47:50 | 显示全部楼层
感谢好心人
回复 支持 反对

使用道具 举报

主题

帖子

0

积分

新手上路

Rank: 1

积分
0
发表于 2022-12-18 13:46:55 | 显示全部楼层
第一滴血4 / Tenet (2020) 4K蓝光REMUX版本下载
回复 支持 反对

使用道具 举报

0

主题

3

帖子

12

积分

新手上路

Rank: 1

积分
12
发表于 2023-1-15 16:39:45 来自手机 | 显示全部楼层
牛逼克拉斯
回复 支持 反对

使用道具 举报

0

主题

2

帖子

12

积分

新手上路

Rank: 1

积分
12
发表于 2023-1-17 14:43:35 | 显示全部楼层
要看
回复

使用道具 举报

0

主题

4

帖子

15

积分

新手上路

Rank: 1

积分
15
发表于 2023-1-24 23:21:07 | 显示全部楼层
祝你好运
回复

使用道具 举报

主题

帖子

0

积分

新手上路

Rank: 1

积分
0
发表于 4 天前 | 显示全部楼层

感谢好心人,谢谢分享
回复 支持 反对

使用道具 举报

您需要登录后才可以回帖 登录 | 立即注册

本版积分规则

精彩图文
Archiver|手机版|TAG|Sitemap|新帖|专题|联系我们:邮箱: 4kjia.com@gmail.com   

4k家园   ©2019