[4K UHD 蓝光原盘] 第一滴血3 / Rambo III (1988) 4K蓝光REMUX版本下载

[复制链接]

主题

帖子

0

积分

超级版主

Rank: 8Rank: 8

积分
0
 楼主| 发表于 2022-12-18 13:13:30 | 显示全部楼层 |阅读模式
第一滴血3.png

◎标  题 第一滴血3
◎译  名 兰博3
◎片  名 Rambo III
◎年  代 1988
◎产  地 美国
◎类  别 动作 / 冒险
◎语  言 英语 / 俄语
◎上映日期 1988-05-25(美国)
◎IMDb评分 5.8/10 from 132681 users 更新 : 2022-12-17
◎IMDb链接 https://www.imdb.com/title/tt0095956/
◎豆瓣评分 7.6/10 from 40164 users 更新 : 2022-12-17
◎豆瓣链接 https://movie.douban.com/subject/1300399/
◎片  长 102 分钟
◎导  演 彼得·麦克唐纳德 Peter MacDonald
◎编  剧 大卫·莫瑞尔 David Morrell / 西尔维斯特·史泰龙 Sylvester Stallone / 谢尔登 莱提奇 Sheldon Lettich
◎演  员 西尔维斯特·史泰龙 Sylvester Stallone
       理查德·克里纳 Richard Crenna
       马克德容 Marc de Jonge
       柯特伍德·史密斯 Kurtwood Smith
       塞森·加布埃 Sasson Gabai
       阿隆·阿布布尔 Alon Aboutboul
       Paul Dion Monte Paul Dion Monte
       Doudi Shoua Doudi Shoua
       约瑟夫·希洛赫 Joseph Shiloach
       R、 T.弗里曼 R.T. Freeman
       安德鲁·G·瓦吉纳 Andrew G. Vajna
       巴茨·费特香斯 Buzz Feitshans
       马里奥·凯萨 Mario Kassar
       杰瑞·高德史密斯 Jerry Goldsmith
       Edward Warschilka Edward Warschilka
       O. Nicholas Brown O. Nicholas Brown
       Pier Luigi Basile Pier Luigi Basile
       本哈明·费勒南戴斯 Benjamín Fernández
       Adrian Gorton Adrian Gorton
       Richard La Motte Richard La Motte
       Donna Barrett Gilbert Donna Barrett Gilbert
       Jeff Goodwin Jeff Goodwin
       詹内托·德·罗西 Giannetto De Rossi
       Nikolas Korda Nikolas Korda
       Dennis Maguire Dennis Maguire
       恩斯特·戴 Ernest Day
       David Stump David Stump
       约翰·科茨 John Coats
       Tim Donahue Tim Donahue
       Joel Fletcher Joel Fletcher
       威廉·梅萨 William Mesa
       Jon Macht Jon Macht
       黄家达 Carter Wong


◎简  介


  历经无数战火与生死考验,孔武有力的豪情勇士约翰·兰博(西尔维斯特·史泰龙 Sylvester Stallone 饰)放下手中的杀人武器,在泰国过起了平静的修行生活。这一日,特劳特曼上校(理查德·克里纳 Richard Crenna饰)突然出现在他面前。此前不久,上校受命率部队前往阿富汗,协助当地的圣战勇士反抗苏联人的入侵。虽然照片中阿富汗平民饱受外敌侵略和蹂躏的情景触目惊心,但兰博还是拒绝了上校的邀请。某晚,特劳特曼的部队在执行任务途中遭到苏联军队的伏击,其本人也不幸沦为阶下囚。得知这一消息,兰博再也无法静观其变。浴血战士重披战甲,只身闯入充满凶险的阿富汗腹地,展开一场紧张纷呈的绝命营救……
本片获1989年金酸梅最差男主角奖。

Video
ID : 1
ID in the original source medium : 4113 (0x1011)
Format : HEVC
Format/Info : High Efficiency Video Coding
Format profile : Main 10@L5.1@High
HDR format : SMPTE ST 2086, HDR10 compatible
Codec ID : V_MPEGH/ISO/HEVC
Duration : 1 h 41 min
Bit rate : 57.4 Mb/s
Width : 3 840 pixels
Height : 2 160 pixels
Display aspect ratio : 16:9
Frame rate mode : Constant
Frame rate : 24.000 FPS
Color space : YUV
Chroma subsampling : 4:2:0 (Type 2)
Bit depth : 10 bits
Bits/(Pixel*Frame) : 0.288
Stream size : 40.7 GiB (79%)
Language : English
Default : No
Forced : No
Color range : Limited
Color primaries : BT.2020
Transfer characteristics : PQ
Matrix coefficients : BT.2020 non-constant
Mastering display color primaries : Display P3
Mastering display luminance : min: 0.0050 cd/m2, max: 1000 cd/m2
Maximum Content Light Level : 479 cd/m2
Maximum Frame-Average Light Level : 468 cd/m2
Original source medium : Blu-ray

Audio #1
ID : 2
ID in the original source medium : 4354 (0x1102)
Format : DTS XLL
Format/Info : Digital Theater Systems
Commercial name : DTS-HD Master Audio
Codec ID : A_DTS
Duration : 1 h 41 min
Bit rate mode : Variable
Bit rate : 4 242 kb/s
Channel(s) : 6 channels
Channel layout : C L R Ls Rs LFE
Sampling rate : 48.0 kHz
Frame rate : 93.750 FPS (512 SPF)
Bit depth : 24 bits
Compression mode : Lossless
Stream size : 3.01 GiB (6%)
Title : DTS-HD MA 5.1
Language : English
Default : Yes
Forced : No
Original source medium : Blu-ray

Audio #2
ID : 3
Format : AC-3
Format/Info : Audio Coding 3
Commercial name : Dolby Digital
Codec ID : A_AC3
Duration : 1 h 41 min
Bit rate mode : Constant
Bit rate : 640 kb/s
Channel(s) : 6 channels
Channel layout : L R C LFE Ls Rs
Sampling rate : 48.0 kHz
Frame rate : 31.250 FPS (1536 SPF)
Compression mode : Lossy
Stream size : 464 MiB (1%)
Title : DD 5.1
Language : English
Service kind : Complete Main
Default : No
Forced : No

Audio #3
ID : 4
ID in the original source medium : 4352 (0x1100)
Format : DTS XLL
Format/Info : Digital Theater Systems
Commercial name : DTS-HD Master Audio
Codec ID : A_DTS
Duration : 1 h 41 min
Bit rate mode : Variable
Bit rate : 4 208 kb/s
Channel(s) : 6 channels
Channel layout : C L R Ls Rs LFE
Sampling rate : 48.0 kHz
Frame rate : 93.750 FPS (512 SPF)
Bit depth : 24 bits
Compression mode : Lossless
Stream size : 2.98 GiB (6%)
Title : DTS-HD MA 5.1
Language : German
Default : No
Forced : No
Original source medium : Blu-ray

Audio #4
ID : 5
ID in the original source medium : 4353 (0x1101)
Format : DTS XLL
Format/Info : Digital Theater Systems
Commercial name : DTS-HD Master Audio
Codec ID : A_DTS
Duration : 1 h 41 min
Bit rate mode : Variable
Bit rate : 4 399 kb/s
Channel(s) : 6 channels
Channel layout : C L R Ls Rs LFE
Sampling rate : 48.0 kHz
Frame rate : 93.750 FPS (512 SPF)
Bit depth : 24 bits
Compression mode : Lossless
Stream size : 3.12 GiB (6%)
Title : DTS-HD MA 5.1
Language : French
Default : No
Forced : No
Original source medium : Blu-ray

Audio #5
ID : 6
ID in the original source medium : 4355 (0x1103)
Format : DTS XLL
Format/Info : Digital Theater Systems
Commercial name : DTS-HD Master Audio
Codec ID : A_DTS
Duration : 1 h 41 min
Bit rate mode : Variable
Bit rate : 2 075 kb/s
Channel(s) : 2 channels
Channel layout : L R
Sampling rate : 48.0 kHz
Frame rate : 93.750 FPS (512 SPF)
Bit depth : 24 bits
Compression mode : Lossless
Stream size : 1.47 GiB (3%)
Title : DTS-HD MA 2.0
Language : English
Default : No
Forced : No
Original source medium : Blu-ray

Text #1
ID : 7
Format : UTF-8
Codec ID : S_TEXT/UTF8
Codec ID/Info : UTF-8 Plain Text
Duration : 18 min 49 s
Bit rate : 1 b/s
Frame rate : 0.011 FPS
Count of elements : 12
Stream size : 258 Bytes (0%)
Title : FORCED
Language : English
Default : No
Forced : No

Text #2
ID : 8
Format : UTF-8
Codec ID : S_TEXT/UTF8
Codec ID/Info : UTF-8 Plain Text
Duration : 1 h 30 min
Bit rate : 22 b/s
Frame rate : 0.088 FPS
Count of elements : 479
Stream size : 14.8 KiB (0%)
Language : English
Default : Yes
Forced : No

Text #3
ID : 9
Format : UTF-8
Codec ID : S_TEXT/UTF8
Codec ID/Info : UTF-8 Plain Text
Duration : 1 h 39 min
Bit rate : 25 b/s
Frame rate : 0.132 FPS
Count of elements : 791
Stream size : 18.3 KiB (0%)
Title : SDH
Language : English
Default : No
Forced : No

Text #4
ID : 10
ID in the original source medium : 4768 (0x12A0)
Format : PGS
Muxing mode : zlib
Codec ID : S_HDMV/PGS
Codec ID/Info : Picture based subtitle format used on BDs/HD-DVDs
Duration : 1 h 33 min
Bit rate : 15.0 kb/s
Frame rate : 0.176 FPS
Count of elements : 984
Stream size : 9.96 MiB (0%)
Language : German
Default : No
Forced : No
Original source medium : Blu-ray

Text #5
ID : 11
ID in the original source medium : 4769 (0x12A1)
Format : PGS
Muxing mode : zlib
Codec ID : S_HDMV/PGS
Codec ID/Info : Picture based subtitle format used on BDs/HD-DVDs
Duration : 1 h 32 min
Bit rate : 12.9 kb/s
Frame rate : 0.192 FPS
Count of elements : 1070
Stream size : 8.61 MiB (0%)
Language : French
Default : No
Forced : No
Original source medium : Blu-ray

Text #6
ID : 12
ID in the original source medium : 4770 (0x12A2)
Format : PGS
Muxing mode : zlib
Codec ID : S_HDMV/PGS
Codec ID/Info : Picture based subtitle format used on BDs/HD-DVDs
Duration : 1 h 30 min
Bit rate : 13.7 kb/s
Frame rate : 0.178 FPS
Count of elements : 966
Stream size : 8.90 MiB (0%)
Language : English
Default : No
Forced : No
Original source medium : Blu-ray

Text #7
ID : 13
ID in the original source medium : 4771 (0x12A3)
Format : PGS
Muxing mode : zlib
Codec ID : S_HDMV/PGS
Codec ID/Info : Picture based subtitle format used on BDs/HD-DVDs
Duration : 31 min 54 s
Bit rate : 907 b/s
Frame rate : 0.014 FPS
Count of elements : 26
Stream size : 212 KiB (0%)
Title : FORCED
Language : German
Default : No
Forced : No
Original source medium : Blu-ray

Text #8
ID : 14
ID in the original source medium : 4772 (0x12A4)
Format : PGS
Muxing mode : zlib
Codec ID : S_HDMV/PGS
Codec ID/Info : Picture based subtitle format used on BDs/HD-DVDs
Duration : 31 min 54 s
Bit rate : 943 b/s
Frame rate : 0.014 FPS
Count of elements : 26
Stream size : 221 KiB (0%)
Title : FORCED
Language : French
Default : No
Forced : No
Original source medium : Blu-ray

Text #9
ID : 15
ID in the original source medium : 4773 (0x12A5)
Format : PGS
Muxing mode : zlib
Codec ID : S_HDMV/PGS
Codec ID/Info : Picture based subtitle format used on BDs/HD-DVDs
Duration : 18 min 49 s
Bit rate : 1 212 b/s
Frame rate : 0.021 FPS
Count of elements : 24
Stream size : 167 KiB (0%)
Title : FORCED
Language : English
Default : No
Forced : No
Original source medium : Blu-ray

Text #10
ID : 16
ID in the original source medium : 4774 (0x12A6)
Format : PGS
Muxing mode : zlib
Codec ID : S_HDMV/PGS
Codec ID/Info : Picture based subtitle format used on BDs/HD-DVDs
Duration : 1 h 40 min
Bit rate : 24.2 kb/s
Frame rate : 0.206 FPS
Count of elements : 1244
Stream size : 17.5 MiB (0%)
Title : COMMENTARY
Language : German
Default : No
Forced : No
Original source medium : Blu-ray

Text #11
ID : 17
ID in the original source medium : 4775 (0x12A7)
Format : PGS
Muxing mode : zlib
Codec ID : S_HDMV/PGS
Codec ID/Info : Picture based subtitle format used on BDs/HD-DVDs
Duration : 1 h 40 min
Bit rate : 30.4 kb/s
Frame rate : 0.342 FPS
Count of elements : 2070
Stream size : 21.9 MiB (0%)
Title : COMMENTARY
Language : French
Default : No
Forced : No
Original source medium : Blu-ray

Menu
00:00:00.000 : en:Chapter 01
00:07:19.541 : en:Chapter 02
00:14:30.250 : en:Chapter 03
00:25:23.000 : en:Chapter 04
00:30:14.250 : en:Chapter 05
00:36:19.250 : en:Chapter 06
00:48:47.166 : en:Chapter 07
00:58:49.375 : en:Chapter 08
01:09:51.875 : en:Chapter 09
01:17:14.958 : en:Chapter 10
01:26:29.500 : en:Chapter 11
01:34:47.166 : en:Chapter 12


关于下载问题:推荐使用qBittorrent、uTorrent等下载软件,有条件的推荐115更好的下载软件!

第一滴血3(51.74GB)Rambo.III.1988.PROPER.2160p.BluRay.REMUX.HEVC.DTS-HD.MA.5.1-FGT-【2160P蓝光REMUX】

游客,如果您要查看本帖隐藏内容请回复




4KQQ海报.gif

上一篇:第一滴血2 / Rambo: First Blood Part II (1985) 4K蓝光REMUX版本下载
下一篇:第一滴血5:最后的血 (2019) 4K蓝光REMUX版本下载
回复

使用道具 举报

主题

帖子

0

积分

新手上路

Rank: 1

积分
0
发表于 2022-12-18 22:10:43 | 显示全部楼层
谢谢分享
回复

使用道具 举报

您需要登录后才可以回帖 登录 | 立即注册

本版积分规则

精彩图文
Archiver|手机版|TAG|Sitemap|新帖|专题|联系我们:邮箱: 4kjia.com@gmail.com   

4k家园   ©2019