[4K UHD 蓝光原盘] 第一滴血5:最后的血 (2019) 4K蓝光REMUX版本下载

[复制链接]

主题

帖子

0

积分

超级版主

Rank: 8Rank: 8

积分
0
 楼主| 发表于 2022-12-18 13:19:31 | 显示全部楼层 |阅读模式

第一滴血5:最后的血.png

◎标  题 第一滴血5:最后的血
◎译  名 第一滴血:终极血战(港) / 蓝波:最后一滴血(台) / 第一滴血5 / 兰博5:最后一滴血 / 第一滴血:最后一战 / Rambo V / Rambo 5 / Rambo 5: Last Blood / Rambo V: Last Blood
◎片  名 Rambo: Last Blood
◎年  代 2019
◎产  地 美国 / 西班牙 / 保加利亚
◎类  别 动作 / 惊悚 / 冒险
◎语  言 英语 / 西班牙语
◎上映日期 2019-09-18(印度尼西亚) / 2019-09-20(美国) / 2019-09-27(西班牙)
◎IMDb评分 6.1/10 from 99652 users 更新 : 2022-12-17
◎IMDb链接 https://www.imdb.com/title/tt1206885/
◎豆瓣评分 7.5/10 from 48228 users 更新 : 2022-12-18
◎豆瓣链接 https://movie.douban.com/subject/10546436/
◎片  长 89分钟 / 101分钟
◎导  演 阿德里安·格鲁伯格 Adrian Grunberg
◎编  剧 马修·西鲁尼克 Matthew Cirulnick / 西尔维斯特·史泰龙 Sylvester Stallone / 丹·戈登 Dan Gordon / 大卫·莫瑞尔 David Morrell
◎演  员 西尔维斯特·史泰龙 Sylvester Stallone
       帕斯·贝加 Paz Vega
       塞尔吉奥·佩里斯-门切塔 Sergio Peris-Mencheta
       艾德里安娜·巴拉扎 Adriana Barraza
       维特·蒙雷尔 Yvette Monreal
       吉妮·金 Genie Kim
       华金·科西奥 Joaquín Cosio
       帕斯卡西奥·洛佩斯 Pascacio López
       奥斯卡·贾恩那达 Óscar Jaenada
       亚历山大·迪米特罗夫 Alexander Dimitrov
       亚伦·科恩 Aaron Cohen
       尼克·威特曼 Nick Wittman
       杰西卡·马德森 Jessica Madsen
       路易·曼迪勒 Louis Mandylor
       欧文·戴维斯 Owen Davis
       阿塔纳斯·斯雷布雷夫 Atanas Srebrev
       乔治·曼切夫 Georgi Manchev
       菲妮莎·皮内达 Fenessa Pineda


◎简  介


    西尔维斯特·史泰龙回归[第一滴血5],并有望执导。除主演外,据悉史泰龙将操刀剧本,故事围绕兰博为营救朋友之女与墨西哥毒枭展开殊死搏斗展开。制片艾威·勒纳([敢死队]系列)。该系列首部于1982年上映,2008年史泰龙曾自导自演[第一滴血4]。[第一滴血5]将在本届戛纳电影节预售,9月开拍。

Video
ID : 1
ID in the original source medium : 4113 (0x1011)
Format : HEVC
Format/Info : High Efficiency Video Coding
Format profile : Main 10@L5.1@High
HDR format : Dolby Vision, Version 1.0, dvhe.07.06, BL+EL+RPU, Blu-ray compatible / SMPTE ST 2086, HDR10 compatible
Codec ID : V_MPEGH/ISO/HEVC
Duration : 1 h 29 min
Bit rate : 56.5 Mb/s
Width : 3 840 pixels
Height : 2 160 pixels
Display aspect ratio : 16:9
Frame rate mode : Constant
Frame rate : 23.976 (24000/1001) FPS
Color space : YUV
Chroma subsampling : 4:2:0 (Type 2)
Bit depth : 10 bits
Bits/(Pixel*Frame) : 0.284
Stream size : 35.3 GiB (86%)
Language : English
Default : No
Forced : No
Color range : Limited
Color primaries : BT.2020
Transfer characteristics : PQ
Matrix coefficients : BT.2020 non-constant
Mastering display color primaries : Display P3
Mastering display luminance : min: 0.0010 cd/m2, max: 1000 cd/m2
Maximum Content Light Level : 1000 cd/m2
Maximum Frame-Average Light Level : 475 cd/m2
Original source medium : Blu-ray

Audio #1
ID : 2
ID in the original source medium : 4352 (0x1100)
Format : MLP FBA 16-ch
Format/Info : Meridian Lossless Packing FBA with 16-channel presentation
Commercial name : Dolby TrueHD with Dolby Atmos
Codec ID : A_TRUEHD
Duration : 1 h 29 min
Bit rate mode : Variable
Bit rate : 3 100 kb/s
Maximum bit rate : 4 866 kb/s
Channel(s) : 8 channels
Channel layout : L R C LFE Ls Rs Lb Rb
Sampling rate : 48.0 kHz
Frame rate : 1 200.000 FPS (40 SPF)
Bit depth : 24 bits
Compression mode : Lossless
Stream size : 1.94 GiB (5%)
Title : TrueHD 7.1 Atmos
Language : English
Default : Yes
Forced : No
Original source medium : Blu-ray
Number of dynamic objects : 11
Bed channel count : 1 channel
Bed channel configuration : LFE

Audio #2
ID : 3
Format : DTS XLL
Format/Info : Digital Theater Systems
Commercial name : DTS-HD Master Audio
Codec ID : A_DTS
Duration : 1 h 29 min
Bit rate mode : Variable
Bit rate : 3 591 kb/s
Channel(s) : 8 channels
Channel layout : C L R LFE Lb Rb Lss Rss
Sampling rate : 48.0 kHz
Frame rate : 93.750 FPS (512 SPF)
Bit depth : 24 bits
Compression mode : Lossless
Stream size : 2.24 GiB (5%)
Title : DTS-HD MA 7.1
Language : English
Default : No
Forced : No

Audio #3
ID : 4
ID in the original source medium : 4352 (0x1100)
Format : AC-3
Format/Info : Audio Coding 3
Commercial name : Dolby Digital
Format settings : Dolby Surround EX
Codec ID : A_AC3
Duration : 1 h 29 min
Bit rate mode : Constant
Bit rate : 640 kb/s
Channel(s) : 6 channels
Channel layout : L R C LFE Ls Rs
Sampling rate : 48.0 kHz
Frame rate : 31.250 FPS (1536 SPF)
Compression mode : Lossy
Stream size : 410 MiB (1%)
Title : DD 5.1
Language : English
Service kind : Complete Main
Default : No
Forced : No
Original source medium : Blu-ray

Audio #4
ID : 5
ID in the original source medium : 4353 (0x1101)
Format : AC-3
Format/Info : Audio Coding 3
Commercial name : Dolby Digital
Codec ID : A_AC3
Duration : 1 h 29 min
Bit rate mode : Constant
Bit rate : 320 kb/s
Channel(s) : 2 channels
Channel layout : L R
Sampling rate : 48.0 kHz
Frame rate : 31.250 FPS (1536 SPF)
Compression mode : Lossy
Stream size : 205 MiB (0%)
Title : DD 2.0
Language : English
Service kind : Complete Main
Default : No
Forced : No
Original source medium : Blu-ray

Audio #5
ID : 6
ID in the original source medium : 4354 (0x1102)
Format : AC-3
Format/Info : Audio Coding 3
Commercial name : Dolby Digital
Codec ID : A_AC3
Duration : 1 h 29 min
Bit rate mode : Constant
Bit rate : 448 kb/s
Channel(s) : 6 channels
Channel layout : L R C LFE Ls Rs
Sampling rate : 48.0 kHz
Frame rate : 31.250 FPS (1536 SPF)
Compression mode : Lossy
Stream size : 287 MiB (1%)
Title : DD 5.1
Language : Spanish
Service kind : Complete Main
Default : No
Forced : No
Original source medium : Blu-ray

Audio #6
ID : 7
ID in the original source medium : 4355 (0x1103)
Format : AC-3
Format/Info : Audio Coding 3
Commercial name : Dolby Digital
Codec ID : A_AC3
Duration : 1 h 29 min
Bit rate mode : Constant
Bit rate : 448 kb/s
Channel(s) : 6 channels
Channel layout : L R C LFE Ls Rs
Sampling rate : 48.0 kHz
Frame rate : 31.250 FPS (1536 SPF)
Compression mode : Lossy
Stream size : 287 MiB (1%)
Title : DD 5.1
Language : English
Service kind : Complete Main
Default : No
Forced : No
Original source medium : Blu-ray

Audio #7
ID : 8
ID in the original source medium : 4356 (0x1104)
Format : AC-3
Format/Info : Audio Coding 3
Commercial name : Dolby Digital
Codec ID : A_AC3
Duration : 1 h 29 min
Bit rate mode : Constant
Bit rate : 640 kb/s
Channel(s) : 6 channels
Channel layout : L R C LFE Ls Rs
Sampling rate : 48.0 kHz
Frame rate : 31.250 FPS (1536 SPF)
Compression mode : Lossy
Stream size : 410 MiB (1%)
Title : DD 5.1
Language : French
Service kind : Complete Main
Default : No
Forced : No
Original source medium : Blu-ray

Text #1
ID : 9
Format : UTF-8
Codec ID : S_TEXT/UTF8
Codec ID/Info : UTF-8 Plain Text
Duration : 1 h 17 min
Bit rate : 28 b/s
Frame rate : 0.127 FPS
Count of elements : 593
Stream size : 16.5 KiB (0%)
Language : English
Default : Yes
Forced : No

Text #2
ID : 10
Format : UTF-8
Codec ID : S_TEXT/UTF8
Codec ID/Info : UTF-8 Plain Text
Duration : 1 h 18 min
Bit rate : 37 b/s
Frame rate : 0.178 FPS
Count of elements : 836
Stream size : 21.3 KiB (0%)
Title : SDH
Language : English
Default : No
Forced : No

Text #3
ID : 11
ID in the original source medium : 4768 (0x12A0)
Format : PGS
Muxing mode : zlib
Codec ID : S_HDMV/PGS
Codec ID/Info : Picture based subtitle format used on BDs/HD-DVDs
Duration : 1 h 18 min
Bit rate : 26.9 kb/s
Frame rate : 0.358 FPS
Count of elements : 1680
Stream size : 15.0 MiB (0%)
Language : English
Default : No
Forced : No
Original source medium : Blu-ray

Text #4
ID : 12
ID in the original source medium : 4769 (0x12A1)
Format : PGS
Muxing mode : zlib
Codec ID : S_HDMV/PGS
Codec ID/Info : Picture based subtitle format used on BDs/HD-DVDs
Duration : 1 h 20 min
Bit rate : 15.8 kb/s
Frame rate : 0.227 FPS
Count of elements : 1096
Stream size : 9.12 MiB (0%)
Language : Spanish
Default : No
Forced : No
Original source medium : Blu-ray

Text #5
ID : 13
ID in the original source medium : 4769 (0x12A1)
Format : PGS
Muxing mode : zlib
Codec ID : S_HDMV/PGS
Codec ID/Info : Picture based subtitle format used on BDs/HD-DVDs
Duration : 1 h 9 min
Bit rate : 118 b/s
Frame rate : 0.001 FPS
Count of elements : 6
Stream size : 60.2 KiB (0%)
Language : Spanish
Default : No
Forced : No
Original source medium : Blu-ray

Text #6
ID : 14
ID in the original source medium : 4770 (0x12A2)
Format : PGS
Muxing mode : zlib
Codec ID : S_HDMV/PGS
Codec ID/Info : Picture based subtitle format used on BDs/HD-DVDs
Duration : 1 h 17 min
Bit rate : 26.9 kb/s
Frame rate : 0.304 FPS
Count of elements : 1414
Stream size : 14.9 MiB (0%)
Language : French
Default : No
Forced : No
Original source medium : Blu-ray

Menu
00:00:00.000 : en:Chapter 01
00:04:50.081 : en:Chapter 02
00:10:59.158 : en:Chapter 03
00:14:35.416 : en:Chapter 04
00:22:38.732 : en:Chapter 05
00:25:11.384 : en:Chapter 06
00:31:24.382 : en:Chapter 07
00:36:11.961 : en:Chapter 08
00:41:08.132 : en:Chapter 09
00:46:37.878 : en:Chapter 10
00:49:30.092 : en:Chapter 11
00:55:04.926 : en:Chapter 12
01:00:08.229 : en:Chapter 13
01:05:57.495 : en:Chapter 14
01:12:06.155 : en:Chapter 15
01:17:47.245 : en:Chapter 16


关于下载问题:推荐使用qBittorrent、uTorrent等下载软件,有条件的推荐115更好的下载软件!

第一滴血5:最后的血(41.13GB)Rambo.Last.Blood.2019.PROPER.2160p.BluRay.REMUX.HEVC.DTS-HD.MA.TrueHD.7.1.Atmos-FGT-【2160P蓝光REMUX】

游客,如果您要查看本帖隐藏内容请回复






4KQQ海报.gif

上一篇:第一滴血3 / Rambo III (1988) 4K蓝光REMUX版本下载
下一篇:蜘蛛侠:平行宇宙 (2018) 4K蓝光REMUX版本下载
回复

使用道具 举报

主题

帖子

0

积分

新手上路

Rank: 1

积分
0
发表于 2022-12-18 18:54:17 | 显示全部楼层
天注定天注定
回复 支持 反对

使用道具 举报

主题

帖子

0

积分

新手上路

Rank: 1

积分
0
发表于 2022-12-19 11:25:58 | 显示全部楼层
谢谢楼主分享
回复 支持 反对

使用道具 举报

0

主题

5

帖子

18

积分

新手上路

Rank: 1

积分
18
发表于 2022-12-20 12:55:09 来自手机 | 显示全部楼层
试一试看看
回复 支持 反对

使用道具 举报

0

主题

1

帖子

6

积分

新手上路

Rank: 1

积分
6
发表于 2022-12-21 15:41:49 来自手机 | 显示全部楼层
我来看看
回复

使用道具 举报

您需要登录后才可以回帖 登录 | 立即注册

本版积分规则

精彩图文
Archiver|手机版|TAG|Sitemap|新帖|专题|联系我们:邮箱: 4kjia.com@gmail.com   

4k家园   ©2019