[4K UHD 蓝光原盘] 蜘蛛侠:平行宇宙 (2018) 4K蓝光REMUX版本下载

[复制链接]

主题

帖子

0

积分

超级版主

Rank: 8Rank: 8

积分
0
 楼主| 发表于 2022-12-18 13:25:32 | 显示全部楼层 |阅读模式
123155hrgrxesgyvpayzro.png

◎译  名 蜘蛛侠:平行宇宙/蜘蛛人:新宇宙(台)/蜘蛛侠:平行世界/蜘蛛侠:新纪元/蜘蛛侠:跳入蜘蛛宇宙(港)/Spider-Man: a New Universe
◎片  名 Spider-Man: Into the Spider-Verse
◎年  代 2018
◎产  地 美国
◎类  别 动作/科幻/动画/冒险
◎语  言 英语/西班牙语
◎上映日期 2018-12-14(美国)/2018-12-21(中国大陆)
◎IMDb评分  8.4/10 from 476958 users
◎IMDb链接  https://www.imdb.com/title/tt4633694/
◎豆瓣评分 8.6/10 from 561067 users
◎豆瓣链接 https://douban.com/subject/26374197/
◎片  长 116分钟(中国大陆)
◎导  演 鲍勃·佩尔西凯蒂 Bob Persichetti / 彼得·拉姆齐 Peter Ramsey / 罗德尼·罗斯曼 Rodney Rothman
◎编  剧 菲尔·罗德 Phil Lord / 罗德尼·罗斯曼 Rodney Rothman / 布莱恩·本迪斯 Brian Bendis / 萨拉·皮凯利 Sara Pichelli / 史蒂夫·迪特寇 Steve Ditko / 斯坦·李 Stan Lee / 戴维·海因 David Hine / 法布里斯·萨波尔斯基 Fabrice Sapolsky
◎主  演 沙梅克·摩尔 Shameik Moore
       杰克·约翰逊 Jake M. Johnson
       海莉·斯坦菲尔德 Hailee Steinfeld
       马赫沙拉·阿里 Mahershala Ali
       布莱恩·泰里·亨利 Brian Tyree Henry
       莉莉·汤姆林 Lily Tomlin
       劳伦·维勒斯 Lauren Vélez
       佐伊·克罗维兹 Zoë Kravitz
       约翰·木兰尼 John Mulaney
       贵美子·格伦 Kimiko Glenn
       尼古拉斯·凯奇 Nicolas Cage
       凯瑟琳·哈恩 Kathryn Hahn
       列维·施瑞博尔 Liev Schreiber
       克里斯·派恩 Chris Pine
       娜塔丽·莫瑞丝 Natalie Morales
       奥斯卡·伊萨克 Oscar Isaac
       格里塔·李 Greta Lee
       斯坦·李 Stan Lee
       乔玛·塔科内 Jorma Taccone
       华金·科西奥 Joaquín Cosio
       蕾克·贝尔 Lake Bell
       梅勒妮·海恩斯 Melanie Haynes
       尼克·杰恩 Nick Jaine
       穆尼卜·拉赫曼 Muneeb Rehman
       卡洛斯·萨拉戈萨 Carlos Zaragoza
       黛西·罗斯·布莱内斯 Darcy Rose Byrnes
       里夫·霍顿 Rif Hutton
       哈里森·奈特 Harrison Knight
       莱克斯·朗 Lex Lang
       凯特琳·麦肯纳-威尔金森 Caitlin McKenna-Wilkinson
       斯科特·门维尔 Scott Menville
       克里斯托弗·米勒 Christopher Miller
       德维卡·帕利赫 Devika Parikh
       柯特妮·佩尔顿 Courtney Peldon
       克里斯蒂·法瑞斯 Chrystee Pharris
       杰奎琳·皮诺尔 Jacqueline Pinol
       贾斯汀·沉卡罗 Justin Shenkarow
       梅利莎·斯特姆 Melissa Sturm
       彭昱畅 Yuchang Peng
       张天爱 Tian'ai Zhang
       张琦 Qi Zhang
       波兹·马龙 Post Malone


◎简  介

  正就读中学的少年迈尔斯(沙梅克·摩尔 Shameik Moore 配音)意外被一只遭受放射性污染的蜘蛛咬伤,随后身体发生奇特的变化。偶然机缘,他目睹了蜘蛛侠(克里斯·派恩 Chris Pine 配音)和犯罪头目金并(列维·施瑞博尔 Liev Schreiber 配音)的战斗。为了阻止金并利用时空对撞机扰乱宇宙,蜘蛛侠最终壮烈牺牲。可未过多久,来自平行宇宙的颓废的彼德·帕克(杰克·约翰逊 Jake M. Johnson 配音)出现在迈尔斯面前。为了阻止金并的阴谋,并帮助这个帕克返回自己的宇宙,他们闯入金并的老巢。在这一过程中,二人遭到章鱼博士和徘徊者的狙击。与此同时,来自其他宇宙的女蜘蛛侠、暗影蜘蛛侠、蜘猪侠、二次元蜘蛛妹相继出现。

  他们合力与恶势力展开斗争……

◎获奖情况

  第91届奥斯卡金像奖  (2019)
  最佳动画长片 彼得·拉姆齐 / 鲍勃·佩尔西凯蒂 / 菲尔·罗德 / 罗德尼·罗斯曼 / 克里斯托弗·米勒

  第76届金球奖  (2019)
  电影类最佳动画长片

  第72届英国电影学院奖  (2019)
  电影奖最佳动画片

  第46届动画安妮奖  (2019)
  最佳动画长片
  最佳导演 鲍勃·佩尔西凯蒂 / 罗德尼·罗斯曼 / 彼得·拉姆齐
  最佳编剧 菲尔·罗德 / 罗德尼·罗斯曼
  最佳剪辑
  最佳艺术指导
  最佳动画角色
  最佳角色设计

  第28届MTV电影奖  (2019)
  MTV电影奖年度电影(提名)

  第30届美国制片人工会奖  (2019)
  最佳动画片制片人奖

  第69届美国剪辑工会奖  (2019)
  动画片最佳剪辑 小罗伯特·费舍尔

  第23届美国艺术指导工会奖  (2019)
  电影奖最佳动画电影艺术指导(提名) JustinThompson

  第66届美国音效剪辑协会奖  (2019)
  金卷轴奖最佳动画片音效剪辑
  金卷轴奖最佳配乐剪辑

  第17届美国视觉效果协会奖  (2019)
  最佳动画电影视觉效果
  最佳动画电影CG动画角色
  最佳动画电影CG背景
  最佳动画电影模拟动画效果

  第55届美国声音效果协会奖  (2019)
  动画电影最佳音效(提名)

  第84届纽约影评人协会奖  (2018)
  最佳动画片

  第24届美国评论家选择电影奖  (2019)
  最佳动画片

  第53届美国国家影评人协会奖  (2019)
  最佳男配角(提名) 布莱恩·泰里·亨利

  第17届华盛顿影评人协会奖  (2018)
  最佳动画片(提名)
  最佳配音(提名) 沙梅克·摩尔

  第44届洛杉矶影评人协会奖  (2018)
  最佳动画片

  第31届芝加哥影评人协会奖  (2018)
  最佳动画片

  第17届旧金山影评人协会奖  (2018)
  最佳动画片

  第52届堪萨斯影评人协会奖  (2018)
  最佳动画片

  第12届底特律影评人协会奖  (2018)
  最佳动画片

  第22届美国在线影评人协会奖  (2019)
  最佳动画片

  第6届豆瓣电影年度榜单  (2019)
  评分最高的外语电影(提名)
  评分最高的动画片(提名)


Video
ID : 1
ID in the original source medium : 4113 (0x1011)
Format : HEVC
Format/Info : High Efficiency Video Coding
Format profile : Main 10@L5.1@High
HDR format : SMPTE ST 2086, HDR10 compatible
Codec ID : V_MPEGH/ISO/HEVC
Duration : 1 h 56 min
Bit rate : 47.5 Mb/s
Width : 3 840 pixels
Height : 2 160 pixels
Display aspect ratio : 16:9
Frame rate mode : Constant
Frame rate : 23.976 (24000/1001) FPS
Color space : YUV
Chroma subsampling : 4:2:0 (Type 2)
Bit depth : 10 bits
Bits/(Pixel*Frame) : 0.239
Stream size : 38.8 GiB (82%)
Language : English
Default : No
Forced : No
Color range : Limited
Color primaries : BT.2020
Transfer characteristics : PQ
Matrix coefficients : BT.2020 non-constant
Mastering display color primaries : Display P3
Mastering display luminance : min: 0.0050 cd/m2, max: 4000 cd/m2
Maximum Content Light Level : 9877 cd/m2
Maximum Frame-Average Light Level : 934 cd/m2
Original source medium : Blu-ray

Audio #1
ID : 2
ID in the original source medium : 4352 (0x1100)
Format : MLP FBA 16-ch
Format/Info : Meridian Lossless Packing FBA with 16-channel presentation
Commercial name : Dolby TrueHD with Dolby Atmos
Codec ID : A_TRUEHD
Duration : 1 h 56 min
Bit rate mode : Variable
Bit rate : 3 267 kb/s
Maximum bit rate : 4 935 kb/s
Channel(s) : 8 channels
Channel layout : L R C LFE Ls Rs Lb Rb
Sampling rate : 48.0 kHz
Frame rate : 1 200.000 FPS (40 SPF)
Bit depth : 24 bits
Compression mode : Lossless
Stream size : 2.67 GiB (6%)
Title : TrueHD 7.1 Atmos
Language : English
Default : Yes
Forced : No
Original source medium : Blu-ray
Number of dynamic objects : 11
Bed channel count : 1 channel
Bed channel configuration : LFE

Audio #2
ID : 3
Format : DTS XLL
Format/Info : Digital Theater Systems
Commercial name : DTS-HD Master Audio
Codec ID : A_DTS
Duration : 1 h 56 min
Bit rate mode : Variable
Bit rate : 4 069 kb/s
Channel(s) : 8 channels
Channel layout : C L R LFE Lb Rb Lss Rss
Sampling rate : 48.0 kHz
Frame rate : 93.750 FPS (512 SPF)
Bit depth : 24 bits
Compression mode : Lossless
Stream size : 3.32 GiB (7%)
Title : DTS-HD MA 7.1
Language : English
Default : No
Forced : No

Audio #3
ID : 4
ID in the original source medium : 4352 (0x1100)
Format : AC-3
Format/Info : Audio Coding 3
Commercial name : Dolby Digital
Format settings : Dolby Surround EX
Codec ID : A_AC3
Duration : 1 h 56 min
Bit rate mode : Constant
Bit rate : 640 kb/s
Channel(s) : 6 channels
Channel layout : L R C LFE Ls Rs
Sampling rate : 48.0 kHz
Frame rate : 31.250 FPS (1536 SPF)
Compression mode : Lossy
Stream size : 535 MiB (1%)
Title : DD 5.1
Language : English
Service kind : Complete Main
Default : No
Forced : No
Original source medium : Blu-ray

Audio #4
ID : 5
ID in the original source medium : 4353 (0x1101)
Format : AC-3
Format/Info : Audio Coding 3
Commercial name : Dolby Digital
Codec ID : A_AC3
Duration : 1 h 56 min
Bit rate mode : Constant
Bit rate : 448 kb/s
Channel(s) : 6 channels
Channel layout : L R C LFE Ls Rs
Sampling rate : 48.0 kHz
Frame rate : 31.250 FPS (1536 SPF)
Compression mode : Lossy
Stream size : 374 MiB (1%)
Title : DD 5.1
Language : English
Service kind : Complete Main
Default : No
Forced : No
Original source medium : Blu-ray

Audio #5
ID : 6
ID in the original source medium : 4354 (0x1102)
Format : AC-3
Format/Info : Audio Coding 3
Commercial name : Dolby Digital
Codec ID : A_AC3
Duration : 1 h 56 min
Bit rate mode : Constant
Bit rate : 448 kb/s
Channel(s) : 6 channels
Channel layout : L R C LFE Ls Rs
Sampling rate : 48.0 kHz
Frame rate : 31.250 FPS (1536 SPF)
Compression mode : Lossy
Stream size : 374 MiB (1%)
Title : DD 5.1
Language : French
Service kind : Complete Main
Default : No
Forced : No
Original source medium : Blu-ray

Audio #6
ID : 7
ID in the original source medium : 4355 (0x1103)
Format : AC-3
Format/Info : Audio Coding 3
Commercial name : Dolby Digital
Codec ID : A_AC3
Duration : 1 h 56 min
Bit rate mode : Constant
Bit rate : 448 kb/s
Channel(s) : 6 channels
Channel layout : L R C LFE Ls Rs
Sampling rate : 48.0 kHz
Frame rate : 31.250 FPS (1536 SPF)
Compression mode : Lossy
Stream size : 374 MiB (1%)
Title : DD 5.1
Language : French
Service kind : Complete Main
Default : No
Forced : No
Original source medium : Blu-ray

Audio #7
ID : 8
ID in the original source medium : 4356 (0x1104)
Format : AC-3
Format/Info : Audio Coding 3
Commercial name : Dolby Digital
Codec ID : A_AC3
Duration : 1 h 56 min
Bit rate mode : Constant
Bit rate : 448 kb/s
Channel(s) : 6 channels
Channel layout : L R C LFE Ls Rs
Sampling rate : 48.0 kHz
Frame rate : 31.250 FPS (1536 SPF)
Compression mode : Lossy
Stream size : 374 MiB (1%)
Title : DD 5.1
Language : Spanish
Service kind : Complete Main
Default : No
Forced : No
Original source medium : Blu-ray

Audio #8
ID : 9
ID in the original source medium : 4357 (0x1105)
Format : AC-3
Format/Info : Audio Coding 3
Commercial name : Dolby Digital
Format settings : Dolby Surround
Codec ID : A_AC3
Duration : 1 h 56 min
Bit rate mode : Constant
Bit rate : 192 kb/s
Channel(s) : 2 channels
Channel layout : L R
Sampling rate : 48.0 kHz
Frame rate : 31.250 FPS (1536 SPF)
Compression mode : Lossy
Stream size : 160 MiB (0%)
Title : DD 2.0
Language : English
Service kind : Complete Main
Default : No
Forced : No
Original source medium : Blu-ray

Text #1
ID : 10
Format : UTF-8
Codec ID : S_TEXT/UTF8
Codec ID/Info : UTF-8 Plain Text
Duration : 1 h 55 min
Bit rate : 66 b/s
Frame rate : 0.231 FPS
Count of elements : 1595
Stream size : 56.1 KiB (0%)
Language : English
Default : Yes
Forced : No

Text #2
ID : 11
Format : UTF-8
Codec ID : S_TEXT/UTF8
Codec ID/Info : UTF-8 Plain Text
Duration : 1 h 55 min
Bit rate : 69 b/s
Frame rate : 0.261 FPS
Count of elements : 1812
Stream size : 59.0 KiB (0%)
Title : SDH
Language : English
Default : No
Forced : No

Text #3
ID : 12
ID in the original source medium : 4769 (0x12A1)
Format : PGS
Muxing mode : zlib
Codec ID : S_HDMV/PGS
Codec ID/Info : Picture based subtitle format used on BDs/HD-DVDs
Duration : 1 h 55 min
Bit rate : 32.6 kb/s
Frame rate : 0.397 FPS
Count of elements : 2744
Stream size : 26.9 MiB (0%)
Language : English
Default : No
Forced : No
Original source medium : Blu-ray

Text #4
ID : 13
ID in the original source medium : 4768 (0x12A0)
Format : PGS
Muxing mode : zlib
Codec ID : S_HDMV/PGS
Codec ID/Info : Picture based subtitle format used on BDs/HD-DVDs
Duration : 1 h 55 min
Bit rate : 44.2 kb/s
Frame rate : 0.536 FPS
Count of elements : 3720
Stream size : 36.5 MiB (0%)
Title : SDH
Language : English
Default : No
Forced : No
Original source medium : Blu-ray

Text #5
ID : 14
ID in the original source medium : 4770 (0x12A2)
Format : PGS
Muxing mode : zlib
Codec ID : S_HDMV/PGS
Codec ID/Info : Picture based subtitle format used on BDs/HD-DVDs
Duration : 1 h 55 min
Bit rate : 28.4 kb/s
Frame rate : 0.414 FPS
Count of elements : 2870
Stream size : 23.5 MiB (0%)
Language : French
Default : No
Forced : No
Original source medium : Blu-ray

Text #6
ID : 15
ID in the original source medium : 4771 (0x12A3)
Format : PGS
Muxing mode : zlib
Codec ID : S_HDMV/PGS
Codec ID/Info : Picture based subtitle format used on BDs/HD-DVDs
Duration : 1 h 55 min
Bit rate : 31.6 kb/s
Frame rate : 0.398 FPS
Count of elements : 2758
Stream size : 26.1 MiB (0%)
Language : Spanish
Default : No
Forced : No
Original source medium : Blu-ray

Text #7
ID : 16
ID in the original source medium : 4771 (0x12A3)
Format : PGS
Muxing mode : zlib
Codec ID : S_HDMV/PGS
Codec ID/Info : Picture based subtitle format used on BDs/HD-DVDs
Duration : 1 h 42 min
Bit rate : 739 b/s
Frame rate : 0.010 FPS
Count of elements : 60
Stream size : 556 KiB (0%)
Title : FORCED
Language : Spanish
Default : No
Forced : No
Original source medium : Blu-ray

Text #8
ID : 17
ID in the original source medium : 4772 (0x12A4)
Format : PGS
Muxing mode : zlib
Codec ID : S_HDMV/PGS
Codec ID/Info : Picture based subtitle format used on BDs/HD-DVDs
Duration : 1 h 42 min
Bit rate : 886 b/s
Frame rate : 0.012 FPS
Count of elements : 72
Stream size : 667 KiB (0%)
Title : FORCED
Language : French
Default : No
Forced : No
Original source medium : Blu-ray

Text #9
ID : 18
ID in the original source medium : 4772 (0x12A4)
Format : PGS
Muxing mode : zlib
Codec ID : S_HDMV/PGS
Codec ID/Info : Picture based subtitle format used on BDs/HD-DVDs
Duration : 1 h 42 min
Bit rate : 886 b/s
Frame rate : 0.012 FPS
Count of elements : 72
Stream size : 667 KiB (0%)
Title : FORCED
Language : French
Default : No
Forced : No
Original source medium : Blu-ray

Text #10
ID : 19
ID in the original source medium : 4773 (0x12A5)
Format : PGS
Muxing mode : zlib
Codec ID : S_HDMV/PGS
Codec ID/Info : Picture based subtitle format used on BDs/HD-DVDs
Duration : 1 h 56 min
Bit rate : 80.4 kb/s
Frame rate : 0.658 FPS
Count of elements : 4608
Stream size : 67.2 MiB (0%)
Title : COMMENTARY
Language : English
Default : No
Forced : No
Original source medium : Blu-ray

Text #11
ID : 20
ID in the original source medium : 4774 (0x12A6)
Format : PGS
Muxing mode : zlib
Codec ID : S_HDMV/PGS
Codec ID/Info : Picture based subtitle format used on BDs/HD-DVDs
Duration : 1 h 56 min
Bit rate : 62.9 kb/s
Frame rate : 0.598 FPS
Count of elements : 4189
Stream size : 52.5 MiB (0%)
Title : COMMENTARY
Language : Spanish
Default : No
Forced : No
Original source medium : Blu-ray

Menu
00:00:00.000 : en:Chapter 01
00:09:03.793 : en:Chapter 02
00:14:04.718 : en:Chapter 03
00:18:51.672 : en:Chapter 04
00:29:38.735 : en:Chapter 05
00:34:14.385 : en:Chapter 06
00:40:34.765 : en:Chapter 07
00:44:22.826 : en:Chapter 08
00:48:06.884 : en:Chapter 09
00:58:45.480 : en:Chapter 10
01:06:04.251 : en:Chapter 11
01:09:55.482 : en:Chapter 12
01:20:00.003 : en:Chapter 13
01:24:54.798 : en:Chapter 14
01:33:33.316 : en:Chapter 15
01:55:26.836 : en:Chapter 16

关于下载问题:推荐使用qBittorrent、uTorrent等下载软件,有条件的推荐115更好的下载软件!

蜘蛛侠:平行宇宙(41.77GB)Spider-Man.Into.The.Spider-Verse.2018.PROPER.2160p.BluRay.REMUX.HEVC.DTS-HD.MA.TrueHD.7.1.Atmos-FGT-【2160P蓝光REMUX】

游客,如果您要查看本帖隐藏内容请回复





4KQQ海报.gif

上一篇:第一滴血5:最后的血 (2019) 4K蓝光REMUX版本下载
下一篇:蝙蝠侠大战超人: 正义黎明[简繁中字](2016)4K蓝光REMUX版本下载
回复

使用道具 举报

0

主题

1

帖子

6

积分

新手上路

Rank: 1

积分
6
发表于 2022-12-18 20:37:15 | 显示全部楼层
支持一下
回复

使用道具 举报

0

主题

3

帖子

15

积分

新手上路

Rank: 1

积分
15
发表于 6 天前 | 显示全部楼层
感谢分享,哈哈哈,期待很久的电影
回复 支持 反对

使用道具 举报

您需要登录后才可以回帖 登录 | 立即注册

本版积分规则

精彩图文
Archiver|手机版|TAG|Sitemap|新帖|专题|联系我们:邮箱: 4kjia.com@gmail.com   

4k家园   ©2019