[4K UHD 蓝光原盘] 蝙蝠侠大战超人: 正义黎明[简繁中字](2016)4K蓝光REMUX版本下载

[复制链接]

主题

帖子

0

积分

超级版主

Rank: 8Rank: 8

积分
0
 楼主| 发表于 2022-12-19 12:12:05 | 显示全部楼层 |阅读模式
本帖最后由 没完没了 于 2022-12-19 20:41 编辑

蝙蝠侠大战超人:正义黎明_副本.png

◎译  名 蝙蝠侠大战超人:正义黎明/蝙蝠侠大战超人/蝙蝠侠对超人:正义曙光(港/台)/蝙蝠侠与超人:正义黎明
◎片  名 Batman v Superman: Dawn of Justice
◎年  代 2016
◎国  家 美国
◎类  别 动作/科幻/奇幻/冒险
◎语  言 英语
◎IMDb评分  6.4/10 from 700540 users 更新 : 2022-12-18
◎IMDb链接  https://www.imdb.com/title/tt4633694/
◎豆瓣评分 6.9/10 from 279739 users 更新 : 2022-12-19
◎豆瓣链接 https://douban.com/subject/26374197/
◎片  长 183分钟
◎导  演 扎克·施奈德 Zack Snyder
◎主  演 本·阿弗莱克 Ben Affleck
       亨利·卡维尔 Henry Cavill
       艾米·亚当斯 Amy Adams
       盖尔·加朵 Gal Gadot
       杰西·艾森伯格 Jesse Eisenberg
       戴安·琳恩 Diane Lane
       劳伦斯·菲什伯恩 Laurence Fishburne
       杰瑞米·艾恩斯 Jeremy Irons
       霍利·亨特 Holly Hunter
       斯科特·麦克纳里 Scoot McNairy
       卡兰·马尔韦 Callan Mulvey
       冈本多绪 Tao Okamoto
       布兰登·斯平克 Brandon Spink
       劳伦·科汉 Lauren Cohan
       迈克尔·珊农 Michael Shannon

◎简  介

  故事发生在大都会之战18个月后,在那场战斗中许多建筑和市民惨遭波及。因为超人(亨利·卡维尔 饰)帮助人类解决了很多问题而被当做神来膜拜,但超人也因与佐德之战对城市造成的破坏而遭到逮捕和审讯,一度成为都市传说的蝙蝠侠韦恩(本·阿弗莱克 饰)重新出现在人们面前,他似乎正是为了惩罚超人而来。年轻的富豪莱克斯·卢瑟(杰西·艾森伯格 饰)又在二者的矛盾中挑拨离间,神秘的戴安娜·普林斯(盖尔·加朵 饰)也因自己的目的介入其中……

Video
ID : 1
ID in the original source medium : 4113 (0x1011)
Format : HEVC
Format/Info : High Efficiency Video Coding
Format profile : Main 10@L5.1@High
HDR format : SMPTE ST 2086, HDR10 compatible
Codec ID : V_MPEGH/ISO/HEVC
Duration : 3 h 2 min
Bit rate : 52.4 Mb/s
Width : 3 840 pixels
Height : 2 160 pixels
Display aspect ratio : 16:9
Frame rate mode : Constant
Frame rate : 23.976 (24000/1001) FPS
Color space : YUV
Chroma subsampling : 4:2:0 (Type 2)
Bit depth : 10 bits
Bits/(Pixel*Frame) : 0.264
Stream size : 66.9 GiB (82%)
Writing library : ATEME Titan File 3.9.6 (4.9.6.2)
Language : English
Default : No
Forced : No
Color range : Limited
Color primaries : BT.2020
Transfer characteristics : PQ
Matrix coefficients : BT.2020 non-constant
Mastering display color primaries : Display P3
Mastering display luminance : min: 0.0050 cd/m2, max: 4000 cd/m2
Maximum Content Light Level : 699 cd/m2
Maximum Frame-Average Light Level : 530 cd/m2
Original source medium : Blu-ray

Audio #1
ID : 2
ID in the original source medium : 4352 (0x1100)
Format : MLP FBA 16-ch
Format/Info : Meridian Lossless Packing FBA with 16-channel presentation
Commercial name : Dolby TrueHD with Dolby Atmos
Codec ID : A_TRUEHD
Duration : 3 h 2 min
Bit rate mode : Variable
Bit rate : 4 967 kb/s
Maximum bit rate : 8 199 kb/s
Channel(s) : 8 channels
Channel layout : L R C LFE Ls Rs Lb Rb
Sampling rate : 48.0 kHz
Frame rate : 1 200.000 FPS (40 SPF)
Bit depth : 24 bits
Compression mode : Lossless
Stream size : 6.33 GiB (8%)
Title : TrueHD 7.1 Atmos
Language : English
Default : Yes
Forced : No
Original source medium : Blu-ray
Number of dynamic objects : 11
Bed channel count : 1 channel
Bed channel configuration : LFE

Audio #2
ID : 3
Format : DTS XLL
Format/Info : Digital Theater Systems
Commercial name : DTS-HD Master Audio
Codec ID : A_DTS
Duration : 3 h 2 min
Bit rate mode : Variable
Bit rate : 4 057 kb/s
Channel(s) : 8 channels
Channel layout : C L R LFE Lb Rb Lss Rss
Sampling rate : 48.0 kHz
Frame rate : 93.750 FPS (512 SPF)
Bit depth : 24 bits
Compression mode : Lossless
Stream size : 5.17 GiB (6%)
Title : DTS-HD MA 7.1
Language : English
Default : No
Forced : No

Audio #3
ID : 4
ID in the original source medium : 4352 (0x1100)
Format : AC-3
Format/Info : Audio Coding 3
Commercial name : Dolby Digital
Format settings : Dolby Surround EX
Codec ID : A_AC3
Duration : 3 h 2 min
Bit rate mode : Constant
Bit rate : 448 kb/s
Channel(s) : 6 channels
Channel layout : L R C LFE Ls Rs
Sampling rate : 48.0 kHz
Frame rate : 31.250 FPS (1536 SPF)
Compression mode : Lossy
Stream size : 585 MiB (1%)
Title : DD 5.1
Language : English
Service kind : Complete Main
Default : No
Forced : No
Original source medium : Blu-ray

Audio #4
ID : 5
ID in the original source medium : 4353 (0x1101)
Format : AC-3
Format/Info : Audio Coding 3
Commercial name : Dolby Digital
Codec ID : A_AC3
Duration : 3 h 2 min
Bit rate mode : Constant
Bit rate : 448 kb/s
Channel(s) : 6 channels
Channel layout : L R C LFE Ls Rs
Sampling rate : 48.0 kHz
Frame rate : 31.250 FPS (1536 SPF)
Compression mode : Lossy
Stream size : 585 MiB (1%)
Title : DD 5.1
Language : English
Service kind : Complete Main
Default : No
Forced : No
Original source medium : Blu-ray

Audio #5
ID : 6
ID in the original source medium : 4354 (0x1102)
Format : AC-3
Format/Info : Audio Coding 3
Commercial name : Dolby Digital
Codec ID : A_AC3
Duration : 3 h 2 min
Bit rate mode : Constant
Bit rate : 448 kb/s
Channel(s) : 6 channels
Channel layout : L R C LFE Ls Rs
Sampling rate : 48.0 kHz
Frame rate : 31.250 FPS (1536 SPF)
Compression mode : Lossy
Stream size : 585 MiB (1%)
Title : DD 5.1
Language : French
Service kind : Complete Main
Default : No
Forced : No
Original source medium : Blu-ray

Audio #6
ID : 7
ID in the original source medium : 4355 (0x1103)
Format : AC-3
Format/Info : Audio Coding 3
Commercial name : Dolby Digital
Codec ID : A_AC3
Duration : 3 h 2 min
Bit rate mode : Constant
Bit rate : 448 kb/s
Channel(s) : 6 channels
Channel layout : L R C LFE Ls Rs
Sampling rate : 48.0 kHz
Frame rate : 31.250 FPS (1536 SPF)
Compression mode : Lossy
Stream size : 585 MiB (1%)
Title : DD 5.1
Language : Italian
Service kind : Complete Main
Default : No
Forced : No
Original source medium : Blu-ray

Audio #7
ID : 8
ID in the original source medium : 4356 (0x1104)
Format : AC-3
Format/Info : Audio Coding 3
Commercial name : Dolby Digital
Codec ID : A_AC3
Duration : 3 h 2 min
Bit rate mode : Constant
Bit rate : 448 kb/s
Channel(s) : 6 channels
Channel layout : L R C LFE Ls Rs
Sampling rate : 48.0 kHz
Frame rate : 31.250 FPS (1536 SPF)
Compression mode : Lossy
Stream size : 585 MiB (1%)
Title : DD 5.1
Language : Spanish
Service kind : Complete Main
Default : No
Forced : No
Original source medium : Blu-ray

Audio #8
ID : 9
ID in the original source medium : 4358 (0x1106)
Format : AC-3
Format/Info : Audio Coding 3
Commercial name : Dolby Digital
Format settings : Dolby Surround
Codec ID : A_AC3
Duration : 3 h 2 min
Bit rate mode : Constant
Bit rate : 192 kb/s
Channel(s) : 2 channels
Channel layout : L R
Sampling rate : 48.0 kHz
Frame rate : 31.250 FPS (1536 SPF)
Compression mode : Lossy
Stream size : 251 MiB (0%)
Title : DD 2.0
Language : English
Service kind : Complete Main
Default : No
Forced : No
Original source medium : Blu-ray

Text #1
ID : 10
Format : UTF-8
Codec ID : S_TEXT/UTF8
Codec ID/Info : UTF-8 Plain Text
Duration : 2 h 53 min
Bit rate : 37 b/s
Frame rate : 0.141 FPS
Count of elements : 1472
Stream size : 47.0 KiB (0%)
Language : English
Default : Yes
Forced : No

Text #2
ID : 11
Format : UTF-8
Codec ID : S_TEXT/UTF8
Codec ID/Info : UTF-8 Plain Text
Duration : 2 h 53 min
Bit rate : 43 b/s
Frame rate : 0.177 FPS
Count of elements : 1839
Stream size : 55.4 KiB (0%)
Title : SDH
Language : English
Default : No
Forced : No

Text #3
ID : 12
ID in the original source medium : 4769 (0x12A1)
Format : PGS
Muxing mode : zlib
Codec ID : S_HDMV/PGS
Codec ID/Info : Picture based subtitle format used on BDs/HD-DVDs
Duration : 2 h 53 min
Bit rate : 27.2 kb/s
Frame rate : 0.357 FPS
Count of elements : 3712
Stream size : 33.7 MiB (0%)
Language : English
Default : No
Forced : No
Original source medium : Blu-ray

Text #4
ID : 13
ID in the original source medium : 4770 (0x12A2)
Format : PGS
Muxing mode : zlib
Codec ID : S_HDMV/PGS
Codec ID/Info : Picture based subtitle format used on BDs/HD-DVDs
Duration : 3 h 1 min
Bit rate : 21.8 kb/s
Frame rate : 0.293 FPS
Count of elements : 3200
Stream size : 28.3 MiB (0%)
Language : French
Default : No
Forced : No
Original source medium : Blu-ray

Text #5
ID : 14
ID in the original source medium : 4771 (0x12A3)
Format : PGS
Muxing mode : zlib
Codec ID : S_HDMV/PGS
Codec ID/Info : Picture based subtitle format used on BDs/HD-DVDs
Duration : 2 h 53 min
Bit rate : 27.0 kb/s
Frame rate : 0.384 FPS
Count of elements : 3990
Stream size : 33.5 MiB (0%)
Language : Italian
Default : No
Forced : No
Original source medium : Blu-ray

Text #6
ID : 15
ID in the original source medium : 4772 (0x12A4)
Format : PGS
Muxing mode : zlib
Codec ID : S_HDMV/PGS
Codec ID/Info : Picture based subtitle format used on BDs/HD-DVDs
Duration : 3 h 1 min
Bit rate : 22.1 kb/s
Frame rate : 0.288 FPS
Count of elements : 3148
Stream size : 28.8 MiB (0%)
Language : Spanish
Default : No
Forced : No
Original source medium : Blu-ray

Text #7
ID : 16
ID in the original source medium : 4773 (0x12A5)
Format : PGS
Muxing mode : zlib
Codec ID : S_HDMV/PGS
Codec ID/Info : Picture based subtitle format used on BDs/HD-DVDs
Duration : 3 h 1 min
Bit rate : 17.7 kb/s
Frame rate : 0.299 FPS
Count of elements : 3266
Stream size : 23.1 MiB (0%)
Language : 简体
Default : No
Forced : No
Original source medium : Blu-ray

Text #8
ID : 17
ID in the original source medium : 4774 (0x12A6)
Format : PGS
Muxing mode : zlib
Codec ID : S_HDMV/PGS
Codec ID/Info : Picture based subtitle format used on BDs/HD-DVDs
Duration : 3 h 1 min
Bit rate : 16.4 kb/s
Frame rate : 0.299 FPS
Count of elements : 3264
Stream size : 21.3 MiB (0%)
Language : 繁体
Default : No
Forced : No
Original source medium : Blu-ray

Text #9
ID : 18
ID in the original source medium : 4775 (0x12A7)
Format : PGS
Muxing mode : zlib
Codec ID : S_HDMV/PGS
Codec ID/Info : Picture based subtitle format used on BDs/HD-DVDs
Duration : 3 h 1 min
Bit rate : 16.0 kb/s
Frame rate : 0.299 FPS
Count of elements : 3264
Stream size : 20.8 MiB (0%)
Language : Korean
Default : No
Forced : No
Original source medium : Blu-ray

Text #10
ID : 19
ID in the original source medium : 4776 (0x12A8)
Format : PGS
Muxing mode : zlib
Codec ID : S_HDMV/PGS
Codec ID/Info : Picture based subtitle format used on BDs/HD-DVDs
Duration : 3 h 1 min
Bit rate : 21.9 kb/s
Frame rate : 0.294 FPS
Count of elements : 3214
Stream size : 28.5 MiB (0%)
Language : Spanish
Default : No
Forced : No
Original source medium : Blu-ray

Text #11
ID : 20
ID in the original source medium : 4777 (0x12A9)
Format : PGS
Muxing mode : zlib
Codec ID : S_HDMV/PGS
Codec ID/Info : Picture based subtitle format used on BDs/HD-DVDs
Duration : 2 h 53 min
Bit rate : 13.0 kb/s
Frame rate : 0.312 FPS
Count of elements : 3244
Stream size : 16.1 MiB (0%)
Language : Arabic
Default : No
Forced : No
Original source medium : Blu-ray

Text #12
ID : 21
ID in the original source medium : 4778 (0x12AA)
Format : PGS
Muxing mode : zlib
Codec ID : S_HDMV/PGS
Codec ID/Info : Picture based subtitle format used on BDs/HD-DVDs
Duration : 3 h 2 min
Bit rate : 21.0 kb/s
Frame rate : 0.295 FPS
Count of elements : 3220
Stream size : 27.3 MiB (0%)
Language : Czech
Default : No
Forced : No
Original source medium : Blu-ray

Text #13
ID : 22
ID in the original source medium : 4779 (0x12AB)
Format : PGS
Muxing mode : zlib
Codec ID : S_HDMV/PGS
Codec ID/Info : Picture based subtitle format used on BDs/HD-DVDs
Duration : 3 h 2 min
Bit rate : 20.8 kb/s
Frame rate : 0.270 FPS
Count of elements : 2954
Stream size : 27.1 MiB (0%)
Language : Danish
Default : No
Forced : No
Original source medium : Blu-ray

Text #14
ID : 23
ID in the original source medium : 4780 (0x12AC)
Format : PGS
Muxing mode : zlib
Codec ID : S_HDMV/PGS
Codec ID/Info : Picture based subtitle format used on BDs/HD-DVDs
Duration : 3 h 2 min
Bit rate : 20.6 kb/s
Frame rate : 0.276 FPS
Count of elements : 3010
Stream size : 26.8 MiB (0%)
Language : Finnish
Default : No
Forced : No
Original source medium : Blu-ray

Text #15
ID : 24
ID in the original source medium : 4781 (0x12AD)
Format : PGS
Muxing mode : zlib
Codec ID : S_HDMV/PGS
Codec ID/Info : Picture based subtitle format used on BDs/HD-DVDs
Duration : 3 h 2 min
Bit rate : 21.6 kb/s
Frame rate : 0.293 FPS
Count of elements : 3200
Stream size : 28.1 MiB (0%)
Language : Norwegian
Default : No
Forced : No
Original source medium : Blu-ray

Text #16
ID : 25
ID in the original source medium : 4782 (0x12AE)
Format : PGS
Muxing mode : zlib
Codec ID : S_HDMV/PGS
Codec ID/Info : Picture based subtitle format used on BDs/HD-DVDs
Duration : 3 h 2 min
Bit rate : 20.3 kb/s
Frame rate : 0.288 FPS
Count of elements : 3142
Stream size : 26.4 MiB (0%)
Language : Polish
Default : No
Forced : No
Original source medium : Blu-ray

Text #17
ID : 26
ID in the original source medium : 4783 (0x12AF)
Format : PGS
Muxing mode : zlib
Codec ID : S_HDMV/PGS
Codec ID/Info : Picture based subtitle format used on BDs/HD-DVDs
Duration : 3 h 1 min
Bit rate : 21.0 kb/s
Frame rate : 0.292 FPS
Count of elements : 3186
Stream size : 27.4 MiB (0%)
Language : Swedish
Default : No
Forced : No
Original source medium : Blu-ray

Text #18
ID : 27
ID in the original source medium : 4786 (0x12B2)
Format : PGS
Muxing mode : zlib
Codec ID : S_HDMV/PGS
Codec ID/Info : Picture based subtitle format used on BDs/HD-DVDs
Duration : 2 h 45 min
Bit rate : 1 364 b/s
Frame rate : 0.017 FPS
Count of elements : 166
Stream size : 1.61 MiB (0%)
Language : French
Default : No
Forced : No
Original source medium : Blu-ray

Text #19
ID : 28
ID in the original source medium : 4787 (0x12B3)
Format : PGS
Muxing mode : zlib
Codec ID : S_HDMV/PGS
Codec ID/Info : Picture based subtitle format used on BDs/HD-DVDs
Duration : 2 h 49 min
Bit rate : 1 283 b/s
Frame rate : 0.016 FPS
Count of elements : 158
Stream size : 1.55 MiB (0%)
Language : Italian
Default : No
Forced : No
Original source medium : Blu-ray

Text #20
ID : 29
ID in the original source medium : 4788 (0x12B4)
Format : PGS
Muxing mode : zlib
Codec ID : S_HDMV/PGS
Codec ID/Info : Picture based subtitle format used on BDs/HD-DVDs
Duration : 2 h 49 min
Bit rate : 1 040 b/s
Frame rate : 0.013 FPS
Count of elements : 136
Stream size : 1.26 MiB (0%)
Language : Spanish
Default : No
Forced : No
Original source medium : Blu-ray

Menu
00:00:00.000 : en:Chapter 01
00:10:10.651 : en:Chapter 02
00:27:00.619 : en:Chapter 03
00:37:49.183 : en:Chapter 04
00:46:54.478 : en:Chapter 05
01:02:04.887 : en:Chapter 06
01:14:10.446 : en:Chapter 07
01:28:06.948 : en:Chapter 08
01:41:46.517 : en:Chapter 09
01:53:52.575 : en:Chapter 10
02:02:58.037 : en:Chapter 11
02:15:04.012 : en:Chapter 12
02:27:55.032 : en:Chapter 13
02:36:51.151 : en:Chapter 14
02:48:28.348 : en:Chapter 15
02:54:43.431 : en:Chapter 16

关于下载问题:推荐使用qBittorrent、uTorrent等下载软件,有条件的推荐115更好的下载软件!

蝙蝠侠大战超人:正义黎明(81.71GB)Batman.v.Superman.Dawn.of.Justice.2016.PROPER.EXTENDED.IMAX.2160p.BluRay.REMUX.HEVC.DTS-HD.MA.TrueHD.7.1.Atmos-FGT-【2160P蓝光REMUX】
游客,如果您要查看本帖隐藏内容请回复







4KQQ海报.gif

上一篇:蜘蛛侠:平行宇宙 (2018) 4K蓝光REMUX版本下载
下一篇:猛禽小队和哈莉·奎茵 [简繁中字] (2020) 4K蓝光REMUX版本下载
回复

使用道具 举报

您需要登录后才可以回帖 登录 | 立即注册

本版积分规则

精彩图文
Archiver|手机版|TAG|Sitemap|新帖|专题|联系我们:邮箱: 4kjia.com@gmail.com   

4k家园   ©2019