[4K UHD 蓝光原盘] 小丑 / Joker (2019) 4K蓝光REMUX版本下载

[复制链接]

主题

帖子

0

积分

超级版主

Rank: 8Rank: 8

积分
0
 楼主| 发表于 2022-12-19 12:42:02 | 显示全部楼层 |阅读模式
本帖最后由 没完没了 于 2022-12-19 20:40 编辑

小丑_副本.png

◎标  题 小丑
◎译  名 小丑起源电影:罗密欧 / Romeo / Joker Origin Movie
◎片  名 Joker
◎年  代 2019
◎产  地 美国 / 加拿大
◎类  别 剧情 / 惊悚 / 犯罪
◎语  言 英语
◎上映日期 2019-08-31(威尼斯电影节) / 2019-10-04(美国)
◎IMDb评分 8.4/10 from 1275857 users 更新 : 2022-12-15
◎IMDb链接 https://www.imdb.com/title/tt7286456/
◎豆瓣评分 8.7/10 from 960721 users 更新 : 2022-12-19
◎豆瓣链接 https://movie.douban.com/subject/27119724/
◎片  长 122分钟
◎导  演 托德·菲利普斯 Todd Phillips
◎编  剧 托德·菲利普斯 Todd Phillips / 斯科特·西尔弗 Scott Silver / 鲍勃·凯恩 Bob Kane / 比尔·芬格 Bill Finger / 杰瑞·罗宾逊 Jerry Robinson
◎演  员 华金·菲尼克斯 Joaquin Phoenix
       罗伯特·德尼罗 Robert De Niro
       马克·马龙 Marc Maron
       莎姬·贝兹 Zazie Beetz
       谢伊·惠格姆 Shea Whigham
       弗兰西丝·康罗伊 Frances Conroy
       布莱恩·考伦 Bryan Callen
       布莱恩·泰里·亨利 Brian Tyree Henry
       布莱特·卡伦 Brett Cullen
       道格拉斯·霍奇斯 Douglas Hodges
       格伦·弗莱舍尔 Glenn Fleshler
       比尔·坎普 Bill Camp
       乔什·帕斯 Josh Pais
       但丁·佩雷拉-奥尔森 Dante Pereira-Olson
       玛丽·凯特·马拉特 Mary Kate Malat
       迈克尔·本茨 Michael Benz
       莎珑·华盛顿 Sharon Washington
       桑德拉·詹姆斯 Sondra James
       托尼·赫德 Tony Head
       曼德拉·贝拉米 Mandela Bellamy
       乔·奥克曼 Joe Ochman
       卡尔·伦德施泰特 Carl Lundstedt
       米克·奥罗克 Mick O'Rourke
       大卫·吉布森 David Gibson
       伊万·罗萨多 Evan Rosado
       安妮·比萨比亚 Annie Pisapia
       布莱斯·科里根 Blaise Corrigan
       乔恩·道格拉斯·雷尼 Jon Douglas Rainey
       艾恩斯利·丹恩 Aynsleigh Dann
       杰森·约翰·奇卡莱塞 Jason John Cicalese
       加里·古尔曼 Gary Gulman
       贾斯汀·塞洛克斯 Justin Theroux
       大卫·伊亚科诺 David Iacono
       本·沃黑特 Ben Warheit
       卡德罗莎·奥娜·卡罗尔
       托德·菲利普斯 Todd Phillips
       布莱德利·库珀 Bradley Cooper
       艾玛·特林格·科斯考夫 Emma Tillinger Koskoff
       希尔迪·居兹纳多蒂尔 Hildur Guðnadóttir
       劳伦斯·谢尔 Lawrence Sher
       杰夫·格罗斯 Jeff Groth
       Shayna Markowitz Shayna Markowitz
       克丽丝·莫兰 Kris Moran
       马克·布里奇斯 Mark Bridges
       阿兰·罗伯特·默里 Alan Robert Murray


◎简  介


  湿冷无望的哥谭市,卑微的亚瑟·弗兰克(华金·菲尼克斯 Joaquin Phoenix 饰)依靠扮演小丑赚取营生。与之相依为命的母亲患有精神疾病,而亚瑟深记母亲的教诲,无论遭受怎样的挫折都笑对人生,却因此让自己背负着莫大的压力,濒临崩溃。他梦想成为一名脱口秀演员,怎奈生活一次次将失望狠狠地砸在他的头上。不仅如此,他因意外丢掉了工作,偶然瞥见母亲的秘密,又使他心中燃起对那个与之地位悬殊却从未谋面的父亲的殷切渴望。命运习惯了事与愿违,空荡荡的地铁内,悲伤的小丑在无法自已的癫狂笑声中大开杀戒……
本片荣获第76届威尼斯电影节金狮奖。
Video
ID : 1
ID in the original source medium : 4113 (0x1011)
Format : HEVC
Format/Info : High Efficiency Video Coding
Format profile : Main 10@L5.1@High
HDR format : Dolby Vision, Version 1.0, dvhe.07.06, BL+EL+RPU, Blu-ray compatible / SMPTE ST 2086, HDR10 compatible
Codec ID : V_MPEGH/ISO/HEVC
Duration : 2 h 1 min
Bit rate : 50.3 Mb/s
Width : 3 840 pixels
Height : 2 160 pixels
Display aspect ratio : 16:9
Frame rate mode : Constant
Frame rate : 23.976 (24000/1001) FPS
Color space : YUV
Chroma subsampling : 4:2:0 (Type 2)
Bit depth : 10 bits
Bits/(Pixel*Frame) : 0.253
Stream size : 42.8 GiB (83%)
Language : English
Default : No
Forced : No
Color range : Limited
Color primaries : BT.2020
Transfer characteristics : PQ
Matrix coefficients : BT.2020 non-constant
Mastering display color primaries : Display P3
Mastering display luminance : min: 0.0050 cd/m2, max: 4000 cd/m2
Maximum Content Light Level : 992 cd/m2
Maximum Frame-Average Light Level : 120 cd/m2
Original source medium : Blu-ray

Audio #1
ID : 2
ID in the original source medium : 4352 (0x1100)
Format : MLP FBA 16-ch
Format/Info : Meridian Lossless Packing FBA with 16-channel presentation
Commercial name : Dolby TrueHD with Dolby Atmos
Codec ID : A_TRUEHD
Duration : 2 h 1 min
Bit rate mode : Variable
Bit rate : 3 819 kb/s
Maximum bit rate : 7 158 kb/s
Channel(s) : 8 channels
Channel layout : L R C LFE Ls Rs Lb Rb
Sampling rate : 48.0 kHz
Frame rate : 1 200.000 FPS (40 SPF)
Bit depth : 24 bits
Compression mode : Lossless
Stream size : 3.25 GiB (6%)
Title : TrueHD 7.1 Atmos
Language : English
Default : Yes
Forced : No
Original source medium : Blu-ray
Number of dynamic objects : 15
Bed channel count : 1 channel
Bed channel configuration : LFE

Audio #2
ID : 3
Format : DTS XLL
Format/Info : Digital Theater Systems
Commercial name : DTS-HD Master Audio
Codec ID : A_DTS
Duration : 2 h 1 min
Bit rate mode : Variable
Bit rate : 4 065 kb/s
Channel(s) : 8 channels
Channel layout : C L R LFE Lb Rb Lss Rss
Sampling rate : 48.0 kHz
Frame rate : 93.750 FPS (512 SPF)
Bit depth : 24 bits
Compression mode : Lossless
Stream size : 3.46 GiB (7%)
Title : DTS-HD MA 7.1
Language : English
Default : No
Forced : No

Audio #3
ID : 4
ID in the original source medium : 4352 (0x1100)
Format : AC-3
Format/Info : Audio Coding 3
Commercial name : Dolby Digital
Format settings : Dolby Surround EX
Codec ID : A_AC3
Duration : 2 h 1 min
Bit rate mode : Constant
Bit rate : 640 kb/s
Channel(s) : 6 channels
Channel layout : L R C LFE Ls Rs
Sampling rate : 48.0 kHz
Frame rate : 31.250 FPS (1536 SPF)
Compression mode : Lossy
Stream size : 558 MiB (1%)
Title : DD 5.1
Language : English
Service kind : Complete Main
Default : No
Forced : No
Original source medium : Blu-ray

Audio #4
ID : 5
ID in the original source medium : 4353 (0x1101)
Format : AC-3
Format/Info : Audio Coding 3
Commercial name : Dolby Digital
Codec ID : A_AC3
Duration : 2 h 1 min
Bit rate mode : Constant
Bit rate : 448 kb/s
Channel(s) : 6 channels
Channel layout : L R C LFE Ls Rs
Sampling rate : 48.0 kHz
Frame rate : 31.250 FPS (1536 SPF)
Compression mode : Lossy
Stream size : 390 MiB (1%)
Title : DD 5.1
Language : English
Service kind : Complete Main
Default : No
Forced : No
Original source medium : Blu-ray

Audio #5
ID : 6
ID in the original source medium : 4354 (0x1102)
Format : AC-3
Format/Info : Audio Coding 3
Commercial name : Dolby Digital
Codec ID : A_AC3
Duration : 2 h 1 min
Bit rate mode : Constant
Bit rate : 448 kb/s
Channel(s) : 6 channels
Channel layout : L R C LFE Ls Rs
Sampling rate : 48.0 kHz
Frame rate : 31.250 FPS (1536 SPF)
Compression mode : Lossy
Stream size : 390 MiB (1%)
Title : DD 5.1
Language : English
Service kind : Complete Main
Default : No
Forced : No
Original source medium : Blu-ray

Audio #6
ID : 7
ID in the original source medium : 4355 (0x1103)
Format : AC-3
Format/Info : Audio Coding 3
Commercial name : Dolby Digital
Codec ID : A_AC3
Duration : 2 h 1 min
Bit rate mode : Constant
Bit rate : 448 kb/s
Channel(s) : 6 channels
Channel layout : L R C LFE Ls Rs
Sampling rate : 48.0 kHz
Frame rate : 31.250 FPS (1536 SPF)
Compression mode : Lossy
Stream size : 390 MiB (1%)
Title : DD 5.1
Language : French
Service kind : Complete Main
Default : No
Forced : No
Original source medium : Blu-ray

Audio #7
ID : 8
ID in the original source medium : 4356 (0x1104)
Format : AC-3
Format/Info : Audio Coding 3
Commercial name : Dolby Digital
Codec ID : A_AC3
Duration : 2 h 1 min
Bit rate mode : Constant
Bit rate : 448 kb/s
Channel(s) : 6 channels
Channel layout : L R C LFE Ls Rs
Sampling rate : 48.0 kHz
Frame rate : 31.250 FPS (1536 SPF)
Compression mode : Lossy
Stream size : 390 MiB (1%)
Title : DD 5.1
Language : Spanish
Service kind : Complete Main
Default : No
Forced : No
Original source medium : Blu-ray

Text #1
ID : 9
Format : UTF-8
Codec ID : S_TEXT/UTF8
Codec ID/Info : UTF-8 Plain Text
Duration : 1 h 58 min
Bit rate : 44 b/s
Frame rate : 0.200 FPS
Count of elements : 1416
Stream size : 39.0 KiB (0%)
Language : English
Default : Yes
Forced : No

Text #2
ID : 10
Format : UTF-8
Codec ID : S_TEXT/UTF8
Codec ID/Info : UTF-8 Plain Text
Duration : 1 h 58 min
Bit rate : 55 b/s
Frame rate : 0.243 FPS
Count of elements : 1725
Stream size : 47.8 KiB (0%)
Title : SDH
Language : English
Default : No
Forced : No

Text #3
ID : 11
ID in the original source medium : 4768 (0x12A0)
Format : PGS
Muxing mode : zlib
Codec ID : S_HDMV/PGS
Codec ID/Info : Picture based subtitle format used on BDs/HD-DVDs
Duration : 1 h 58 min
Bit rate : 33.8 kb/s
Frame rate : 0.491 FPS
Count of elements : 3480
Stream size : 28.6 MiB (0%)
Language : English
Default : No
Forced : No
Original source medium : Blu-ray

Text #4
ID : 12
ID in the original source medium : 4769 (0x12A1)
Format : PGS
Muxing mode : zlib
Codec ID : S_HDMV/PGS
Codec ID/Info : Picture based subtitle format used on BDs/HD-DVDs
Duration : 2 h 1 min
Bit rate : 20.4 kb/s
Frame rate : 0.306 FPS
Count of elements : 2230
Stream size : 17.7 MiB (0%)
Language : French
Default : No
Forced : No
Original source medium : Blu-ray

Text #5
ID : 13
ID in the original source medium : 4770 (0x12A2)
Format : PGS
Muxing mode : zlib
Codec ID : S_HDMV/PGS
Codec ID/Info : Picture based subtitle format used on BDs/HD-DVDs
Duration : 1 h 57 min
Bit rate : 25.6 kb/s
Frame rate : 0.338 FPS
Count of elements : 2384
Stream size : 21.5 MiB (0%)
Language : Spanish
Default : No
Forced : No
Original source medium : Blu-ray

Text #6
ID : 14
ID in the original source medium : 4771 (0x12A3)
Format : PGS
Muxing mode : zlib
Codec ID : S_HDMV/PGS
Codec ID/Info : Picture based subtitle format used on BDs/HD-DVDs
Duration : 1 h 31 min
Bit rate : 1 148 b/s
Frame rate : 0.014 FPS
Count of elements : 76
Stream size : 770 KiB (0%)
Title : FORCED
Language : French
Default : No
Forced : No
Original source medium : Blu-ray

Text #7
ID : 15
ID in the original source medium : 4772 (0x12A4)
Format : PGS
Muxing mode : zlib
Codec ID : S_HDMV/PGS
Codec ID/Info : Picture based subtitle format used on BDs/HD-DVDs
Duration : 1 h 47 min
Bit rate : 960 b/s
Frame rate : 0.011 FPS
Count of elements : 74
Stream size : 759 KiB (0%)
Title : FORCED
Language : Spanish
Default : No
Forced : No
Original source medium : Blu-ray

Menu
00:00:00.000 : en:Chapter 01
00:10:28.794 : en:Chapter 02
00:21:01.301 : en:Chapter 03
00:28:44.973 : en:Chapter 04
00:38:14.458 : en:Chapter 05
00:46:21.528 : en:Chapter 06
00:56:19.292 : en:Chapter 07
01:04:41.127 : en:Chapter 08
01:15:41.495 : en:Chapter 09
01:26:16.045 : en:Chapter 10
01:37:02.608 : en:Chapter 11
01:45:50.385 : en:Chapter 12
01:55:44.646 : en:Chapter 13

关于下载问题:推荐使用qBittorrent、uTorrent等下载软件,有条件的推荐115更好的下载软件!

小丑(51.63GB)Joker.2019.PROPER.2160p.BluRay.REMUX.HEVC.DTS-HD.MA.TrueHD.7.1.Atmos-FGT-【2160P蓝光REMUX】
游客,如果您要查看本帖隐藏内容请回复






4KQQ海报.gif

上一篇:猛禽小队和哈莉·奎茵 [简繁中字] (2020) 4K蓝光REMUX版本下载
下一篇:超人:钢铁之躯 [简繁中字] (2013) 4K蓝光REMUX版本下载
回复

使用道具 举报

0

主题

1

帖子

6

积分

新手上路

Rank: 1

积分
6
发表于 2022-12-19 23:15:31 来自手机 | 显示全部楼层
谢谢分享
回复

使用道具 举报

0

主题

1

帖子

6

积分

新手上路

Rank: 1

积分
6
发表于 2022-12-24 10:50:27 | 显示全部楼层
谢谢分享
回复

使用道具 举报

0

主题

4

帖子

15

积分

新手上路

Rank: 1

积分
15
发表于 2022-12-26 03:04:04 来自手机 | 显示全部楼层
谢谢分享
回复

使用道具 举报

0

主题

3

帖子

12

积分

新手上路

Rank: 1

积分
12
发表于 2022-12-29 01:29:16 来自手机 | 显示全部楼层
。。。。。。。。。
回复

使用道具 举报

0

主题

3

帖子

12

积分

新手上路

Rank: 1

积分
12
发表于 2022-12-29 01:29:34 来自手机 | 显示全部楼层
。。。。。。。。。。。
回复

使用道具 举报

0

主题

1

帖子

6

积分

新手上路

Rank: 1

积分
6
发表于 2022-12-29 06:58:07 来自手机 | 显示全部楼层
@kkkkkkk
回复

使用道具 举报

0

主题

1

帖子

6

积分

新手上路

Rank: 1

积分
6
发表于 2023-1-2 12:30:12 | 显示全部楼层

谢谢分享
回复

使用道具 举报

0

主题

2

帖子

9

积分

新手上路

Rank: 1

积分
9
发表于 2023-1-2 13:51:58 来自手机 | 显示全部楼层
谢谢分享
回复

使用道具 举报

0

主题

2

帖子

9

积分

新手上路

Rank: 1

积分
9
发表于 2023-1-2 13:54:31 来自手机 | 显示全部楼层
谢谢分享
回复

使用道具 举报

您需要登录后才可以回帖 登录 | 立即注册

本版积分规则

精彩图文
Archiver|手机版|TAG|Sitemap|新帖|专题|联系我们:邮箱: 4kjia.com@gmail.com   

4k家园   ©2019