[4K UHD 蓝光原盘] 神奇女侠 [简繁中字] / Wonder Woman (2017) 4K蓝光REMUX版本下载

[复制链接]

主题

帖子

0

积分

超级版主

Rank: 8Rank: 8

积分
0
 楼主| 发表于 2022-12-19 13:19:03 | 显示全部楼层 |阅读模式
本帖最后由 没完没了 于 2022-12-19 20:39 编辑

神奇女侠_副本.png

◎标  题 神奇女侠
◎译  名 神力女超人(台)
◎片  名 Wonder Woman
◎年  代 2017
◎产  地 美国 / 中国大陆 / 中国香港
◎类  别 动作 / 奇幻 / 冒险
◎语  言 英语
◎上映日期 2017-06-02(中国大陆 / 美国) / 2017-05-30(中国香港 / 台湾)
◎IMDb评分 7.4/10 from 659214 users 更新 : 2022-12-19
◎IMDb链接 https://www.imdb.com/title/tt0451279/
◎豆瓣评分 7.1/10 from 434494 users 更新 : 2022-12-19
◎豆瓣链接 https://movie.douban.com/subject/1578714/
◎片  长 141分钟
◎导  演 派蒂·杰金斯 Patty Jenkins
◎编  剧 艾伦·海因伯格 Allan Heinberg / 扎克·施奈德 Zack Snyder / 贾森·福克斯 Jason Fuchs / 威廉·马斯顿 William M. Marston
◎演  员 盖尔·加朵 Gal Gadot
       克里斯·派恩 Chris Pine
       康妮·尼尔森 Connie Nielsen
       罗宾·怀特 Robin Wright
       大卫·休里斯 David Thewlis
       丹尼·赫斯顿 Danny Huston
       埃伦娜·安纳亚 Elena Anaya
       露茜·戴维斯 Lucy Davis
       萨伊德·塔格马奥 Saïd Taghmaoui
       艾文·布莱纳 Ewen Bremner
       尤金·布雷弗·洛克 Eugene Brave Rock
       莉莉·阿斯佩尔 Lilly Aspell
       艾米丽·凯里 Emily Carey
       丽莎·洛文·孔斯利 Lisa Loven Kongsli
       安·奥戈博莫 Ann Ogbomo
       弗洛伦丝·卡松巴 Florence Kasumba
       杜晨·科洛斯 Doutzen Kroes
       扎克·施奈德 Zack Snyder
       艾丽西娅·维拉-贝利 Alicia Vela-Bailey
       詹姆斯·科兹莫 James Cosmo
       萨曼莎·乔 Samantha Win
       赖纳·博克 Rainer Bock
       蕾切尔·皮卡普 Rachel Pickup
       芙洛·费拉科 Flor Ferraco
       沃尔夫·卡赫勒 Wolf Kahler
       布鲁克·恩斯 Brooke Ence
       彼得·斯塔克 Peter Stark
       萨米·海曼 Sammy Hayman
       马丁·贝肖普 Martin Bishop
       嘎娜·巴亚尔赛汗 Gana Bayarsaikhan
       弗莱迪·卡特 Freddy Carter
       安.沃夫 Ann Wolfe
       杰玛·摩尔 Jemma Moore


◎简  介


  戴安娜(盖尔·加朵 Gal Gadot 饰)是女王希波吕忒(康妮·尼尔森 Connie Nielsen 饰)的女儿,自幼生活在天堂岛上。巨大的屏障将这座岛屿同外界的纷纷扰扰隔开犹如一个世外桃源,而岛上生活着的亦都是女性。在女武官安提奥普(罗宾·莱特 Robin Wright 饰)的教导之下,戴安娜习得了高强的武艺,而她的体内,似乎隐藏着某种强大的未知力量。   一场意外中,一位名为史蒂夫(克里斯·派恩 Chris Pine 饰)的男子来到了岛上,从他口中,戴安娜得知外面的世界正在经历战争的磨难,而造成这一切的罪魁祸首,是战神阿瑞斯(大卫·休里斯 David Thewlis 饰)。为了拯救人类于水火之中,戴安娜依然拿起了长剑与盾牌,发誓要彻底摧毁阿瑞斯的阴谋。
Video
ID : 1
ID in the original source medium : 4113 (0x1011)
Format : HEVC
Format/Info : High Efficiency Video Coding
Format profile : Main 10@L5.1@High
HDR format : SMPTE ST 2086, HDR10 compatible
Codec ID : V_MPEGH/ISO/HEVC
Duration : 2 h 21 min
Bit rate : 50.0 Mb/s
Width : 3 840 pixels
Height : 2 160 pixels
Display aspect ratio : 16:9
Frame rate mode : Constant
Frame rate : 23.976 (24000/1001) FPS
Color space : YUV
Chroma subsampling : 4:2:0 (Type 2)
Bit depth : 10 bits
Bits/(Pixel*Frame) : 0.251
Stream size : 49.3 GiB (68%)
Writing library : ATEME Titan File 3.8.3 (4.8.3.0)
Language : English
Default : No
Forced : No
Color range : Limited
Color primaries : BT.2020
Transfer characteristics : PQ
Matrix coefficients : BT.2020 non-constant
Mastering display color primaries : Display P3
Mastering display luminance : min: 0.0050 cd/m2, max: 4000 cd/m2
Maximum Content Light Level : 1721 cd/m2
Maximum Frame-Average Light Level : 379 cd/m2
Original source medium : Blu-ray

Audio #1
ID : 2
ID in the original source medium : 4352 (0x1100)
Format : MLP FBA 16-ch
Format/Info : Meridian Lossless Packing FBA with 16-channel presentation
Commercial name : Dolby TrueHD with Dolby Atmos
Codec ID : A_TRUEHD
Duration : 2 h 21 min
Bit rate mode : Variable
Bit rate : 4 279 kb/s
Maximum bit rate : 7 509 kb/s
Channel(s) : 8 channels
Channel layout : L R C LFE Ls Rs Lb Rb
Sampling rate : 48.0 kHz
Frame rate : 1 200.000 FPS (40 SPF)
Bit depth : 24 bits
Compression mode : Lossless
Stream size : 4.22 GiB (6%)
Title : TrueHD 7.1 Atmos
Language : English
Default : Yes
Forced : No
Original source medium : Blu-ray
Number of dynamic objects : 11
Bed channel count : 1 channel
Bed channel configuration : LFE

Audio #2
ID : 3
Format : DTS XLL
Format/Info : Digital Theater Systems
Commercial name : DTS-HD Master Audio
Codec ID : A_DTS
Duration : 2 h 21 min
Bit rate mode : Variable
Bit rate : 3 696 kb/s
Channel(s) : 8 channels
Channel layout : C L R LFE Lb Rb Lss Rss
Sampling rate : 48.0 kHz
Frame rate : 93.750 FPS (512 SPF)
Bit depth : 24 bits
Compression mode : Lossless
Stream size : 3.65 GiB (5%)
Title : DTS-HD MA 7.1
Language : English
Default : No
Forced : No

Audio #3
ID : 4
ID in the original source medium : 4352 (0x1100)
Format : AC-3
Format/Info : Audio Coding 3
Commercial name : Dolby Digital
Format settings : Dolby Surround EX
Codec ID : A_AC3
Duration : 2 h 21 min
Bit rate mode : Constant
Bit rate : 448 kb/s
Channel(s) : 6 channels
Channel layout : L R C LFE Ls Rs
Sampling rate : 48.0 kHz
Frame rate : 31.250 FPS (1536 SPF)
Compression mode : Lossy
Stream size : 453 MiB (1%)
Title : DD 5.1
Language : English
Service kind : Complete Main
Default : No
Forced : No
Original source medium : Blu-ray

Audio #4
ID : 5
ID in the original source medium : 4353 (0x1101)
Format : AC-3
Format/Info : Audio Coding 3
Commercial name : Dolby Digital
Codec ID : A_AC3
Duration : 2 h 21 min
Bit rate mode : Constant
Bit rate : 448 kb/s
Channel(s) : 6 channels
Channel layout : L R C LFE Ls Rs
Sampling rate : 48.0 kHz
Frame rate : 31.250 FPS (1536 SPF)
Compression mode : Lossy
Stream size : 453 MiB (1%)
Title : DD 5.1
Language : English
Service kind : Complete Main
Default : No
Forced : No
Original source medium : Blu-ray

Audio #5
ID : 6
ID in the original source medium : 4354 (0x1102)
Format : MLP FBA 16-ch
Format/Info : Meridian Lossless Packing FBA with 16-channel presentation
Commercial name : Dolby TrueHD with Dolby Atmos
Codec ID : A_TRUEHD
Duration : 2 h 21 min
Bit rate mode : Variable
Bit rate : 4 232 kb/s
Maximum bit rate : 7 290 kb/s
Channel(s) : 8 channels
Channel layout : L R C LFE Ls Rs Lb Rb
Sampling rate : 48.0 kHz
Frame rate : 1 200.000 FPS (40 SPF)
Bit depth : 24 bits
Compression mode : Lossless
Stream size : 4.18 GiB (6%)
Title : TrueHD 7.1 Atmos
Language : French
Default : No
Forced : No
Original source medium : Blu-ray
Number of dynamic objects : 11
Bed channel count : 1 channel
Bed channel configuration : LFE

Audio #6
ID : 7
ID in the original source medium : 4354 (0x1102)
Format : AC-3
Format/Info : Audio Coding 3
Commercial name : Dolby Digital
Format settings : Dolby Surround EX
Codec ID : A_AC3
Duration : 2 h 21 min
Bit rate mode : Constant
Bit rate : 448 kb/s
Channel(s) : 6 channels
Channel layout : L R C LFE Ls Rs
Sampling rate : 48.0 kHz
Frame rate : 31.250 FPS (1536 SPF)
Compression mode : Lossy
Stream size : 453 MiB (1%)
Title : DD 5.1
Language : French
Service kind : Complete Main
Default : No
Forced : No
Original source medium : Blu-ray

Audio #7
ID : 8
ID in the original source medium : 4355 (0x1103)
Format : MLP FBA 16-ch
Format/Info : Meridian Lossless Packing FBA with 16-channel presentation
Commercial name : Dolby TrueHD with Dolby Atmos
Codec ID : A_TRUEHD
Duration : 2 h 21 min
Bit rate mode : Variable
Bit rate : 4 197 kb/s
Maximum bit rate : 7 260 kb/s
Channel(s) : 8 channels
Channel layout : L R C LFE Ls Rs Lb Rb
Sampling rate : 48.0 kHz
Frame rate : 1 200.000 FPS (40 SPF)
Bit depth : 24 bits
Compression mode : Lossless
Stream size : 4.14 GiB (6%)
Title : TrueHD 7.1 Atmos
Language : German
Default : No
Forced : No
Original source medium : Blu-ray
Number of dynamic objects : 11
Bed channel count : 1 channel
Bed channel configuration : LFE

Audio #8
ID : 9
ID in the original source medium : 4355 (0x1103)
Format : AC-3
Format/Info : Audio Coding 3
Commercial name : Dolby Digital
Format settings : Dolby Surround EX
Codec ID : A_AC3
Duration : 2 h 21 min
Bit rate mode : Constant
Bit rate : 448 kb/s
Channel(s) : 6 channels
Channel layout : L R C LFE Ls Rs
Sampling rate : 48.0 kHz
Frame rate : 31.250 FPS (1536 SPF)
Compression mode : Lossy
Stream size : 453 MiB (1%)
Title : DD 5.1
Language : German
Service kind : Complete Main
Default : No
Forced : No
Original source medium : Blu-ray

Audio #9
ID : 10
ID in the original source medium : 4356 (0x1104)
Format : DTS XLL
Format/Info : Digital Theater Systems
Commercial name : DTS-HD Master Audio
Codec ID : A_DTS
Duration : 2 h 21 min
Bit rate mode : Variable
Bit rate : 2 301 kb/s
Channel(s) : 6 channels
Channel layout : C L R Ls Rs LFE
Sampling rate : 48.0 kHz
Frame rate : 93.750 FPS (512 SPF)
Bit depth : 16 bits
Compression mode : Lossless
Stream size : 2.27 GiB (3%)
Title : DTS-HD MA 5.1
Language : Italian
Default : No
Forced : No
Original source medium : Blu-ray

Audio #10
ID : 11
ID in the original source medium : 4357 (0x1105)
Format : AC-3
Format/Info : Audio Coding 3
Commercial name : Dolby Digital
Codec ID : A_AC3
Duration : 2 h 21 min
Bit rate mode : Constant
Bit rate : 448 kb/s
Channel(s) : 6 channels
Channel layout : L R C LFE Ls Rs
Sampling rate : 48.0 kHz
Frame rate : 31.250 FPS (1536 SPF)
Compression mode : Lossy
Stream size : 453 MiB (1%)
Title : DD 5.1
Language : Spanish
Service kind : Complete Main
Default : No
Forced : No
Original source medium : Blu-ray

Audio #11
ID : 12
ID in the original source medium : 4358 (0x1106)
Format : AC-3
Format/Info : Audio Coding 3
Commercial name : Dolby Digital
Codec ID : A_AC3
Duration : 2 h 21 min
Bit rate mode : Constant
Bit rate : 448 kb/s
Channel(s) : 6 channels
Channel layout : L R C LFE Ls Rs
Sampling rate : 48.0 kHz
Frame rate : 31.250 FPS (1536 SPF)
Compression mode : Lossy
Stream size : 453 MiB (1%)
Title : DD 5.1
Language : Czech
Service kind : Complete Main
Default : No
Forced : No
Original source medium : Blu-ray

Audio #12
ID : 13
ID in the original source medium : 4359 (0x1107)
Format : AC-3
Format/Info : Audio Coding 3
Commercial name : Dolby Digital
Codec ID : A_AC3
Duration : 2 h 21 min
Bit rate mode : Constant
Bit rate : 448 kb/s
Channel(s) : 6 channels
Channel layout : L R C LFE Ls Rs
Sampling rate : 48.0 kHz
Frame rate : 31.250 FPS (1536 SPF)
Compression mode : Lossy
Stream size : 453 MiB (1%)
Title : DD 5.1
Language : Hungarian
Service kind : Complete Main
Default : No
Forced : No
Original source medium : Blu-ray

Audio #13
ID : 14
ID in the original source medium : 4360 (0x1108)
Format : AC-3
Format/Info : Audio Coding 3
Commercial name : Dolby Digital
Codec ID : A_AC3
Duration : 2 h 21 min
Bit rate mode : Constant
Bit rate : 448 kb/s
Channel(s) : 6 channels
Channel layout : L R C LFE Ls Rs
Sampling rate : 48.0 kHz
Frame rate : 31.250 FPS (1536 SPF)
Compression mode : Lossy
Stream size : 453 MiB (1%)
Title : DD 5.1
Language : Polish
Service kind : Complete Main
Default : No
Forced : No
Original source medium : Blu-ray

Audio #14
ID : 15
ID in the original source medium : 4361 (0x1109)
Format : AC-3
Format/Info : Audio Coding 3
Commercial name : Dolby Digital
Codec ID : A_AC3
Duration : 2 h 21 min
Bit rate mode : Constant
Bit rate : 448 kb/s
Channel(s) : 6 channels
Channel layout : L R C LFE Ls Rs
Sampling rate : 48.0 kHz
Frame rate : 31.250 FPS (1536 SPF)
Compression mode : Lossy
Stream size : 453 MiB (1%)
Title : DD 5.1
Language : Thai
Service kind : Complete Main
Default : No
Forced : No
Original source medium : Blu-ray

Text #1
ID : 16
Format : UTF-8
Codec ID : S_TEXT/UTF8
Codec ID/Info : UTF-8 Plain Text
Duration : 2 h 20 min
Bit rate : 44 b/s
Frame rate : 0.187 FPS
Count of elements : 1572
Stream size : 45.5 KiB (0%)
Language : English
Default : Yes
Forced : No

Text #2
ID : 17
Format : UTF-8
Codec ID : S_TEXT/UTF8
Codec ID/Info : UTF-8 Plain Text
Duration : 2 h 20 min
Bit rate : 48 b/s
Frame rate : 0.215 FPS
Count of elements : 1814
Stream size : 50.0 KiB (0%)
Title : SDH
Language : English
Default : No
Forced : No

Text #3
ID : 18
ID in the original source medium : 4769 (0x12A1)
Format : PGS
Muxing mode : zlib
Codec ID : S_HDMV/PGS
Codec ID/Info : Picture based subtitle format used on BDs/HD-DVDs
Duration : 2 h 20 min
Bit rate : 29.6 kb/s
Frame rate : 0.434 FPS
Count of elements : 3654
Stream size : 29.7 MiB (0%)
Language : English
Default : No
Forced : No
Original source medium : Blu-ray

Text #4
ID : 19
ID in the original source medium : 4771 (0x12A3)
Format : PGS
Muxing mode : zlib
Codec ID : S_HDMV/PGS
Codec ID/Info : Picture based subtitle format used on BDs/HD-DVDs
Duration : 2 h 20 min
Bit rate : 21.4 kb/s
Frame rate : 0.347 FPS
Count of elements : 2924
Stream size : 21.5 MiB (0%)
Language : French
Default : No
Forced : No
Original source medium : Blu-ray

Text #5
ID : 20
ID in the original source medium : 4772 (0x12A4)
Format : PGS
Muxing mode : zlib
Codec ID : S_HDMV/PGS
Codec ID/Info : Picture based subtitle format used on BDs/HD-DVDs
Duration : 2 h 20 min
Bit rate : 34.3 kb/s
Frame rate : 0.443 FPS
Count of elements : 3732
Stream size : 34.4 MiB (0%)
Language : German
Default : No
Forced : No
Original source medium : Blu-ray

Text #6
ID : 21
ID in the original source medium : 4773 (0x12A5)
Format : PGS
Muxing mode : zlib
Codec ID : S_HDMV/PGS
Codec ID/Info : Picture based subtitle format used on BDs/HD-DVDs
Duration : 2 h 20 min
Bit rate : 27.7 kb/s
Frame rate : 0.431 FPS
Count of elements : 3630
Stream size : 27.8 MiB (0%)
Language : Italian
Default : No
Forced : No
Original source medium : Blu-ray

Text #7
ID : 22
ID in the original source medium : 4774 (0x12A6)
Format : PGS
Muxing mode : zlib
Codec ID : S_HDMV/PGS
Codec ID/Info : Picture based subtitle format used on BDs/HD-DVDs
Duration : 2 h 20 min
Bit rate : 24.9 kb/s
Frame rate : 0.380 FPS
Count of elements : 3202
Stream size : 25.0 MiB (0%)
Language : Spanish
Default : No
Forced : No
Original source medium : Blu-ray

Text #8
ID : 23
ID in the original source medium : 4775 (0x12A7)
Format : PGS
Muxing mode : zlib
Codec ID : S_HDMV/PGS
Codec ID/Info : Picture based subtitle format used on BDs/HD-DVDs
Duration : 2 h 20 min
Bit rate : 21.5 kb/s
Frame rate : 0.309 FPS
Count of elements : 2604
Stream size : 21.6 MiB (0%)
Language : Dutch
Default : No
Forced : No
Original source medium : Blu-ray

Text #9
ID : 24
ID in the original source medium : 4776 (0x12A8)
Format : PGS
Muxing mode : zlib
Codec ID : S_HDMV/PGS
Codec ID/Info : Picture based subtitle format used on BDs/HD-DVDs
Duration : 2 h 20 min
Bit rate : 24.7 kb/s
Frame rate : 0.361 FPS
Count of elements : 3036
Stream size : 24.8 MiB (0%)
Language : 简体
Default : No
Forced : No
Original source medium : Blu-ray

Text #10
ID : 25
ID in the original source medium : 4777 (0x12A9)
Format : PGS
Muxing mode : zlib
Codec ID : S_HDMV/PGS
Codec ID/Info : Picture based subtitle format used on BDs/HD-DVDs
Duration : 2 h 20 min
Bit rate : 22.4 kb/s
Frame rate : 0.380 FPS
Count of elements : 3200
Stream size : 22.4 MiB (0%)
Language : 繁体
Default : No
Forced : No
Original source medium : Blu-ray

Text #11
ID : 26
ID in the original source medium : 4778 (0x12AA)
Format : PGS
Muxing mode : zlib
Codec ID : S_HDMV/PGS
Codec ID/Info : Picture based subtitle format used on BDs/HD-DVDs
Duration : 2 h 20 min
Bit rate : 16.2 kb/s
Frame rate : 0.378 FPS
Count of elements : 3184
Stream size : 16.3 MiB (0%)
Language : Korean
Default : No
Forced : No
Original source medium : Blu-ray

Text #12
ID : 27
ID in the original source medium : 4779 (0x12AB)
Format : PGS
Muxing mode : zlib
Codec ID : S_HDMV/PGS
Codec ID/Info : Picture based subtitle format used on BDs/HD-DVDs
Duration : 2 h 20 min
Bit rate : 13.5 kb/s
Frame rate : 0.380 FPS
Count of elements : 3202
Stream size : 13.5 MiB (0%)
Language : Arabic
Default : No
Forced : No
Original source medium : Blu-ray

Text #13
ID : 28
ID in the original source medium : 4780 (0x12AC)
Format : PGS
Muxing mode : zlib
Codec ID : S_HDMV/PGS
Codec ID/Info : Picture based subtitle format used on BDs/HD-DVDs
Duration : 2 h 20 min
Bit rate : 24.4 kb/s
Frame rate : 0.374 FPS
Count of elements : 3150
Stream size : 24.5 MiB (0%)
Language : Croatian
Default : No
Forced : No
Original source medium : Blu-ray

Text #14
ID : 29
ID in the original source medium : 4781 (0x12AD)
Format : PGS
Muxing mode : zlib
Codec ID : S_HDMV/PGS
Codec ID/Info : Picture based subtitle format used on BDs/HD-DVDs
Duration : 2 h 20 min
Bit rate : 22.8 kb/s
Frame rate : 0.380 FPS
Count of elements : 3198
Stream size : 22.9 MiB (0%)
Language : Czech
Default : No
Forced : No
Original source medium : Blu-ray

Text #15
ID : 30
ID in the original source medium : 4782 (0x12AE)
Format : PGS
Muxing mode : zlib
Codec ID : S_HDMV/PGS
Codec ID/Info : Picture based subtitle format used on BDs/HD-DVDs
Duration : 2 h 20 min
Bit rate : 23.0 kb/s
Frame rate : 0.281 FPS
Count of elements : 2364
Stream size : 23.1 MiB (0%)
Language : Danish
Default : No
Forced : No
Original source medium : Blu-ray

Text #16
ID : 31
ID in the original source medium : 4783 (0x12AF)
Format : PGS
Muxing mode : zlib
Codec ID : S_HDMV/PGS
Codec ID/Info : Picture based subtitle format used on BDs/HD-DVDs
Duration : 2 h 20 min
Bit rate : 23.4 kb/s
Frame rate : 0.380 FPS
Count of elements : 3198
Stream size : 23.5 MiB (0%)
Language : Finnish
Default : No
Forced : No
Original source medium : Blu-ray

Text #17
ID : 32
ID in the original source medium : 4784 (0x12B0)
Format : PGS
Muxing mode : zlib
Codec ID : S_HDMV/PGS
Codec ID/Info : Picture based subtitle format used on BDs/HD-DVDs
Duration : 2 h 20 min
Bit rate : 28.1 kb/s
Frame rate : 0.381 FPS
Count of elements : 3204
Stream size : 28.2 MiB (0%)
Language : Greek
Default : No
Forced : No
Original source medium : Blu-ray

Text #18
ID : 33
ID in the original source medium : 4785 (0x12B1)
Format : PGS
Muxing mode : zlib
Codec ID : S_HDMV/PGS
Codec ID/Info : Picture based subtitle format used on BDs/HD-DVDs
Duration : 2 h 20 min
Bit rate : 24.2 kb/s
Frame rate : 0.380 FPS
Count of elements : 3198
Stream size : 24.2 MiB (0%)
Language : Hungarian
Default : No
Forced : No
Original source medium : Blu-ray

Text #19
ID : 34
ID in the original source medium : 4786 (0x12B2)
Format : PGS
Muxing mode : zlib
Codec ID : S_HDMV/PGS
Codec ID/Info : Picture based subtitle format used on BDs/HD-DVDs
Duration : 2 h 20 min
Bit rate : 22.4 kb/s
Frame rate : 0.313 FPS
Count of elements : 2632
Stream size : 22.5 MiB (0%)
Language : Norwegian
Default : No
Forced : No
Original source medium : Blu-ray

Text #20
ID : 35
ID in the original source medium : 4787 (0x12B3)
Format : PGS
Muxing mode : zlib
Codec ID : S_HDMV/PGS
Codec ID/Info : Picture based subtitle format used on BDs/HD-DVDs
Duration : 2 h 20 min
Bit rate : 21.3 kb/s
Frame rate : 0.375 FPS
Count of elements : 3156
Stream size : 21.4 MiB (0%)
Language : Polish
Default : No
Forced : No
Original source medium : Blu-ray

Text #21
ID : 36
ID in the original source medium : 4788 (0x12B4)
Format : PGS
Muxing mode : zlib
Codec ID : S_HDMV/PGS
Codec ID/Info : Picture based subtitle format used on BDs/HD-DVDs
Duration : 2 h 20 min
Bit rate : 25.1 kb/s
Frame rate : 0.380 FPS
Count of elements : 3202
Stream size : 25.2 MiB (0%)
Language : Portuguese
Default : No
Forced : No
Original source medium : Blu-ray

Text #22
ID : 37
ID in the original source medium : 4789 (0x12B5)
Format : PGS
Muxing mode : zlib
Codec ID : S_HDMV/PGS
Codec ID/Info : Picture based subtitle format used on BDs/HD-DVDs
Duration : 2 h 20 min
Bit rate : 23.4 kb/s
Frame rate : 0.358 FPS
Count of elements : 3012
Stream size : 23.5 MiB (0%)
Language : Romanian
Default : No
Forced : No
Original source medium : Blu-ray

Text #23
ID : 38
ID in the original source medium : 4790 (0x12B6)
Format : PGS
Muxing mode : zlib
Codec ID : S_HDMV/PGS
Codec ID/Info : Picture based subtitle format used on BDs/HD-DVDs
Duration : 2 h 20 min
Bit rate : 23.3 kb/s
Frame rate : 0.380 FPS
Count of elements : 3200
Stream size : 23.4 MiB (0%)
Language : Swedish
Default : No
Forced : No
Original source medium : Blu-ray

Text #24
ID : 39
ID in the original source medium : 4791 (0x12B7)
Format : PGS
Muxing mode : zlib
Codec ID : S_HDMV/PGS
Codec ID/Info : Picture based subtitle format used on BDs/HD-DVDs
Duration : 2 h 20 min
Bit rate : 24.7 kb/s
Frame rate : 0.380 FPS
Count of elements : 3198
Stream size : 24.7 MiB (0%)
Language : Thai
Default : No
Forced : No
Original source medium : Blu-ray

Text #25
ID : 40
ID in the original source medium : 4792 (0x12B8)
Format : PGS
Muxing mode : zlib
Codec ID : S_HDMV/PGS
Codec ID/Info : Picture based subtitle format used on BDs/HD-DVDs
Duration : 1 h 19 min
Bit rate : 517 b/s
Frame rate : 0.007 FPS
Count of elements : 34
Stream size : 302 KiB (0%)
Language : French
Default : No
Forced : No
Original source medium : Blu-ray

Text #26
ID : 41
ID in the original source medium : 4793 (0x12B9)
Format : PGS
Muxing mode : zlib
Codec ID : S_HDMV/PGS
Codec ID/Info : Picture based subtitle format used on BDs/HD-DVDs
Duration : 2 h 18 min
Bit rate : 421 b/s
Frame rate : 0.005 FPS
Count of elements : 42
Stream size : 428 KiB (0%)
Language : German
Default : No
Forced : No
Original source medium : Blu-ray

Text #27
ID : 42
ID in the original source medium : 4794 (0x12BA)
Format : PGS
Muxing mode : zlib
Codec ID : S_HDMV/PGS
Codec ID/Info : Picture based subtitle format used on BDs/HD-DVDs
Duration : 2 h 18 min
Bit rate : 351 b/s
Frame rate : 0.006 FPS
Count of elements : 48
Stream size : 357 KiB (0%)
Language : Italian
Default : No
Forced : No
Original source medium : Blu-ray

Text #28
ID : 43
ID in the original source medium : 4795 (0x12BB)
Format : PGS
Muxing mode : zlib
Codec ID : S_HDMV/PGS
Codec ID/Info : Picture based subtitle format used on BDs/HD-DVDs
Duration : 2 h 18 min
Bit rate : 309 b/s
Frame rate : 0.004 FPS
Count of elements : 36
Stream size : 314 KiB (0%)
Language : Spanish
Default : No
Forced : No
Original source medium : Blu-ray

Text #29
ID : 44
ID in the original source medium : 4796 (0x12BC)
Format : PGS
Muxing mode : zlib
Codec ID : S_HDMV/PGS
Codec ID/Info : Picture based subtitle format used on BDs/HD-DVDs
Duration : 2 h 19 min
Bit rate : 328 b/s
Frame rate : 0.005 FPS
Count of elements : 44
Stream size : 336 KiB (0%)
Language : Czech
Default : No
Forced : No
Original source medium : Blu-ray

Text #30
ID : 45
ID in the original source medium : 4797 (0x12BD)
Format : PGS
Muxing mode : zlib
Codec ID : S_HDMV/PGS
Codec ID/Info : Picture based subtitle format used on BDs/HD-DVDs
Duration : 2 h 19 min
Bit rate : 327 b/s
Frame rate : 0.005 FPS
Count of elements : 44
Stream size : 335 KiB (0%)
Language : Hungarian
Default : No
Forced : No
Original source medium : Blu-ray

Text #31
ID : 46
ID in the original source medium : 4798 (0x12BE)
Format : PGS
Muxing mode : zlib
Codec ID : S_HDMV/PGS
Codec ID/Info : Picture based subtitle format used on BDs/HD-DVDs
Duration : 2 h 18 min
Bit rate : 341 b/s
Frame rate : 0.006 FPS
Count of elements : 48
Stream size : 347 KiB (0%)
Language : Polish
Default : No
Forced : No
Original source medium : Blu-ray

Text #32
ID : 47
ID in the original source medium : 4799 (0x12BF)
Format : PGS
Muxing mode : zlib
Codec ID : S_HDMV/PGS
Codec ID/Info : Picture based subtitle format used on BDs/HD-DVDs
Duration : 2 h 19 min
Bit rate : 391 b/s
Frame rate : 0.006 FPS
Count of elements : 50
Stream size : 401 KiB (0%)
Language : Thai
Default : No
Forced : No
Original source medium : Blu-ray

Menu
00:00:00.000 : en:Chapter 01
00:10:26.876 : en:Chapter 02
00:23:12.182 : en:Chapter 03
00:33:10.488 : en:Chapter 04
00:43:55.132 : en:Chapter 05
00:54:25.553 : en:Chapter 06
01:07:37.928 : en:Chapter 07
01:22:29.903 : en:Chapter 08
01:34:02.845 : en:Chapter 09
01:45:37.873 : en:Chapter 10
01:57:43.556 : en:Chapter 11
02:10:41.416 : en:Chapter 12

关于下载问题:推荐使用qBittorrent、uTorrent等下载软件,有条件的推荐115更好的下载软件!

神奇女侠(72.14GB)Wonder.Woman.2017.PROPER.2160p.BluRay.REMUX.HEVC.DTS-HD.MA.TrueHD.7.1.Atmos-FGT-【2160P蓝光REMUX】
游客,如果您要查看本帖隐藏内容请回复





4KQQ海报.gif

上一篇:神奇女侠1984 [简繁粤中字] (2020)4K蓝光REMUX版本下载
下一篇:扎克·施奈德版正义联盟 [简繁中字] (2017) 4K蓝光REMUX版本下载
回复

使用道具 举报

0

主题

2

帖子

9

积分

新手上路

Rank: 1

积分
9
发表于 2022-12-19 20:28:53 | 显示全部楼层
ASDFASDF
回复

使用道具 举报

0

主题

3

帖子

12

积分

新手上路

Rank: 1

积分
12
发表于 2022-12-21 00:21:02 | 显示全部楼层
可以可以的
回复 支持 反对

使用道具 举报

您需要登录后才可以回帖 登录 | 立即注册

本版积分规则

精彩图文
Archiver|手机版|TAG|Sitemap|新帖|专题|联系我们:邮箱: 4kjia.com@gmail.com   

4k家园   ©2019