[4K UHD 蓝光原盘] 扎克·施奈德版正义联盟 [简繁中字] (2017) 4K蓝光REMUX版本下载

[复制链接]

主题

帖子

0

积分

超级版主

Rank: 8Rank: 8

积分
0
 楼主| 发表于 2022-12-19 13:27:03 | 显示全部楼层 |阅读模式
本帖最后由 没完没了 于 2022-12-19 20:38 编辑

扎克·施奈德版正义联盟_副本.png

◎译  名 扎克·施奈德版正义联盟/Justice League Snyder Cut/查克·史奈德之正义联盟(台)/正义联盟 扎克·施奈德导演剪辑版/正义联盟:扎克·施耐德版/正义联盟导演剪辑版
◎片  名 Zack Snyder's Justice League
◎年  代 2021
◎产  地 美国
◎类  别 动作 / 科幻 / 奇幻 / 冒险
◎语  言 英语
◎上映日期 2021-03-18(美国) / 2021-05-03(中国大陆网络)
◎IMDb评分 8.0/10 from 397971 users 更新 : 2022-12-18
◎IMDb链接 https://www.imdb.com/title/tt12361974/
◎豆瓣评分 8.1/10 from 294941 users 更新 : 2022-12-19
◎豆瓣链接 https://movie.douban.com/subject/35076714/
◎片  长 242分钟
◎导  演 扎克·施奈德 Zack Snyder
◎编  剧 扎克·施奈德 Zack Snyder / 克里斯·特里奥 Chris Terrio / 威尔·比尔 Will Beall / 杰里·西格尔 Jerry Siegel / 乔·舒斯特 Joe Shuster
◎主  演 本·阿弗莱克 Ben Affleck
       亨利·卡维尔 Henry Cavill
       盖尔·加朵 Gal Gadot
       杰森·莫玛 Jason Momoa
       埃兹拉·米勒 Ezra Miller
       雷·费舍尔 Ray Fisher
       艾米·亚当斯 Amy Adams
       威廉·达福 Willem Dafoe
       杰西·艾森伯格 Jesse Eisenberg
       杰瑞米·艾恩斯 Jeremy Irons
       戴安·琳恩 Diane Lane
       康妮·尼尔森 Connie Nielsen
       J·K·西蒙斯 J.K. Simmons
       塞伦·希德 Ciarán Hinds
       郑恺 Kai Zheng
       艾梅柏·希尔德 Amber Heard
       乔·莫顿 Joe Morton
       丽莎·洛文·孔斯利 Lisa Loven Kongsli
       大卫·休里斯 David Thewlis
       安·奥戈博莫 Ann Ogbomo
       奥古斯塔·艾娃·艾伦德斯杜提尔 ágústa Eva Erlendsdóttir
       克里斯特比约格·凯尔德 Kristbj?rg Kjeld
       英格瓦·埃盖特·西古德松 Ingvar Eggert Siguresson
       马克·麦克卢尔 Marc McClure
       迈克尔·麦克埃尔哈顿 Michael McElhatton
       约翰·达格尔什 John Dagleish
       拉腊·德坎罗 Lara Decaro
       罗比·基 Robbie Gee
       吉姆·斯图格恩 Jim Sturgeon
       杜晨·科洛斯 Doutzen Kroes
       埃莉诺·松浦 Eleanor Matsuura
       萨曼塔·若 Samantha Jo
       布鲁克恩斯 Brooke Ence
       杰罗姆·普拉顿 Jér?me Pradon
       理查德·克里弗特 Richard Clifford
       文森特·里奥特 Vincent Riotta
       马克·阿诺德 Mark Arnold
       彼得·吉尼斯 Peter Guinness
       赛吉·康斯坦斯 Sergi Constance
       奥萝尔·劳泽瑞尔 Aurore Lauzeral
       朱利安·刘易斯·琼斯 Julian Lewis Jones
       雷·波特 Ray Porter
       弗朗西斯·麦基 Francis Magee
       科雷西·克莱门斯 Kiersey Clemons
       露西·布莱尔斯 Lucy Briers
       威尔·柯班 Wil Coban
       凯伦·布莱森 Karen Bryson
       克里斯蒂·梅尔 Christy Meyer
       吉安皮罗·科格诺利 Gianpiero Cognoli
       寇布勒·霍尔德布鲁克-史密斯 Kobna Holdbrook-Smith
       凯文·马图林 Kevin Mathurin
       泰勒·詹姆斯 Taylor James
       布鲁斯·钟 Bruce Chong
       奥赖恩·李 Orion Lee
       奥利弗·加茨 Oliver Gatz
       凯莉·波尔克 Kelly Burke
       奥利弗·鲍威尔 Oliver Powell
       哈里·伦尼克斯 Harry Lennix
       欧米·罗斯 Omri Rose
       萨姆·本杰明 Sam Benjamin
       卡拉·古奇诺 Carla Gugino
       罗素·克劳 Russell Crowe
       扎克·施奈德 Zack Snyder
       杰瑞德·莱托 Jared Leto
       罗宾·怀特 Robin Wright
       比利·克鲁德普 Billy Crudup
       乔·曼根尼罗 Joe Manganiello
       斯沃里·拉格纳内 Swaylee Loughnane
       安德鲁·G·奥格尔比 Andrew G. Ogleby
       山姆·威克斯 Sam Weeks
       萨洛梅·贡纳尔斯多蒂尔 Salóme Gunnarsdóttir


◎简  介

  布鲁斯·韦恩(本·阿弗莱克饰)为了确保不让超人(亨利·卡维尔饰)白白牺牲,他决定与戴安娜·普林斯(盖尔·加朵饰)联手并计划招募一支超能力者团队来保护世界免遭即将到来的灾难性威胁。但这项任务比布鲁斯想象中要困难,因为每位成员都必须面对并跨越自己过去的心魔,团结起来,最终形成一个前所未有的英雄联盟。 蝙蝠侠、神奇女侠、海王(杰森·莫玛饰)、钢骨(雷·费舍饰)、闪电侠(埃兹拉·米勒饰)现在必须联合起来,否则就无法阻止荒原狼(塞伦·希德饰)、狄萨德(彼得·吉尼斯饰)以及达克赛德(雷·波特饰)毁灭地球的可怕计划。

Video
ID : 1
Format : HEVC
Format/Info : High Efficiency Video Coding
Format profile : Main 10@L5.1@High
HDR format : SMPTE ST 2086, HDR10 compatible
Codec ID : V_MPEGH/ISO/HEVC
Duration : 4 h 2 min
Bit rate : 51.0 Mb/s
Width : 3 840 pixels
Height : 2 160 pixels
Display aspect ratio : 16:9
Frame rate mode : Constant
Frame rate : 23.976 (24000/1001) FPS
Color space : YUV
Chroma subsampling : 4:2:0 (Type 2)
Bit depth : 10 bits
Bits/(Pixel*Frame) : 0.256
Stream size : 86.3 GiB (70%)
Language : English
Default : No
Forced : No
Color range : Limited
Color primaries : BT.2020
Transfer characteristics : PQ
Matrix coefficients : BT.2020 non-constant
Mastering display color primaries : Display P3
Mastering display luminance : min: 0.0001 cd/m2, max: 1000 cd/m2
Maximum Content Light Level : 597 cd/m2
Maximum Frame-Average Light Level : 122 cd/m2

Audio #1
ID : 2
Format : MLP FBA 16-ch
Format/Info : Meridian Lossless Packing FBA with 16-channel presentation
Commercial name : Dolby TrueHD with Dolby Atmos
Codec ID : A_TRUEHD
Duration : 4 h 2 min
Bit rate mode : Variable
Bit rate : 3 157 kb/s
Maximum bit rate : 4 773 kb/s
Channel(s) : 8 channels
Channel layout : L R C LFE Ls Rs Lb Rb
Sampling rate : 48.0 kHz
Frame rate : 1 200.000 FPS (40 SPF)
Bit depth : 24 bits
Compression mode : Lossless
Stream size : 5.34 GiB (4%)
Title : TrueHD 7.1 Atmos
Language : English
Default : Yes
Forced : No
Number of dynamic objects : 11
Bed channel count : 1 channel
Bed channel configuration : LFE

Audio #2
ID : 3
Format : DTS XLL
Format/Info : Digital Theater Systems
Commercial name : DTS-HD Master Audio
Codec ID : A_DTS
Duration : 4 h 2 min
Bit rate mode : Variable
Bit rate : 3 887 kb/s
Channel(s) : 8 channels
Channel layout : C L R LFE Lb Rb Lss Rss
Sampling rate : 48.0 kHz
Frame rate : 93.750 FPS (512 SPF)
Bit depth : 24 bits
Compression mode : Lossless
Stream size : 6.58 GiB (5%)
Title : DTS-HD MA 7.1
Language : English
Default : No
Forced : No

Audio #3
ID : 4
Format : AC-3
Format/Info : Audio Coding 3
Commercial name : Dolby Digital
Format settings : Dolby Surround EX
Codec ID : A_AC3
Duration : 4 h 2 min
Bit rate mode : Constant
Bit rate : 448 kb/s
Channel(s) : 6 channels
Channel layout : L R C LFE Ls Rs
Sampling rate : 48.0 kHz
Frame rate : 31.250 FPS (1536 SPF)
Compression mode : Lossy
Stream size : 776 MiB (1%)
Title : DD 5.1
Language : English
Service kind : Complete Main
Default : No
Forced : No

Audio #4
ID : 5
Format : AC-3
Format/Info : Audio Coding 3
Commercial name : Dolby Digital
Codec ID : A_AC3
Duration : 4 h 2 min
Bit rate mode : Constant
Bit rate : 448 kb/s
Channel(s) : 6 channels
Channel layout : L R C LFE Ls Rs
Sampling rate : 48.0 kHz
Frame rate : 31.250 FPS (1536 SPF)
Compression mode : Lossy
Stream size : 776 MiB (1%)
Title : DD 5.1
Language : English
Service kind : Complete Main
Default : No
Forced : No

Audio #5
ID : 6
Format : AC-3
Format/Info : Audio Coding 3
Commercial name : Dolby Digital
Codec ID : A_AC3
Duration : 4 h 2 min
Bit rate mode : Constant
Bit rate : 448 kb/s
Channel(s) : 6 channels
Channel layout : L R C LFE Ls Rs
Sampling rate : 48.0 kHz
Frame rate : 31.250 FPS (1536 SPF)
Compression mode : Lossy
Stream size : 776 MiB (1%)
Title : DD 5.1
Language : English
Service kind : Complete Main
Default : No
Forced : No

Audio #6
ID : 7
Format : MLP FBA 16-ch
Format/Info : Meridian Lossless Packing FBA with 16-channel presentation
Commercial name : Dolby TrueHD with Dolby Atmos
Codec ID : A_TRUEHD
Duration : 4 h 2 min
Bit rate mode : Variable
Bit rate : 3 136 kb/s
Maximum bit rate : 4 647 kb/s
Channel(s) : 8 channels
Channel layout : L R C LFE Ls Rs Lb Rb
Sampling rate : 48.0 kHz
Frame rate : 1 200.000 FPS (40 SPF)
Bit depth : 24 bits
Compression mode : Lossless
Stream size : 5.31 GiB (4%)
Title : TrueHD 7.1 Atmos
Language : French
Default : No
Forced : No
Number of dynamic objects : 11
Bed channel count : 1 channel
Bed channel configuration : LFE

Audio #7
ID : 8
Format : AC-3
Format/Info : Audio Coding 3
Commercial name : Dolby Digital
Format settings : Dolby Surround EX
Codec ID : A_AC3
Duration : 4 h 2 min
Bit rate mode : Constant
Bit rate : 448 kb/s
Channel(s) : 6 channels
Channel layout : L R C LFE Ls Rs
Sampling rate : 48.0 kHz
Frame rate : 31.250 FPS (1536 SPF)
Compression mode : Lossy
Stream size : 776 MiB (1%)
Title : DD 5.1
Language : French
Service kind : Complete Main
Default : No
Forced : No

Audio #8
ID : 9
Format : AC-3
Format/Info : Audio Coding 3
Commercial name : Dolby Digital
Codec ID : A_AC3
Duration : 4 h 2 min
Bit rate mode : Constant
Bit rate : 448 kb/s
Channel(s) : 6 channels
Channel layout : L R C LFE Ls Rs
Sampling rate : 48.0 kHz
Frame rate : 31.250 FPS (1536 SPF)
Compression mode : Lossy
Stream size : 776 MiB (1%)
Title : DD 5.1
Language : French
Service kind : Complete Main
Default : No
Forced : No

Audio #9
ID : 10
Format : MLP FBA 16-ch
Format/Info : Meridian Lossless Packing FBA with 16-channel presentation
Commercial name : Dolby TrueHD with Dolby Atmos
Codec ID : A_TRUEHD
Duration : 4 h 2 min
Bit rate mode : Variable
Bit rate : 3 148 kb/s
Maximum bit rate : 4 701 kb/s
Channel(s) : 8 channels
Channel layout : L R C LFE Ls Rs Lb Rb
Sampling rate : 48.0 kHz
Frame rate : 1 200.000 FPS (40 SPF)
Bit depth : 24 bits
Compression mode : Lossless
Stream size : 5.33 GiB (4%)
Title : TrueHD 7.1 Atmos
Language : German
Default : No
Forced : No
Number of dynamic objects : 11
Bed channel count : 1 channel
Bed channel configuration : LFE

Audio #10
ID : 11
Format : AC-3
Format/Info : Audio Coding 3
Commercial name : Dolby Digital
Format settings : Dolby Surround EX
Codec ID : A_AC3
Duration : 4 h 2 min
Bit rate mode : Constant
Bit rate : 448 kb/s
Channel(s) : 6 channels
Channel layout : L R C LFE Ls Rs
Sampling rate : 48.0 kHz
Frame rate : 31.250 FPS (1536 SPF)
Compression mode : Lossy
Stream size : 776 MiB (1%)
Title : DD 5.1
Language : German
Service kind : Complete Main
Default : No
Forced : No

Audio #11
ID : 12
Format : AC-3
Format/Info : Audio Coding 3
Commercial name : Dolby Digital
Codec ID : A_AC3
Duration : 4 h 2 min
Bit rate mode : Constant
Bit rate : 448 kb/s
Channel(s) : 6 channels
Channel layout : L R C LFE Ls Rs
Sampling rate : 48.0 kHz
Frame rate : 31.250 FPS (1536 SPF)
Compression mode : Lossy
Stream size : 776 MiB (1%)
Title : DD 5.1
Language : German
Service kind : Complete Main
Default : No
Forced : No

Audio #12
ID : 13
Format : AC-3
Format/Info : Audio Coding 3
Commercial name : Dolby Digital
Format settings : Dolby Surround
Codec ID : A_AC3
Duration : 4 h 2 min
Bit rate mode : Constant
Bit rate : 192 kb/s
Channel(s) : 2 channels
Channel layout : L R
Sampling rate : 48.0 kHz
Frame rate : 31.250 FPS (1536 SPF)
Compression mode : Lossy
Stream size : 333 MiB (0%)
Title : Stereo
Language : German
Service kind : Complete Main
Default : No
Forced : No

Audio #13
ID : 14
Format : DTS XLL
Format/Info : Digital Theater Systems
Commercial name : DTS-HD Master Audio
Codec ID : A_DTS
Duration : 4 h 2 min
Bit rate mode : Variable
Bit rate : 3 058 kb/s
Channel(s) : 6 channels
Channel layout : C L R Ls Rs LFE
Sampling rate : 48.0 kHz
Frame rate : 93.750 FPS (512 SPF)
Bit depth : 16 bits
Compression mode : Lossless
Stream size : 5.17 GiB (4%)
Title : DTS-HD MA 5.1
Language : Italian
Default : No
Forced : No

Audio #14
ID : 15
Format : AC-3
Format/Info : Audio Coding 3
Commercial name : Dolby Digital
Codec ID : A_AC3
Duration : 4 h 2 min
Bit rate mode : Constant
Bit rate : 448 kb/s
Channel(s) : 6 channels
Channel layout : L R C LFE Ls Rs
Sampling rate : 48.0 kHz
Frame rate : 31.250 FPS (1536 SPF)
Compression mode : Lossy
Stream size : 776 MiB (1%)
Title : DD 5.1
Language : Spanish
Service kind : Complete Main
Default : No
Forced : No

Audio #15
ID : 16
Format : AC-3
Format/Info : Audio Coding 3
Commercial name : Dolby Digital
Codec ID : A_AC3
Duration : 4 h 2 min
Bit rate mode : Constant
Bit rate : 448 kb/s
Channel(s) : 6 channels
Channel layout : L R C LFE Ls Rs
Sampling rate : 48.0 kHz
Frame rate : 31.250 FPS (1536 SPF)
Compression mode : Lossy
Stream size : 776 MiB (1%)
Title : DD 5.1
Language : Spanish
Service kind : Complete Main
Default : No
Forced : No

Audio #16
ID : 17
Format : AC-3
Format/Info : Audio Coding 3
Commercial name : Dolby Digital
Codec ID : A_AC3
Duration : 4 h 2 min
Bit rate mode : Constant
Bit rate : 448 kb/s
Channel(s) : 6 channels
Channel layout : L R C LFE Ls Rs
Sampling rate : 48.0 kHz
Frame rate : 31.250 FPS (1536 SPF)
Compression mode : Lossy
Stream size : 776 MiB (1%)
Title : DD 5.1
Language : Czech
Service kind : Complete Main
Default : No
Forced : No

Audio #17
ID : 18
Format : AC-3
Format/Info : Audio Coding 3
Commercial name : Dolby Digital
Codec ID : A_AC3
Duration : 4 h 2 min
Bit rate mode : Constant
Bit rate : 448 kb/s
Channel(s) : 6 channels
Channel layout : L R C LFE Ls Rs
Sampling rate : 48.0 kHz
Frame rate : 31.250 FPS (1536 SPF)
Compression mode : Lossy
Stream size : 776 MiB (1%)
Title : DD 5.1
Language : Polish
Service kind : Complete Main
Default : No
Forced : No

Audio #18
ID : 19
Format : AC-3
Format/Info : Audio Coding 3
Commercial name : Dolby Digital
Codec ID : A_AC3
Duration : 4 h 2 min
Bit rate mode : Constant
Bit rate : 448 kb/s
Channel(s) : 6 channels
Channel layout : L R C LFE Ls Rs
Sampling rate : 48.0 kHz
Frame rate : 31.250 FPS (1536 SPF)
Compression mode : Lossy
Stream size : 776 MiB (1%)
Title : DD 5.1
Language : Japanese
Service kind : Complete Main
Default : No
Forced : No

Text #1
ID : 20
Format : UTF-8
Codec ID : S_TEXT/UTF8
Codec ID/Info : UTF-8 Plain Text
Duration : 3 h 57 min
Bit rate : 31 b/s
Frame rate : 0.144 FPS
Count of elements : 2048
Stream size : 54.6 KiB (0%)
Language : English
Default : Yes
Forced : No

Text #2
ID : 21
Format : UTF-8
Codec ID : S_TEXT/UTF8
Codec ID/Info : UTF-8 Plain Text
Duration : 4 h 0 min
Bit rate : 40 b/s
Frame rate : 0.191 FPS
Count of elements : 2758
Stream size : 70.9 KiB (0%)
Title : SDH
Language : English
Default : No
Forced : No

Text #3
ID : 22
Format : PGS
Muxing mode : zlib
Codec ID : S_HDMV/PGS
Codec ID/Info : Picture based subtitle format used on BDs/HD-DVDs
Duration : 3 h 47 min
Bit rate : 13.2 kb/s
Frame rate : 0.252 FPS
Count of elements : 3433
Stream size : 21.4 MiB (0%)
Language : Japanese
Default : No
Forced : No

Text #4
ID : 23
Format : PGS
Muxing mode : zlib
Codec ID : S_HDMV/PGS
Codec ID/Info : Picture based subtitle format used on BDs/HD-DVDs
Duration : 4 h 0 min
Bit rate : 25.8 kb/s
Frame rate : 0.385 FPS
Count of elements : 5558
Stream size : 44.3 MiB (0%)
Language : English
Default : No
Forced : No

Text #5
ID : 24
Format : PGS
Muxing mode : zlib
Codec ID : S_HDMV/PGS
Codec ID/Info : Picture based subtitle format used on BDs/HD-DVDs
Duration : 3 h 55 min
Bit rate : 16.3 kb/s
Frame rate : 0.250 FPS
Count of elements : 3540
Stream size : 27.5 MiB (0%)
Language : French
Default : No
Forced : No

Text #6
ID : 25
Format : PGS
Muxing mode : zlib
Codec ID : S_HDMV/PGS
Codec ID/Info : Picture based subtitle format used on BDs/HD-DVDs
Duration : 3 h 53 min
Bit rate : 27.7 kb/s
Frame rate : 0.314 FPS
Count of elements : 4396
Stream size : 46.2 MiB (0%)
Language : German
Default : No
Forced : No

Text #7
ID : 26
Format : PGS
Muxing mode : zlib
Codec ID : S_HDMV/PGS
Codec ID/Info : Picture based subtitle format used on BDs/HD-DVDs
Duration : 3 h 52 min
Bit rate : 24.9 kb/s
Frame rate : 0.378 FPS
Count of elements : 5282
Stream size : 41.5 MiB (0%)
Language : Italian
Default : No
Forced : No

Text #8
ID : 27
Format : PGS
Muxing mode : zlib
Codec ID : S_HDMV/PGS
Codec ID/Info : Picture based subtitle format used on BDs/HD-DVDs
Duration : 3 h 59 min
Bit rate : 18.8 kb/s
Frame rate : 0.264 FPS
Count of elements : 3784
Stream size : 32.2 MiB (0%)
Language : Spanish
Default : No
Forced : No

Text #9
ID : 28
Format : PGS
Muxing mode : zlib
Codec ID : S_HDMV/PGS
Codec ID/Info : Picture based subtitle format used on BDs/HD-DVDs
Duration : 3 h 47 min
Bit rate : 17.1 kb/s
Frame rate : 0.225 FPS
Count of elements : 3070
Stream size : 27.8 MiB (0%)
Language : Dutch
Default : No
Forced : No

Text #10
ID : 29
Format : PGS
Muxing mode : zlib
Codec ID : S_HDMV/PGS
Codec ID/Info : Picture based subtitle format used on BDs/HD-DVDs
Duration : 3 h 51 min
Bit rate : 19.2 kb/s
Frame rate : 0.274 FPS
Count of elements : 3804
Stream size : 31.7 MiB (0%)
Language : 简体
Default : No
Forced : No

Text #11
ID : 30
Format : PGS
Muxing mode : zlib
Codec ID : S_HDMV/PGS
Codec ID/Info : Picture based subtitle format used on BDs/HD-DVDs
Duration : 3 h 59 min
Bit rate : 20.1 kb/s
Frame rate : 0.266 FPS
Count of elements : 3822
Stream size : 34.4 MiB (0%)
Language : 繁体
Default : No
Forced : No

Text #12
ID : 31
Format : PGS
Muxing mode : zlib
Codec ID : S_HDMV/PGS
Codec ID/Info : Picture based subtitle format used on BDs/HD-DVDs
Duration : 3 h 51 min
Bit rate : 12.9 kb/s
Frame rate : 0.273 FPS
Count of elements : 3790
Stream size : 21.2 MiB (0%)
Language : Korean
Default : No
Forced : No

Text #13
ID : 32
Format : PGS
Muxing mode : zlib
Codec ID : S_HDMV/PGS
Codec ID/Info : Picture based subtitle format used on BDs/HD-DVDs
Duration : 3 h 59 min
Bit rate : 17.8 kb/s
Frame rate : 0.208 FPS
Count of elements : 2980
Stream size : 30.4 MiB (0%)
Language : Spanish
Default : No
Forced : No

Text #14
ID : 33
Format : PGS
Muxing mode : zlib
Codec ID : S_HDMV/PGS
Codec ID/Info : Picture based subtitle format used on BDs/HD-DVDs
Duration : 3 h 59 min
Bit rate : 17.7 kb/s
Frame rate : 0.262 FPS
Count of elements : 3762
Stream size : 30.3 MiB (0%)
Language : Czech
Default : No
Forced : No

Text #15
ID : 34
Format : PGS
Muxing mode : zlib
Codec ID : S_HDMV/PGS
Codec ID/Info : Picture based subtitle format used on BDs/HD-DVDs
Duration : 3 h 55 min
Bit rate : 16.8 kb/s
Frame rate : 0.181 FPS
Count of elements : 2552
Stream size : 28.3 MiB (0%)
Language : Danish
Default : No
Forced : No

Text #16
ID : 35
Format : PGS
Muxing mode : zlib
Codec ID : S_HDMV/PGS
Codec ID/Info : Picture based subtitle format used on BDs/HD-DVDs
Duration : 3 h 55 min
Bit rate : 18.3 kb/s
Frame rate : 0.266 FPS
Count of elements : 3760
Stream size : 30.8 MiB (0%)
Language : Finnish
Default : No
Forced : No

Text #17
ID : 36
Format : PGS
Muxing mode : zlib
Codec ID : S_HDMV/PGS
Codec ID/Info : Picture based subtitle format used on BDs/HD-DVDs
Duration : 3 h 55 min
Bit rate : 19.6 kb/s
Frame rate : 0.268 FPS
Count of elements : 3786
Stream size : 33.1 MiB (0%)
Language : Greek
Default : No
Forced : No

Text #18
ID : 37
Format : PGS
Muxing mode : zlib
Codec ID : S_HDMV/PGS
Codec ID/Info : Picture based subtitle format used on BDs/HD-DVDs
Duration : 3 h 59 min
Bit rate : 17.4 kb/s
Frame rate : 0.207 FPS
Count of elements : 2970
Stream size : 29.8 MiB (0%)
Language : Hungarian
Default : No
Forced : No

Text #19
ID : 38
Format : PGS
Muxing mode : zlib
Codec ID : S_HDMV/PGS
Codec ID/Info : Picture based subtitle format used on BDs/HD-DVDs
Duration : 3 h 55 min
Bit rate : 18.1 kb/s
Frame rate : 0.215 FPS
Count of elements : 3044
Stream size : 30.4 MiB (0%)
Language : Norwegian
Default : No
Forced : No

Text #20
ID : 39
Format : PGS
Muxing mode : zlib
Codec ID : S_HDMV/PGS
Codec ID/Info : Picture based subtitle format used on BDs/HD-DVDs
Duration : 3 h 59 min
Bit rate : 18.8 kb/s
Frame rate : 0.261 FPS
Count of elements : 3744
Stream size : 32.2 MiB (0%)
Language : Polish
Default : No
Forced : No

Text #21
ID : 40
Format : PGS
Muxing mode : zlib
Codec ID : S_HDMV/PGS
Codec ID/Info : Picture based subtitle format used on BDs/HD-DVDs
Duration : 3 h 55 min
Bit rate : 18.3 kb/s
Frame rate : 0.258 FPS
Count of elements : 3652
Stream size : 30.8 MiB (0%)
Language : Romanian
Default : No
Forced : No

Text #22
ID : 41
Format : PGS
Muxing mode : zlib
Codec ID : S_HDMV/PGS
Codec ID/Info : Picture based subtitle format used on BDs/HD-DVDs
Duration : 3 h 55 min
Bit rate : 16.5 kb/s
Frame rate : 0.256 FPS
Count of elements : 3622
Stream size : 27.8 MiB (0%)
Language : Swedish
Default : No
Forced : No

Text #23
ID : 42
Format : PGS
Muxing mode : zlib
Codec ID : S_HDMV/PGS
Codec ID/Info : Picture based subtitle format used on BDs/HD-DVDs
Duration : 3 h 44 min
Bit rate : 261 b/s
Frame rate : 0.003 FPS
Count of elements : 40
Stream size : 430 KiB (0%)
Language : French
Default : No
Forced : No

Text #24
ID : 43
Format : PGS
Muxing mode : zlib
Codec ID : S_HDMV/PGS
Codec ID/Info : Picture based subtitle format used on BDs/HD-DVDs
Duration : 3 h 44 min
Bit rate : 159 b/s
Frame rate : 0.003 FPS
Count of elements : 42
Stream size : 263 KiB (0%)
Language : German
Default : No
Forced : No

Text #25
ID : 44
Format : PGS
Muxing mode : zlib
Codec ID : S_HDMV/PGS
Codec ID/Info : Picture based subtitle format used on BDs/HD-DVDs
Duration : 3 h 44 min
Bit rate : 478 b/s
Frame rate : 0.005 FPS
Count of elements : 70
Stream size : 788 KiB (0%)
Language : Italian
Default : No
Forced : No

Text #26
ID : 45
Format : PGS
Muxing mode : zlib
Codec ID : S_HDMV/PGS
Codec ID/Info : Picture based subtitle format used on BDs/HD-DVDs
Duration : 3 h 44 min
Bit rate : 344 b/s
Frame rate : 0.004 FPS
Count of elements : 54
Stream size : 566 KiB (0%)
Language : Spanish
Default : No
Forced : No

Text #27
ID : 46
Format : PGS
Muxing mode : zlib
Codec ID : S_HDMV/PGS
Codec ID/Info : Picture based subtitle format used on BDs/HD-DVDs
Duration : 2 h 12 min
Bit rate : 92 b/s
Frame rate : 0.002 FPS
Count of elements : 12
Stream size : 89.9 KiB (0%)
Language : Spanish
Default : No
Forced : No

Text #28
ID : 47
Format : PGS
Muxing mode : zlib
Codec ID : S_HDMV/PGS
Codec ID/Info : Picture based subtitle format used on BDs/HD-DVDs
Duration : 3 h 44 min
Bit rate : 411 b/s
Frame rate : 0.005 FPS
Count of elements : 64
Stream size : 676 KiB (0%)
Language : Czech
Default : No
Forced : No

Text #29
ID : 48
Format : PGS
Muxing mode : zlib
Codec ID : S_HDMV/PGS
Codec ID/Info : Picture based subtitle format used on BDs/HD-DVDs
Duration : 3 h 44 min
Bit rate : 496 b/s
Frame rate : 0.006 FPS
Count of elements : 78
Stream size : 817 KiB (0%)
Language : Polish
Default : No
Forced : No

Text #30
ID : 49
Format : PGS
Muxing mode : zlib
Codec ID : S_HDMV/PGS
Codec ID/Info : Picture based subtitle format used on BDs/HD-DVDs
Duration : 3 h 44 min
Bit rate : 277 b/s
Frame rate : 0.006 FPS
Count of elements : 75
Stream size : 456 KiB (0%)
Language : Japanese
Default : No
Forced : No

Menu
00:00:00.000 : en:Chapter 01
00:08:54.951 : en:Chapter 02
00:19:56.737 : en:Chapter 03
00:36:54.670 : en:Chapter 04
00:41:32.031 : en:Chapter 05
00:50:18.640 : en:Chapter 06
00:58:42.644 : en:Chapter 07
01:08:35.736 : en:Chapter 08
01:20:27.989 : en:Chapter 09
01:30:05.274 : en:Chapter 10
01:40:28.439 : en:Chapter 11
01:51:24.177 : en:Chapter 12
01:59:06.931 : en:Chapter 13
02:07:56.043 : en:Chapter 14
02:21:58.528 : en:Chapter 01
02:29:50.124 : en:Chapter 02
02:37:26.997 : en:Chapter 03
02:48:36.124 : en:Chapter 04
02:53:19.698 : en:Chapter 05
03:09:54.109 : en:Chapter 06
03:21:28.928 : en:Chapter 07
03:34:12.232 : en:Chapter 08
03:40:10.048 : en:Chapter 09
03:50:47.268 : en:Chapter 10

关于下载问题:推荐使用qBittorrent、uTorrent等下载软件,有条件的推荐115更好的下载软件!

扎克·施奈德版正义联盟(124.01GB)Justice.League.Snyders.Cut.2021.PROPER.2160p.BluRay.REMUX.HEVC.DTS-HD.MA.TrueHD.7.1.Atmos-FGT-【2160P蓝光REMUX】

游客,如果您要查看本帖隐藏内容请回复






4KQQ海报.gif


上一篇:神奇女侠 [简繁中字] / Wonder Woman (2017) 4K蓝光REMUX版本下载
下一篇:战争游戏 / War Games (1983) 4K蓝光[原盘+REMUX]版本下载
回复

使用道具 举报

0

主题

2

帖子

12

积分

新手上路

Rank: 1

积分
12
发表于 2022-12-19 22:16:14 | 显示全部楼层
太好了,谢谢
回复 支持 反对

使用道具 举报

0

主题

18

帖子

93

积分

新手上路

Rank: 1

积分
93
发表于 2022-12-20 14:17:56 | 显示全部楼层
这个版本经典!!
回复 支持 反对

使用道具 举报

0

主题

2

帖子

9

积分

新手上路

Rank: 1

积分
9
发表于 2022-12-25 21:25:09 来自手机 | 显示全部楼层
非常值得收藏的一部电影!!!谢谢楼主分享!!!
回复 支持 反对

使用道具 举报

0

主题

3

帖子

12

积分

新手上路

Rank: 1

积分
12
发表于 2023-1-1 20:58:51 | 显示全部楼层
ngmaiyouuuuuu
回复 支持 反对

使用道具 举报

0

主题

1

帖子

6

积分

新手上路

Rank: 1

积分
6
发表于 2023-1-2 08:28:07 来自手机 | 显示全部楼层
靴靴
回复

使用道具 举报

您需要登录后才可以回帖 登录 | 立即注册

本版积分规则

精彩图文
Archiver|手机版|TAG|Sitemap|新帖|专题|联系我们:邮箱: 4kjia.com@gmail.com   

4k家园   ©2019