[4K电影] 最幸运的女孩 [简繁中字]/ Luckiest Girl Alive (2022) 4K高清版下载

[复制链接]

主题

帖子

0

积分

超级版主

Rank: 8Rank: 8

积分
0
 楼主| 发表于 2022-12-21 11:12:54 | 显示全部楼层 |阅读模式

QQ图片20221221110927_副本.png

◎标  题 最幸运的女孩
◎译  名 你好,法奈利
◎片  名 Luckiest Girl Alive
◎年  代 2022
◎产  地 美国
◎类  别 剧情 / 悬疑
◎语  言 英语
◎上映日期 2022-09-30(美国) / 2022-10-07(美国网络)
◎IMDb评分 6.4/10 from 41770 users 更新 : 2022-12-17
◎IMDb链接 https://www.imdb.com/title/tt4595186/
◎豆瓣评分 6.8/10 from 2784 users 更新 : 2022-12-21
◎豆瓣链接 https://movie.douban.com/subject/35410194/
◎片  长 115分钟
◎导  演 麦克·巴克 Mike Barker
◎编  剧 杰西卡·克诺尔 Jessica Knoll
◎演  员 米拉·库尼斯 Mila Kunis
       芬·维特洛克 Finn Wittrock
       康妮·布里登 Connie Britton
       詹妮弗·比尔斯 Jennifer Beals
       斯科特·麦克纳里 Scoot McNairy
       贾斯汀·卢佩 Justine Lupe
       基娅拉·奥利勒拉 Chiara Aurelia
       托马斯·巴布萨卡 Thomas Barbusca
       卡尔森·迈克马克 Carson MacCormac
       盖奇·芒罗 Gage Munroe
       伊萨克·克拉顿 Isaac Kragten
       达尔默·阿泽德 Dalmar Abuzeid
       罗德里戈-费尔南德斯-斯托尔 Rodrigo Fernandez-Stoll
       莉娅·平森特 Leah Pinsent
       安吉拉·贝夏拉 Angela Besharah
       妮可·哈弗 Nicole Huff
       詹姆斯·杰拉尔德·希克斯 James Gerald Hicks
       dL山姆 dL Sams
       丹尼斯·法尼 Dennis Funny
       阿利克丝·弗里德伯格 Alix Friedberg


◎简  介

  14岁的蒂芙阿尼•法奈利,出生于普通家庭,被势利的母亲送去布拉德利贵族学校,当作攀附权贵的跳板。美丽的法奈利如愿融入贵族圈子,成为众人追捧的万人迷,却没有人知道她内心的孤独。在一次校园聚会中,法奈利经历了始料未及的侵害,从而卷入让她痛不欲生的校园暴力事件,随后一起校园枪杀案更是彻底改变了法奈利的人生轨迹。
28岁的阿尼•法奈利,生活在纽约,拥有一份光鲜体面的工作,一个有着贵族血统的高富帅未婚夫,一枚价值不菲的绿宝石婚戒,一个装满昂贵华服的衣橱,她一直努力追求的完美生活几乎近在咫尺。但法奈利知道,她只是假装很好。
让无数女孩子艳羡的水晶灯、红毯,以及名贵的婚纱就在不远处等着她,但她同样深深地恐惧,曾经像荆棘般缠绕的不堪回首的记忆,会让她一直试图掩藏的另一个自己——蒂芙阿尼•法奈利现出原形。 一个人需要隐藏多少秘密,才能巧妙地度过一生?而命运又会在什么时...

Video
ID : 1
Format : HEVC
Format/Info : High Efficiency Video Coding
Format profile : Main 10@L5@Main
HDR format : Dolby Vision, Version 1.0, dvhe.08.06, BL+RPU, HDR10 compatible / SMPTE ST 2086, HDR10 compatible
Codec ID : V_MPEGH/ISO/HEVC
Duration : 1 h 53 min
Bit rate : 12.2 Mb/s
Width : 3 840 pixels
Height : 2 160 pixels
Display aspect ratio : 16:9
Frame rate mode : Constant
Frame rate : 24.000 FPS
Color space : YUV
Chroma subsampling : 4:2:0 (Type 2)
Bit depth : 10 bits
Bits/(Pixel*Frame) : 0.061
Stream size : 9.63 GiB (94%)
Language : English
Default : Yes
Forced : No
Color range : Limited
Color primaries : BT.2020
Transfer characteristics : PQ
Matrix coefficients : BT.2020 non-constant
Mastering display color primaries : Display P3
Mastering display luminance : min: 0.0001 cd/m2, max: 1000 cd/m2
Maximum Content Light Level : 1041 cd/m2
Maximum Frame-Average Light Level : 97 cd/m2

Audio
ID : 2
Format : E-AC-3 JOC
Format/Info : Enhanced AC-3 with Joint Object Coding
Commercial name : Dolby Digital Plus with Dolby Atmos
Codec ID : A_EAC3
Duration : 1 h 55 min
Bit rate mode : Constant
Bit rate : 768 kb/s
Channel(s) : 6 channels
Channel layout : L R C LFE Ls Rs
Sampling rate : 48.0 kHz
Frame rate : 31.250 FPS (1536 SPF)
Compression mode : Lossy
Stream size : 633 MiB (6%)
Language : English
Service kind : Complete Main
Default : Yes
Forced : No
Complexity index : 16
Number of dynamic objects : 15
Bed channel count : 1 channel
Bed channel configuration : LFE

Text #1
ID : 3
Format : UTF-8
Codec ID : S_TEXT/UTF8
Codec ID/Info : UTF-8 Plain Text
Duration : 1 h 46 min
Bit rate : 67 b/s
Frame rate : 0.234 FPS
Count of elements : 1489
Stream size : 52.1 KiB (0%)
Language : English
Default : No
Forced : No

Text #2
ID : 4
Format : UTF-8
Codec ID : S_TEXT/UTF8
Codec ID/Info : UTF-8 Plain Text
Duration : 1 h 49 min
Bit rate : 80 b/s
Frame rate : 0.294 FPS
Count of elements : 1938
Stream size : 64.9 KiB (0%)
Title : SDH
Language : English
Default : No
Forced : No

Text #3
ID : 5
Format : UTF-8
Codec ID : S_TEXT/UTF8
Codec ID/Info : UTF-8 Plain Text
Duration : 1 h 52 min
Bit rate : 101 b/s
Frame rate : 0.217 FPS
Count of elements : 1460
Stream size : 83.2 KiB (0%)
Language : Arabic
Default : No
Forced : No

Text #4
ID : 6
Format : UTF-8
Codec ID : S_TEXT/UTF8
Codec ID/Info : UTF-8 Plain Text
Duration : 1 h 52 min
Bit rate : 55 b/s
Frame rate : 0.211 FPS
Count of elements : 1425
Stream size : 45.6 KiB (0%)
Language : Catalan
Default : No
Forced : No

Text #5
ID : 7
Format : UTF-8
Codec ID : S_TEXT/UTF8
Codec ID/Info : UTF-8 Plain Text
Duration : 1 h 47 min
Bit rate : 63 b/s
Frame rate : 0.230 FPS
Count of elements : 1488
Stream size : 50.1 KiB (0%)
Language : Czech
Default : No
Forced : No

Text #6
ID : 8
Format : UTF-8
Codec ID : S_TEXT/UTF8
Codec ID/Info : UTF-8 Plain Text
Duration : 1 h 52 min
Bit rate : 55 b/s
Frame rate : 0.207 FPS
Count of elements : 1395
Stream size : 45.6 KiB (0%)
Language : Czech
Default : No
Forced : No

Text #7
ID : 9
Format : UTF-8
Codec ID : S_TEXT/UTF8
Codec ID/Info : UTF-8 Plain Text
Duration : 1 h 49 min
Bit rate : 73 b/s
Frame rate : 0.278 FPS
Count of elements : 1831
Stream size : 59.3 KiB (0%)
Title : SDH
Language : Czech
Default : No
Forced : No

Text #8
ID : 10
Format : UTF-8
Codec ID : S_TEXT/UTF8
Codec ID/Info : UTF-8 Plain Text
Duration : 1 h 52 min
Bit rate : 54 b/s
Frame rate : 0.199 FPS
Count of elements : 1344
Stream size : 44.7 KiB (0%)
Language : Danish
Default : No
Forced : No

Text #9
ID : 11
Format : UTF-8
Codec ID : S_TEXT/UTF8
Codec ID/Info : UTF-8 Plain Text
Duration : 1 h 52 min
Bit rate : 59 b/s
Frame rate : 0.197 FPS
Count of elements : 1329
Stream size : 49.4 KiB (0%)
Language : German
Default : No
Forced : No

Text #10
ID : 12
Format : UTF-8
Codec ID : S_TEXT/UTF8
Codec ID/Info : UTF-8 Plain Text
Duration : 1 h 46 min
Bit rate : 71 b/s
Frame rate : 0.242 FPS
Count of elements : 1540
Stream size : 55.7 KiB (0%)
Language : German
Default : No
Forced : No

Text #11
ID : 13
Format : UTF-8
Codec ID : S_TEXT/UTF8
Codec ID/Info : UTF-8 Plain Text
Duration : 1 h 49 min
Bit rate : 86 b/s
Frame rate : 0.302 FPS
Count of elements : 1985
Stream size : 69.2 KiB (0%)
Title : SDH
Language : German
Default : No
Forced : No

Text #12
ID : 14
Format : UTF-8
Codec ID : S_TEXT/UTF8
Codec ID/Info : UTF-8 Plain Text
Duration : 1 h 52 min
Bit rate : 92 b/s
Frame rate : 0.203 FPS
Count of elements : 1369
Stream size : 75.9 KiB (0%)
Language : Greek
Default : No
Forced : No

Text #13
ID : 15
Format : UTF-8
Codec ID : S_TEXT/UTF8
Codec ID/Info : UTF-8 Plain Text
Duration : 1 h 47 min
Bit rate : 65 b/s
Frame rate : 0.230 FPS
Count of elements : 1487
Stream size : 51.5 KiB (0%)
Title : Latin American
Language : Spanish
Default : No
Forced : No

Text #14
ID : 16
Format : UTF-8
Codec ID : S_TEXT/UTF8
Codec ID/Info : UTF-8 Plain Text
Duration : 1 h 52 min
Bit rate : 57 b/s
Frame rate : 0.206 FPS
Count of elements : 1389
Stream size : 47.6 KiB (0%)
Title : Latin American
Language : Spanish
Default : No
Forced : No

Text #15
ID : 17
Format : UTF-8
Codec ID : S_TEXT/UTF8
Codec ID/Info : UTF-8 Plain Text
Duration : 1 h 50 min
Bit rate : 73 b/s
Frame rate : 0.261 FPS
Count of elements : 1722
Stream size : 59.5 KiB (0%)
Title : Latin American (SDH)
Language : Spanish
Default : No
Forced : No

Text #16
ID : 18
Format : UTF-8
Codec ID : S_TEXT/UTF8
Codec ID/Info : UTF-8 Plain Text
Duration : 1 h 52 min
Bit rate : 55 b/s
Frame rate : 0.208 FPS
Count of elements : 1403
Stream size : 45.4 KiB (0%)
Language : Spanish
Default : No
Forced : No

Text #17
ID : 19
Format : UTF-8
Codec ID : S_TEXT/UTF8
Codec ID/Info : UTF-8 Plain Text
Duration : 1 h 52 min
Bit rate : 55 b/s
Frame rate : 0.212 FPS
Count of elements : 1437
Stream size : 45.9 KiB (0%)
Language : Spanish
Default : No
Forced : No

Text #18
ID : 20
Format : UTF-8
Codec ID : S_TEXT/UTF8
Codec ID/Info : UTF-8 Plain Text
Duration : 1 h 50 min
Bit rate : 69 b/s
Frame rate : 0.252 FPS
Count of elements : 1662
Stream size : 55.9 KiB (0%)
Title : SDH
Language : Spanish
Default : No
Forced : No

Text #19
ID : 21
Format : UTF-8
Codec ID : S_TEXT/UTF8
Codec ID/Info : UTF-8 Plain Text
Duration : 1 h 52 min
Bit rate : 57 b/s
Frame rate : 0.207 FPS
Count of elements : 1397
Stream size : 47.4 KiB (0%)
Language : Basque
Default : No
Forced : No

Text #20
ID : 22
Format : UTF-8
Codec ID : S_TEXT/UTF8
Codec ID/Info : UTF-8 Plain Text
Duration : 1 h 52 min
Bit rate : 53 b/s
Frame rate : 0.185 FPS
Count of elements : 1245
Stream size : 43.9 KiB (0%)
Language : Finnish
Default : No
Forced : No

Text #21
ID : 23
Format : UTF-8
Codec ID : S_TEXT/UTF8
Codec ID/Info : UTF-8 Plain Text
Duration : 1 h 47 min
Bit rate : 55 b/s
Frame rate : 0.214 FPS
Count of elements : 1387
Stream size : 44.2 KiB (0%)
Language : fil
Default : No
Forced : No

Text #22
ID : 24
Format : UTF-8
Codec ID : S_TEXT/UTF8
Codec ID/Info : UTF-8 Plain Text
Duration : 1 h 52 min
Bit rate : 54 b/s
Frame rate : 0.193 FPS
Count of elements : 1300
Stream size : 45.2 KiB (0%)
Language : French
Default : No
Forced : No

Text #23
ID : 25
Format : UTF-8
Codec ID : S_TEXT/UTF8
Codec ID/Info : UTF-8 Plain Text
Duration : 1 h 52 min
Bit rate : 65 b/s
Frame rate : 0.212 FPS
Count of elements : 1432
Stream size : 53.9 KiB (0%)
Language : French
Default : No
Forced : No

Text #24
ID : 26
Format : UTF-8
Codec ID : S_TEXT/UTF8
Codec ID/Info : UTF-8 Plain Text
Duration : 1 h 52 min
Bit rate : 76 b/s
Frame rate : 0.255 FPS
Count of elements : 1725
Stream size : 63.1 KiB (0%)
Title : SDH
Language : French
Default : No
Forced : No

Text #25
ID : 27
Format : UTF-8
Codec ID : S_TEXT/UTF8
Codec ID/Info : UTF-8 Plain Text
Duration : 1 h 52 min
Bit rate : 53 b/s
Frame rate : 0.211 FPS
Count of elements : 1426
Stream size : 44.3 KiB (0%)
Language : Galician
Default : No
Forced : No

Text #26
ID : 28
Format : UTF-8
Codec ID : S_TEXT/UTF8
Codec ID/Info : UTF-8 Plain Text
Duration : 1 h 52 min
Bit rate : 91 b/s
Frame rate : 0.220 FPS
Count of elements : 1481
Stream size : 74.9 KiB (0%)
Language : Hebrew
Default : No
Forced : No

Text #27
ID : 29
Format : UTF-8
Codec ID : S_TEXT/UTF8
Codec ID/Info : UTF-8 Plain Text
Duration : 1 h 52 min
Bit rate : 50 b/s
Frame rate : 0.203 FPS
Count of elements : 1371
Stream size : 41.9 KiB (0%)
Language : Croatian
Default : No
Forced : No

Text #28
ID : 30
Format : UTF-8
Codec ID : S_TEXT/UTF8
Codec ID/Info : UTF-8 Plain Text
Duration : 1 h 47 min
Bit rate : 69 b/s
Frame rate : 0.240 FPS
Count of elements : 1552
Stream size : 54.5 KiB (0%)
Language : Hungarian
Default : No
Forced : No

Text #29
ID : 31
Format : UTF-8
Codec ID : S_TEXT/UTF8
Codec ID/Info : UTF-8 Plain Text
Duration : 1 h 52 min
Bit rate : 58 b/s
Frame rate : 0.210 FPS
Count of elements : 1417
Stream size : 48.2 KiB (0%)
Language : Hungarian
Default : No
Forced : No

Text #30
ID : 32
Format : UTF-8
Codec ID : S_TEXT/UTF8
Codec ID/Info : UTF-8 Plain Text
Duration : 1 h 47 min
Bit rate : 85 b/s
Frame rate : 0.298 FPS
Count of elements : 1929
Stream size : 67.8 KiB (0%)
Title : SDH
Language : Hungarian
Default : No
Forced : No

Text #31
ID : 33
Format : UTF-8
Codec ID : S_TEXT/UTF8
Codec ID/Info : UTF-8 Plain Text
Duration : 1 h 52 min
Bit rate : 60 b/s
Frame rate : 0.222 FPS
Count of elements : 1498
Stream size : 49.9 KiB (0%)
Language : Indonesian
Default : No
Forced : No

Text #32
ID : 34
Format : UTF-8
Codec ID : S_TEXT/UTF8
Codec ID/Info : UTF-8 Plain Text
Duration : 1 h 52 min
Bit rate : 56 b/s
Frame rate : 0.213 FPS
Count of elements : 1436
Stream size : 46.4 KiB (0%)
Language : Indonesian
Default : No
Forced : No

Text #33
ID : 35
Format : UTF-8
Codec ID : S_TEXT/UTF8
Codec ID/Info : UTF-8 Plain Text
Duration : 1 h 52 min
Bit rate : 76 b/s
Frame rate : 0.289 FPS
Count of elements : 1950
Stream size : 63.2 KiB (0%)
Title : SDH
Language : Indonesian
Default : No
Forced : No

Text #34
ID : 36
Format : UTF-8
Codec ID : S_TEXT/UTF8
Codec ID/Info : UTF-8 Plain Text
Duration : 1 h 52 min
Bit rate : 55 b/s
Frame rate : 0.206 FPS
Count of elements : 1387
Stream size : 46.0 KiB (0%)
Language : Italian
Default : No
Forced : No

Text #35
ID : 37
Format : UTF-8
Codec ID : S_TEXT/UTF8
Codec ID/Info : UTF-8 Plain Text
Duration : 1 h 52 min
Bit rate : 62 b/s
Frame rate : 0.217 FPS
Count of elements : 1464
Stream size : 51.1 KiB (0%)
Language : Italian
Default : No
Forced : No

Text #36
ID : 38
Format : UTF-8
Codec ID : S_TEXT/UTF8
Codec ID/Info : UTF-8 Plain Text
Duration : 1 h 50 min
Bit rate : 74 b/s
Frame rate : 0.268 FPS
Count of elements : 1778
Stream size : 60.4 KiB (0%)
Title : SDH
Language : Italian
Default : No
Forced : No

Text #37
ID : 39
Format : UTF-8
Codec ID : S_TEXT/UTF8
Codec ID/Info : UTF-8 Plain Text
Duration : 1 h 52 min
Bit rate : 59 b/s
Frame rate : 0.214 FPS
Count of elements : 1446
Stream size : 49.0 KiB (0%)
Language : Japanese
Default : No
Forced : No

Text #38
ID : 40
Format : UTF-8
Codec ID : S_TEXT/UTF8
Codec ID/Info : UTF-8 Plain Text
Duration : 1 h 52 min
Bit rate : 77 b/s
Frame rate : 0.215 FPS
Count of elements : 1449
Stream size : 63.7 KiB (0%)
Language : Korean
Default : No
Forced : No

Text #39
ID : 41
Format : UTF-8
Codec ID : S_TEXT/UTF8
Codec ID/Info : UTF-8 Plain Text
Duration : 1 h 52 min
Bit rate : 54 b/s
Frame rate : 0.204 FPS
Count of elements : 1376
Stream size : 44.9 KiB (0%)
Language : Malay
Default : No
Forced : No

Text #40
ID : 42
Format : UTF-8
Codec ID : S_TEXT/UTF8
Codec ID/Info : UTF-8 Plain Text
Duration : 1 h 52 min
Bit rate : 53 b/s
Frame rate : 0.195 FPS
Count of elements : 1312
Stream size : 43.8 KiB (0%)
Language : Norwegian Bokmal
Default : No
Forced : No

Text #41
ID : 43
Format : UTF-8
Codec ID : S_TEXT/UTF8
Codec ID/Info : UTF-8 Plain Text
Duration : 1 h 52 min
Bit rate : 50 b/s
Frame rate : 0.184 FPS
Count of elements : 1241
Stream size : 41.3 KiB (0%)
Language : Dutch
Default : No
Forced : No

Text #42
ID : 44
Format : UTF-8
Codec ID : S_TEXT/UTF8
Codec ID/Info : UTF-8 Plain Text
Duration : 1 h 52 min
Bit rate : 53 b/s
Frame rate : 0.181 FPS
Count of elements : 1222
Stream size : 44.4 KiB (0%)
Language : Polish
Default : No
Forced : No

Text #43
ID : 45
Format : UTF-8
Codec ID : S_TEXT/UTF8
Codec ID/Info : UTF-8 Plain Text
Duration : 1 h 47 min
Bit rate : 68 b/s
Frame rate : 0.243 FPS
Count of elements : 1575
Stream size : 54.2 KiB (0%)
Title : Brazilian
Language : Portuguese
Default : No
Forced : No

Text #44
ID : 46
Format : UTF-8
Codec ID : S_TEXT/UTF8
Codec ID/Info : UTF-8 Plain Text
Duration : 1 h 52 min
Bit rate : 55 b/s
Frame rate : 0.207 FPS
Count of elements : 1394
Stream size : 46.0 KiB (0%)
Title : Brazilian
Language : Portuguese
Default : No
Forced : No

Text #45
ID : 47
Format : UTF-8
Codec ID : S_TEXT/UTF8
Codec ID/Info : UTF-8 Plain Text
Duration : 1 h 52 min
Bit rate : 81 b/s
Frame rate : 0.284 FPS
Count of elements : 1917
Stream size : 66.8 KiB (0%)
Title : Brazilian (SDH)
Language : Portuguese
Default : No
Forced : No

Text #46
ID : 48
Format : UTF-8
Codec ID : S_TEXT/UTF8
Codec ID/Info : UTF-8 Plain Text
Duration : 1 h 52 min
Bit rate : 56 b/s
Frame rate : 0.202 FPS
Count of elements : 1364
Stream size : 46.7 KiB (0%)
Language : Portuguese
Default : No
Forced : No

Text #47
ID : 49
Format : UTF-8
Codec ID : S_TEXT/UTF8
Codec ID/Info : UTF-8 Plain Text
Duration : 1 h 52 min
Bit rate : 61 b/s
Frame rate : 0.194 FPS
Count of elements : 1305
Stream size : 50.3 KiB (0%)
Language : Romanian
Default : No
Forced : No

Text #48
ID : 50
Format : UTF-8
Codec ID : S_TEXT/UTF8
Codec ID/Info : UTF-8 Plain Text
Duration : 1 h 52 min
Bit rate : 91 b/s
Frame rate : 0.210 FPS
Count of elements : 1418
Stream size : 75.0 KiB (0%)
Language : Russian
Default : No
Forced : No

Text #49
ID : 51
Format : UTF-8
Codec ID : S_TEXT/UTF8
Codec ID/Info : UTF-8 Plain Text
Duration : 1 h 52 min
Bit rate : 56 b/s
Frame rate : 0.190 FPS
Count of elements : 1284
Stream size : 46.1 KiB (0%)
Language : Swedish
Default : No
Forced : No

Text #50
ID : 52
Format : UTF-8
Codec ID : S_TEXT/UTF8
Codec ID/Info : UTF-8 Plain Text
Duration : 1 h 52 min
Bit rate : 155 b/s
Frame rate : 0.213 FPS
Count of elements : 1439
Stream size : 128 KiB (0%)
Language : Thai
Default : No
Forced : No

Text #51
ID : 53
Format : UTF-8
Codec ID : S_TEXT/UTF8
Codec ID/Info : UTF-8 Plain Text
Duration : 1 h 47 min
Bit rate : 64 b/s
Frame rate : 0.236 FPS
Count of elements : 1525
Stream size : 51.3 KiB (0%)
Language : Turkish
Default : No
Forced : No

Text #52
ID : 54
Format : UTF-8
Codec ID : S_TEXT/UTF8
Codec ID/Info : UTF-8 Plain Text
Duration : 1 h 52 min
Bit rate : 56 b/s
Frame rate : 0.189 FPS
Count of elements : 1273
Stream size : 46.8 KiB (0%)
Language : Turkish
Default : No
Forced : No

Text #53
ID : 55
Format : UTF-8
Codec ID : S_TEXT/UTF8
Codec ID/Info : UTF-8 Plain Text
Duration : 1 h 52 min
Bit rate : 78 b/s
Frame rate : 0.283 FPS
Count of elements : 1909
Stream size : 64.4 KiB (0%)
Title : SDH
Language : Turkish
Default : No
Forced : No

Text #54
ID : 56
Format : UTF-8
Codec ID : S_TEXT/UTF8
Codec ID/Info : UTF-8 Plain Text
Duration : 1 h 52 min
Bit rate : 90 b/s
Frame rate : 0.214 FPS
Count of elements : 1442
Stream size : 74.8 KiB (0%)
Language : Ukrainian
Default : No
Forced : No

Text #55
ID : 57
Format : UTF-8
Codec ID : S_TEXT/UTF8
Codec ID/Info : UTF-8 Plain Text
Duration : 1 h 52 min
Bit rate : 79 b/s
Frame rate : 0.210 FPS
Count of elements : 1417
Stream size : 65.3 KiB (0%)
Language : Vietnamese
Default : No
Forced : No

Text #56
ID : 58
Format : UTF-8
Codec ID : S_TEXT/UTF8
Codec ID/Info : UTF-8 Plain Text
Duration : 1 h 52 min
Bit rate : 60 b/s
Frame rate : 0.213 FPS
Count of elements : 1439
Stream size : 50.0 KiB (0%)
Title : 简体中字
Language : Chinese

Default : No
Forced : No

Text #57
ID : 59
Format : UTF-8
Codec ID : S_TEXT/UTF8
Codec ID/Info : UTF-8 Plain Text
Duration : 1 h 52 min
Bit rate : 59 b/s
Frame rate : 0.217 FPS
Count of elements : 1464
Stream size : 48.6 KiB (0%)
Title : 繁体中字
Language : Chinese

Default : No
Forced : No

Menu
01:48:27.000 : en:End Credits


推荐使用qBittorrent、uTorrent、BitComet等下载软件,有条件的推荐115或会员软件下载!

下载地址


游客,如果您要查看本帖隐藏内容请回复








上一篇:暴力之夜 / Violent Night (2022) 4K高清版下载
下一篇:致我最深爱的妻子 / For the Love of Jessee (2020) 4K高清版下载
回复

使用道具 举报

0

主题

3

帖子

12

积分

新手上路

Rank: 1

积分
12
发表于 2022-12-31 12:32:40 来自手机 | 显示全部楼层
谢谢楼主楼主吉祥
回复 支持 反对

使用道具 举报

您需要登录后才可以回帖 登录 | 立即注册

本版积分规则

精彩图文
Archiver|手机版|TAG|Sitemap|新帖|专题|联系我们:邮箱: 4kjia.com@gmail.com   

4k家园   ©2019