[4K UHD 蓝光原盘] 哥斯拉大战金刚 [简繁中字]/ Godzilla (2021) 4K蓝光REMUX版本下载

  [复制链接]

主题

帖子

0

积分

超级版主

Rank: 8Rank: 8

积分
0
 楼主| 发表于 2022-12-22 12:11:43 | 显示全部楼层 |阅读模式
哥斯拉大战金刚.png

◎译  名 哥斯拉大战金刚/GvK/King Kong vs. Godzilla/哥吉拉大战金刚(台)/金刚大战哥斯拉
◎片  名 Godzilla vs Kong
◎年  代 2021
◎产  地 美国,澳大利亚,加拿大,印度
◎类  别 动作 / 科幻 / 冒险
◎语  言 英语,美国手语
◎上映日期 2021-03-24(中国台湾) / 2021-03-26(中国大陆) / 2021-03-31(美国)
◎iMDB评分  6.3/10 from 210011 users 更新 : 2022-12-19
◎iMDB链接  https://www.imdb.com/title/tt5034838/
◎豆瓣评分 6.3/10 from 284232 users 更新 : 2022-12-22
◎豆瓣链接 https://movie.douban.com/subject/26613692/
◎片  长 113分钟
◎导  演 亚当·温加德 Adam Wingard
◎编  剧 特里·鲁西奥 Terry Rossio / 埃里克·皮尔森 Eric Pearson / 麦克思·鲍伦斯坦 Max Borenstein / 迈克尔·道赫蒂 Michael Dougherty / 扎克·希尔兹 Zach Shields
◎主  演 亚历山大·斯卡斯加德 Alexander Skarsg?rd
       米莉·波比·布朗 Millie Bobby Brown
       丽贝卡·豪尔 Rebecca Hall
       凯莉·霍特尔 Kaylee Hottle
       布莱恩·泰里·亨利 Brian Tyree Henry
       小栗旬 Shun Oguri
       艾莎·冈萨雷斯 Eiza González
       朱利安·迪尼森 Julian Dennison
       兰斯·莱迪克 Lance Reddick
       凯尔·钱德勒 Kyle Chandler
       德米安·比齐尔 Demián Bichir
       哈基姆·凯-卡西姆 Hakeem Kae-Kazim
       钱信伊 Ronny Chieng
       约翰·皮鲁切洛 John Pirruccello
       克里斯·乔克 Chris Chalk
       康兰·卡萨尔 Conlan Casal
       布拉德·麦克默里 Brad McMurray
       本杰明·里格比 Benjamin Rigby
       普里西拉·道伊西 Priscilla Doueihy
       戴维·卡斯蒂洛 David Castillo
       吉姆·帕尔默 Jim Palmer
       柯蒂斯·布什 Curtis Bush
       皮拉·福德 Piéra Forde
       爱丽丝·兰斯伯里 Alice Lanesbury
       肖恩·麦克布莱德 Shawn McBride
       乔尔·皮尔斯 Joel Pierce
       乔恩·奎斯蒂德 Jon Quested
       塔斯尼姆·罗克 Tasneem Roc
       艾梅伯·瓦尔斯 Amber Walls
       迪索·拉莫斯 Diezel Ramos
       田中圭 Kei Tanaka
       渡边谦 Ken Watanabe


◎简  介

  这两位宛如神衹一般强大的对手于一场壮观的战争中相遇,彼时世界命运正悬于一线。为了找到真正的家园,金刚与他的保护者们踏上了一次艰难的旅程。与他们一道前行的还有一个年轻的孤儿女孩——吉雅,这个女孩与金刚之间存在着一种独特而强大的紧密联系。但意想不到的是,他们在前行的航道上与愤怒的哥斯拉狭路相逢,也由此在全球引起了一系列破坏。一股无形的力量造成了这两只巨兽之间的巨大冲突,深藏在地心深处的奥秘也由此揭开。
Video
ID : 1
ID in the original source medium : 4113 (0x1011)
Format : HEVC
Format/Info : High Efficiency Video Coding
Format profile : Main 10@L5.1@High
HDR format : Dolby Vision, Version 1.0, dvhe.07.06, BL+EL+RPU, Blu-ray compatible / SMPTE ST 2094 App 4, Version 1, HDR10+ Profile B compatible
Codec ID : V_MPEGH/ISO/HEVC
Duration : 1 h 53 min
Bit rate : 51.9 Mb/s
Width : 3 840 pixels
Height : 2 160 pixels
Display aspect ratio : 16:9
Frame rate mode : Constant
Frame rate : 23.976 (24000/1001) FPS
Color space : YUV
Chroma subsampling : 4:2:0 (Type 2)
Bit depth : 10 bits
Bits/(Pixel*Frame) : 0.261
Stream size : 41.0 GiB (77%)
Language : English
Default : No
Forced : No
Color range : Limited
Color primaries : BT.2020
Transfer characteristics : PQ
Matrix coefficients : BT.2020 non-constant
Mastering display color primaries : Display P3
Mastering display luminance : min: 0.0001 cd/m2, max: 1000 cd/m2
Maximum Content Light Level : 598 cd/m2
Maximum Frame-Average Light Level : 273 cd/m2
Original source medium : Blu-ray

Audio #1
ID : 2
ID in the original source medium : 4352 (0x1100)
Format : MLP FBA 16-ch
Format/Info : Meridian Lossless Packing FBA with 16-channel presentation
Commercial name : Dolby TrueHD with Dolby Atmos
Codec ID : A_TRUEHD
Duration : 1 h 53 min
Bit rate mode : Variable
Bit rate : 3 455 kb/s
Maximum bit rate : 5 742 kb/s
Channel(s) : 8 channels
Channel layout : L R C LFE Ls Rs Lb Rb
Sampling rate : 48.0 kHz
Frame rate : 1 200.000 FPS (40 SPF)
Bit depth : 24 bits
Compression mode : Lossless
Stream size : 2.73 GiB (5%)
Title : TrueHD 7.1 Atmos
Language : English
Default : Yes
Forced : No
Original source medium : Blu-ray
Number of dynamic objects : 11
Bed channel count : 1 channel
Bed channel configuration : LFE

Audio #2
ID : 3
Format : DTS XLL
Format/Info : Digital Theater Systems
Commercial name : DTS-HD Master Audio
Codec ID : A_DTS
Duration : 1 h 53 min
Bit rate mode : Variable
Bit rate : 3 810 kb/s
Channel(s) : 8 channels
Channel layout : C L R LFE Lb Rb Lss Rss
Sampling rate : 48.0 kHz
Frame rate : 93.750 FPS (512 SPF)
Bit depth : 24 bits
Compression mode : Lossless
Stream size : 3.01 GiB (6%)
Title : DTS-HD MA 7.1
Language : English
Default : No
Forced : No

Audio #3
ID : 4
ID in the original source medium : 4352 (0x1100)
Format : AC-3
Format/Info : Audio Coding 3
Commercial name : Dolby Digital
Format settings : Dolby Surround EX
Codec ID : A_AC3
Duration : 1 h 53 min
Bit rate mode : Constant
Bit rate : 448 kb/s
Channel(s) : 6 channels
Channel layout : L R C LFE Ls Rs
Sampling rate : 48.0 kHz
Frame rate : 31.250 FPS (1536 SPF)
Compression mode : Lossy
Stream size : 363 MiB (1%)
Title : DD 5.1
Language : English
Service kind : Complete Main
Default : No
Forced : No
Original source medium : Blu-ray

Audio #4
ID : 5
ID in the original source medium : 4353 (0x1101)
Format : AC-3
Format/Info : Audio Coding 3
Commercial name : Dolby Digital
Codec ID : A_AC3
Duration : 1 h 53 min
Bit rate mode : Constant
Bit rate : 640 kb/s
Channel(s) : 6 channels
Channel layout : L R C LFE Ls Rs
Sampling rate : 48.0 kHz
Frame rate : 31.250 FPS (1536 SPF)
Compression mode : Lossy
Stream size : 518 MiB (1%)
Title : DD 5.1
Language : English
Service kind : Complete Main
Default : No
Forced : No
Original source medium : Blu-ray

Audio #5
ID : 6
ID in the original source medium : 4354 (0x1102)
Format : AC-3
Format/Info : Audio Coding 3
Commercial name : Dolby Digital
Codec ID : A_AC3
Duration : 1 h 53 min
Bit rate mode : Constant
Bit rate : 640 kb/s
Channel(s) : 6 channels
Channel layout : L R C LFE Ls Rs
Sampling rate : 48.0 kHz
Frame rate : 31.250 FPS (1536 SPF)
Compression mode : Lossy
Stream size : 518 MiB (1%)
Title : DD 5.1
Language : English
Service kind : Complete Main
Default : No
Forced : No
Original source medium : Blu-ray

Audio #6
ID : 7
ID in the original source medium : 4355 (0x1103)
Format : AC-3
Format/Info : Audio Coding 3
Commercial name : Dolby Digital
Codec ID : A_AC3
Duration : 1 h 53 min
Bit rate mode : Constant
Bit rate : 640 kb/s
Channel(s) : 6 channels
Channel layout : L R C LFE Ls Rs
Sampling rate : 48.0 kHz
Frame rate : 31.250 FPS (1536 SPF)
Compression mode : Lossy
Stream size : 518 MiB (1%)
Title : DD 5.1
Language : French
Service kind : Complete Main
Default : No
Forced : No
Original source medium : Blu-ray

Audio #7
ID : 8
ID in the original source medium : 4356 (0x1104)
Format : MLP FBA 16-ch
Format/Info : Meridian Lossless Packing FBA with 16-channel presentation
Commercial name : Dolby TrueHD with Dolby Atmos
Codec ID : A_TRUEHD
Duration : 1 h 53 min
Bit rate mode : Variable
Bit rate : 3 481 kb/s
Maximum bit rate : 5 484 kb/s
Channel(s) : 8 channels
Channel layout : L R C LFE Ls Rs Lb Rb
Sampling rate : 48.0 kHz
Frame rate : 1 200.000 FPS (40 SPF)
Bit depth : 24 bits
Compression mode : Lossless
Stream size : 2.75 GiB (5%)
Title : TrueHD 7.1 Atmos
Language : Italian
Default : No
Forced : No
Original source medium : Blu-ray
Number of dynamic objects : 11
Bed channel count : 1 channel
Bed channel configuration : LFE

Audio #8
ID : 9
ID in the original source medium : 4356 (0x1104)
Format : AC-3
Format/Info : Audio Coding 3
Commercial name : Dolby Digital
Format settings : Dolby Surround EX
Codec ID : A_AC3
Duration : 1 h 53 min
Bit rate mode : Constant
Bit rate : 448 kb/s
Channel(s) : 6 channels
Channel layout : L R C LFE Ls Rs
Sampling rate : 48.0 kHz
Frame rate : 31.250 FPS (1536 SPF)
Compression mode : Lossy
Stream size : 363 MiB (1%)
Title : DD 5.1
Language : Italian
Service kind : Complete Main
Default : No
Forced : No
Original source medium : Blu-ray

Audio #9
ID : 10
ID in the original source medium : 4357 (0x1105)
Format : AC-3
Format/Info : Audio Coding 3
Commercial name : Dolby Digital
Codec ID : A_AC3
Duration : 1 h 53 min
Bit rate mode : Constant
Bit rate : 640 kb/s
Channel(s) : 6 channels
Channel layout : L R C LFE Ls Rs
Sampling rate : 48.0 kHz
Frame rate : 31.250 FPS (1536 SPF)
Compression mode : Lossy
Stream size : 518 MiB (1%)
Title : DD 5.1
Language : Italian
Service kind : Complete Main
Default : No
Forced : No
Original source medium : Blu-ray

Audio #10
ID : 11
ID in the original source medium : 4358 (0x1106)
Format : AC-3
Format/Info : Audio Coding 3
Commercial name : Dolby Digital
Codec ID : A_AC3
Duration : 1 h 53 min
Bit rate mode : Constant
Bit rate : 640 kb/s
Channel(s) : 6 channels
Channel layout : L R C LFE Ls Rs
Sampling rate : 48.0 kHz
Frame rate : 31.250 FPS (1536 SPF)
Compression mode : Lossy
Stream size : 518 MiB (1%)
Title : DD 5.1
Language : Spanish
Service kind : Complete Main
Default : No
Forced : No
Original source medium : Blu-ray

Audio #11
ID : 12
ID in the original source medium : 4359 (0x1107)
Format : AC-3
Format/Info : Audio Coding 3
Commercial name : Dolby Digital
Format settings : Dolby Surround
Codec ID : A_AC3
Duration : 1 h 53 min
Bit rate mode : Constant
Bit rate : 192 kb/s
Channel(s) : 2 channels
Channel layout : L R
Sampling rate : 48.0 kHz
Frame rate : 31.250 FPS (1536 SPF)
Compression mode : Lossy
Stream size : 155 MiB (0%)
Title : DD 2.0
Language : English
Service kind : Complete Main
Default : No
Forced : No
Original source medium : Blu-ray

Text #1
ID : 13
Format : UTF-8
Codec ID : S_TEXT/UTF8
Codec ID/Info : UTF-8 Plain Text
Duration : 1 h 45 min
Bit rate : 37 b/s
Frame rate : 0.145 FPS
Count of elements : 917
Stream size : 28.8 KiB (0%)
Language : English
Default : Yes
Forced : No

Text #2
ID : 14
Format : UTF-8
Codec ID : S_TEXT/UTF8
Codec ID/Info : UTF-8 Plain Text
Duration : 1 h 45 min
Bit rate : 48 b/s
Frame rate : 0.212 FPS
Count of elements : 1345
Stream size : 37.9 KiB (0%)
Title : SDH
Language : English
Default : No
Forced : No

Text #3
ID : 15
ID in the original source medium : 4768 (0x12A0)
Format : PGS
Muxing mode : zlib
Codec ID : S_HDMV/PGS
Codec ID/Info : Picture based subtitle format used on BDs/HD-DVDs
Duration : 1 h 45 min
Bit rate : 31.2 kb/s
Frame rate : 0.426 FPS
Count of elements : 2706
Stream size : 23.6 MiB (0%)
Language : English
Default : No
Forced : No
Original source medium : Blu-ray

Text #4
ID : 16
ID in the original source medium : 4769 (0x12A1)
Format : PGS
Muxing mode : zlib
Codec ID : S_HDMV/PGS
Codec ID/Info : Picture based subtitle format used on BDs/HD-DVDs
Duration : 1 h 52 min
Bit rate : 18.4 kb/s
Frame rate : 0.272 FPS
Count of elements : 1836
Stream size : 14.7 MiB (0%)
Language : French
Default : No
Forced : No
Original source medium : Blu-ray

Text #5
ID : 17
ID in the original source medium : 4770 (0x12A2)
Format : PGS
Muxing mode : zlib
Codec ID : S_HDMV/PGS
Codec ID/Info : Picture based subtitle format used on BDs/HD-DVDs
Duration : 1 h 45 min
Bit rate : 31.6 kb/s
Frame rate : 0.451 FPS
Count of elements : 2866
Stream size : 23.9 MiB (0%)
Language : Italian
Default : No
Forced : No
Original source medium : Blu-ray

Text #6
ID : 18
ID in the original source medium : 4771 (0x12A3)
Format : PGS
Muxing mode : zlib
Codec ID : S_HDMV/PGS
Codec ID/Info : Picture based subtitle format used on BDs/HD-DVDs
Duration : 1 h 44 min
Bit rate : 23.1 kb/s
Frame rate : 0.278 FPS
Count of elements : 1740
Stream size : 17.3 MiB (0%)
Language : 简体
Default : No
Forced : No
Original source medium : Blu-ray

Text #7
ID : 19
ID in the original source medium : 4772 (0x12A4)
Format : PGS
Muxing mode : zlib
Codec ID : S_HDMV/PGS
Codec ID/Info : Picture based subtitle format used on BDs/HD-DVDs
Duration : 1 h 52 min
Bit rate : 19.0 kb/s
Frame rate : 0.266 FPS
Count of elements : 1794
Stream size : 15.2 MiB (0%)
Language : 繁体
Default : No
Forced : No
Original source medium : Blu-ray

Text #8
ID : 20
ID in the original source medium : 4773 (0x12A5)
Format : PGS
Muxing mode : zlib
Codec ID : S_HDMV/PGS
Codec ID/Info : Picture based subtitle format used on BDs/HD-DVDs
Duration : 1 h 44 min
Bit rate : 13.9 kb/s
Frame rate : 0.279 FPS
Count of elements : 1746
Stream size : 10.4 MiB (0%)
Language : Korean
Default : No
Forced : No
Original source medium : Blu-ray

Text #9
ID : 21
ID in the original source medium : 4774 (0x12A6)
Format : PGS
Muxing mode : zlib
Codec ID : S_HDMV/PGS
Codec ID/Info : Picture based subtitle format used on BDs/HD-DVDs
Duration : 1 h 52 min
Bit rate : 22.5 kb/s
Frame rate : 0.262 FPS
Count of elements : 1764
Stream size : 18.1 MiB (0%)
Language : Spanish
Default : No
Forced : No
Original source medium : Blu-ray

Text #10
ID : 22
ID in the original source medium : 4775 (0x12A7)
Format : PGS
Muxing mode : zlib
Codec ID : S_HDMV/PGS
Codec ID/Info : Picture based subtitle format used on BDs/HD-DVDs
Duration : 1 h 52 min
Bit rate : 18.1 kb/s
Frame rate : 0.192 FPS
Count of elements : 1296
Stream size : 14.5 MiB (0%)
Language : Danish
Default : No
Forced : No
Original source medium : Blu-ray

Text #11
ID : 23
ID in the original source medium : 4776 (0x12A8)
Format : PGS
Muxing mode : zlib
Codec ID : S_HDMV/PGS
Codec ID/Info : Picture based subtitle format used on BDs/HD-DVDs
Duration : 1 h 52 min
Bit rate : 20.9 kb/s
Frame rate : 0.270 FPS
Count of elements : 1820
Stream size : 16.8 MiB (0%)
Language : Finnish
Default : No
Forced : No
Original source medium : Blu-ray

Text #12
ID : 24
ID in the original source medium : 4777 (0x12A9)
Format : PGS
Muxing mode : zlib
Codec ID : S_HDMV/PGS
Codec ID/Info : Picture based subtitle format used on BDs/HD-DVDs
Duration : 1 h 52 min
Bit rate : 19.3 kb/s
Frame rate : 0.225 FPS
Count of elements : 1518
Stream size : 15.5 MiB (0%)
Language : Norwegian
Default : No
Forced : No
Original source medium : Blu-ray

Text #13
ID : 25
ID in the original source medium : 4778 (0x12AA)
Format : PGS
Muxing mode : zlib
Codec ID : S_HDMV/PGS
Codec ID/Info : Picture based subtitle format used on BDs/HD-DVDs
Duration : 1 h 52 min
Bit rate : 18.3 kb/s
Frame rate : 0.208 FPS
Count of elements : 1400
Stream size : 14.7 MiB (0%)
Language : Swedish
Default : No
Forced : No
Original source medium : Blu-ray

Text #14
ID : 26
ID in the original source medium : 4779 (0x12AB)
Format : PGS
Muxing mode : zlib
Codec ID : S_HDMV/PGS
Codec ID/Info : Picture based subtitle format used on BDs/HD-DVDs
Duration : 1 h 44 min
Bit rate : 1 388 b/s
Frame rate : 0.025 FPS
Count of elements : 154
Stream size : 1.04 MiB (0%)
Language : French
Default : No
Forced : No
Original source medium : Blu-ray

Text #15
ID : 27
ID in the original source medium : 4780 (0x12AC)
Format : PGS
Muxing mode : zlib
Codec ID : S_HDMV/PGS
Codec ID/Info : Picture based subtitle format used on BDs/HD-DVDs
Duration : 1 h 44 min
Bit rate : 1 590 b/s
Frame rate : 0.029 FPS
Count of elements : 184
Stream size : 1.19 MiB (0%)
Language : Italian
Default : No
Forced : No
Original source medium : Blu-ray

Text #16
ID : 28
ID in the original source medium : 4781 (0x12AD)
Format : PGS
Muxing mode : zlib
Codec ID : S_HDMV/PGS
Codec ID/Info : Picture based subtitle format used on BDs/HD-DVDs
Duration : 1 h 41 min
Bit rate : 665 b/s
Frame rate : 0.016 FPS
Count of elements : 98
Stream size : 494 KiB (0%)
Language : Spanish
Default : No
Forced : No
Original source medium : Blu-ray

关于下载问题:推荐使用qBittorrent、uTorrent等下载软件,有条件的推荐115更好的下载软件!

哥斯拉大战金刚(53.07GB)Godzilla.vs.Kong.2021.PROPER.2160p.BluRay.REMUX.HEVC.DTS-HD.MA.TrueHD.7.1.Atmos-FGT-【2160P蓝光REMUX】
游客,如果您要查看本帖隐藏内容请回复



4KQQ海报.gif

上一篇:哥斯拉2:怪兽之王 / Godzilla 2 (2019) 4K蓝光REMUX版本下载
下一篇:金刚 / King Kong (2005) 4K蓝光REMUX版本下载
回复

使用道具 举报

0

主题

11

帖子

29

积分

新手上路

Rank: 1

积分
29
发表于 2022-12-22 13:25:50 | 显示全部楼层
xxxxxxxxww
回复 支持 反对

使用道具 举报

0

主题

2

帖子

9

积分

新手上路

Rank: 1

积分
9
发表于 2022-12-23 10:06:40 | 显示全部楼层
你好
回复

使用道具 举报

0

主题

10

帖子

23

积分

新手上路

Rank: 1

积分
23
发表于 2022-12-24 09:33:30 | 显示全部楼层
真好真好
回复

使用道具 举报

0

主题

1

帖子

6

积分

新手上路

Rank: 1

积分
6
发表于 2022-12-24 13:50:39 来自手机 | 显示全部楼层
真好
回复

使用道具 举报

0

主题

1

帖子

6

积分

新手上路

Rank: 1

积分
6
发表于 2022-12-25 22:46:17 来自手机 | 显示全部楼层
好资源  要下载
回复 支持 反对

使用道具 举报

0

主题

1

帖子

12

积分

新手上路

Rank: 1

积分
12
发表于 2022-12-27 18:16:52 来自手机 | 显示全部楼层
真好
回复

使用道具 举报

0

主题

2

帖子

9

积分

新手上路

Rank: 1

积分
9
发表于 2022-12-27 19:47:51 | 显示全部楼层
真好,能不能下载
回复 支持 反对

使用道具 举报

0

主题

20

帖子

99

积分

4K家园VIP

Rank: 9Rank: 9Rank: 9

积分
99
发表于 2023-1-20 15:25:47 | 显示全部楼层
谢楼主分享!!!!
回复 支持 反对

使用道具 举报

主题

帖子

0

积分

新手上路

Rank: 1

积分
0
发表于 2023-1-24 17:49:19 | 显示全部楼层
11111111111
回复 支持 反对

使用道具 举报

您需要登录后才可以回帖 登录 | 立即注册

本版积分规则

精彩图文
Archiver|手机版|TAG|Sitemap|新帖|专题|联系我们:邮箱: 4kjia.com@gmail.com   

4k家园   ©2019