[4K UHD 蓝光原盘] 头号玩家 [简繁中字] / Ready Player One (2018) 4K蓝光REMUX版本下载

[复制链接]

主题

帖子

0

积分

超级版主

Rank: 8Rank: 8

积分
0
 楼主| 发表于 2022-12-22 12:56:49 | 显示全部楼层 |阅读模式
头号玩家.png

◎标  题 头号玩家
◎译  名 玩家一号 / 挑战者1号(港) / 一级玩家(台) / 一号玩家
◎片  名 Ready Player One
◎年  代 2018
◎产  地 美国
◎类  别 动作 / 科幻 / 冒险
◎语  言 英语 / 日语 / 汉语普通话
◎上映日期 2018-03-30(中国大陆) / 2018-03-11(西南偏南电影节) / 2018-03-29(美国)
◎IMDb评分 7.4/10 from 437587 users 更新 : 2022-12-19
◎IMDb链接 https://www.imdb.com/title/tt1677720/
◎豆瓣评分 8.7/10 from 1191445 users 更新 : 2022-12-19
◎豆瓣链接 https://movie.douban.com/subject/4920389/
◎片  长 140分钟
◎导  演 史蒂文·斯皮尔伯格 Steven Spielberg
◎编  剧 扎克·佩恩 Zak Penn / 恩斯特·克莱恩 Ernest Cline / 埃里克·伊森 Eric Eason
◎演  员 泰伊·谢里丹 Tye Sheridan
       奥利维亚·库克 Olivia Cooke
       本·门德尔森 Ben Mendelsohn
       马克·里朗斯 Mark Rylance
       丽娜·维特 Lena Waithe
       森崎温 Win Morisaki
       赵家正 Philip Zhao
       西蒙·佩吉 Simon Pegg
       T·J·米勒 T.J. Miller
       汉娜·乔恩-卡门 Hannah John-Kamen
       拉尔夫·伊内森 Ralph Ineson
       苏珊·林奇 Susan Lynch
       克莱尔·希金斯 Clare Higgins
       劳伦斯·斯佩尔曼 Laurence Spellman
       佩蒂塔·维克斯 Perdita Weeks
       艾萨克·安德鲁斯 Isaac Andrews
       基特·康纳 Kit Connor
       杰登·福拉-奈特 Jayden Fowora-Knight
       罗娜·莫里森 Rona Morison
       丹尼尔·祖尔格哈德利 Daniel Zolghadri
       阿隆索·阿尔瓦雷斯 Alonso Alvarez
       阿玛尼·杰克森 Armani Jackson
       露露·威尔逊 Lulu Wilson
       内特·莫汗 Neet Mohan
       朱莉娅·尼克森 Julia Nickson
       利蒂希娅·赖特 Letitia Wright
       雅各布·贝特兰德 Jacob Bertrand
       埃里克·西格蒙德森 Eric Sigmundsson
       罗伯特·吉尔贝托 Robert Gilbert
       迈克尔·怀德曼 Michael Wildman
       图尔洛夫·科维里 Turlough Convery
       麦肯娜·格瑞丝 Mckenna Grace
       程武 Wu Cheng
       史蒂文·斯皮尔伯格 Steven Spielberg
       亚伦·史维斯查 Alan Silvestri
       雅努什·卡明斯基 Janusz Kaminski
       迈克尔·卡恩 Michael Kahn
       亚当·斯托克豪森 Adam Stockhausen
       弗格斯·克莱格 Fergus Clegg
       罗杰·盖耶特 Roger Guyett
       大卫·谢克 David Shirk
       马修·E·巴特勒 Matthew E. Butler
       特里·马里奥特 Terry Marriott
       格拉迪·科菲 Grady Cofer


◎简  介


  故事发生在2045年,虚拟现实技术已经渗透到了人类生活的每一个角落。詹姆斯哈利迪(马克·里朗斯 Mark Rylance 饰)一手建造了名为“绿洲”的虚拟现实游戏世界,临终前,他宣布自己在游戏中设置了一个彩蛋,找到这枚彩蛋的人即可成为绿洲的继承人。要找到这枚彩蛋,必须先获得三把钥匙,而寻找钥匙的线索就隐藏在詹姆斯的过往之中。韦德(泰尔·谢里丹 Tye Sheridan 饰)、艾奇(丽娜·维特 Lena Waithe 饰)、大东(森崎温 饰)和修(赵家正 饰)是游戏中的好友,和之后遇见的阿尔忒弥斯(奥利维亚·库克 Olivia Cooke 饰)一起,五人踏上了寻找彩蛋的征程。他们所要对抗的,是名为诺兰索伦托(本·门德尔森 Ben Mendelsohn 饰)的大资本家。
Video
ID : 1
ID in the original source medium : 4113 (0x1011)
Format : HEVC
Format/Info : High Efficiency Video Coding
Format profile : Main 10@L5.1@High
HDR format : Dolby Vision, Version 1.0, dvhe.07.06, BL+EL+RPU, Blu-ray compatible / SMPTE ST 2086, HDR10 compatible
Codec ID : V_MPEGH/ISO/HEVC
Duration : 2 h 19 min
Bit rate : 63.0 Mb/s
Width : 3 840 pixels
Height : 2 160 pixels
Display aspect ratio : 16:9
Frame rate mode : Constant
Frame rate : 23.976 (24000/1001) FPS
Color space : YUV
Chroma subsampling : 4:2:0 (Type 2)
Bit depth : 10 bits
Bits/(Pixel*Frame) : 0.317
Stream size : 61.6 GiB (81%)
Language : English
Default : No
Forced : No
Color range : Limited
Color primaries : BT.2020
Transfer characteristics : PQ
Matrix coefficients : BT.2020 non-constant
Mastering display color primaries : BT.2020
Mastering display luminance : min: 0.0050 cd/m2, max: 4000 cd/m2
Maximum Content Light Level : 725 cd/m2
Maximum Frame-Average Light Level : 162 cd/m2
Original source medium : Blu-ray

Audio #1
ID : 2
ID in the original source medium : 4352 (0x1100)
Format : MLP FBA 16-ch
Format/Info : Meridian Lossless Packing FBA with 16-channel presentation
Commercial name : Dolby TrueHD with Dolby Atmos
Codec ID : A_TRUEHD
Duration : 2 h 19 min
Bit rate mode : Variable
Bit rate : 3 218 kb/s
Maximum bit rate : 5 004 kb/s
Channel(s) : 8 channels
Channel layout : L R C LFE Ls Rs Lb Rb
Sampling rate : 48.0 kHz
Frame rate : 1 200.000 FPS (40 SPF)
Bit depth : 24 bits
Compression mode : Lossless
Stream size : 3.15 GiB (4%)
Title : TrueHD 7.1 Atmos
Language : English
Default : Yes
Forced : No
Original source medium : Blu-ray
Number of dynamic objects : 11
Bed channel count : 1 channel
Bed channel configuration : LFE

Audio #2
ID : 3
Format : DTS XLL
Format/Info : Digital Theater Systems
Commercial name : DTS-HD Master Audio
Codec ID : A_DTS
Duration : 2 h 19 min
Bit rate mode : Variable
Bit rate : 4 184 kb/s
Channel(s) : 8 channels
Channel layout : C L R LFE Lb Rb Lss Rss
Sampling rate : 48.0 kHz
Frame rate : 93.750 FPS (512 SPF)
Bit depth : 24 bits
Compression mode : Lossless
Stream size : 4.09 GiB (5%)
Title : DTS-HD MA 7.1
Language : English
Default : No
Forced : No

Audio #3
ID : 4
ID in the original source medium : 4352 (0x1100)
Format : AC-3
Format/Info : Audio Coding 3
Commercial name : Dolby Digital
Format settings : Dolby Surround EX
Codec ID : A_AC3
Duration : 2 h 19 min
Bit rate mode : Constant
Bit rate : 448 kb/s
Channel(s) : 6 channels
Channel layout : L R C LFE Ls Rs
Sampling rate : 48.0 kHz
Frame rate : 31.250 FPS (1536 SPF)
Compression mode : Lossy
Stream size : 448 MiB (1%)
Title : DD 5.1
Language : English
Service kind : Complete Main
Default : No
Forced : No
Original source medium : Blu-ray

Audio #4
ID : 5
ID in the original source medium : 4354 (0x1102)
Format : AC-3
Format/Info : Audio Coding 3
Commercial name : Dolby Digital
Codec ID : A_AC3
Duration : 2 h 19 min
Bit rate mode : Constant
Bit rate : 384 kb/s
Channel(s) : 6 channels
Channel layout : L R C LFE Ls Rs
Sampling rate : 48.0 kHz
Frame rate : 31.250 FPS (1536 SPF)
Compression mode : Lossy
Stream size : 384 MiB (0%)
Title : DD 5.1
Language : English
Service kind : Complete Main
Default : No
Forced : No
Original source medium : Blu-ray

Audio #5
ID : 6
ID in the original source medium : 4355 (0x1103)
Format : AC-3
Format/Info : Audio Coding 3
Commercial name : Dolby Digital
Codec ID : A_AC3
Duration : 2 h 19 min
Bit rate mode : Constant
Bit rate : 384 kb/s
Channel(s) : 6 channels
Channel layout : L R C LFE Ls Rs
Sampling rate : 48.0 kHz
Frame rate : 31.250 FPS (1536 SPF)
Compression mode : Lossy
Stream size : 384 MiB (0%)
Title : DD 5.1
Language : French
Service kind : Complete Main
Default : No
Forced : No
Original source medium : Blu-ray

Audio #6
ID : 7
ID in the original source medium : 4356 (0x1104)
Format : DTS XLL
Format/Info : Digital Theater Systems
Commercial name : DTS-HD Master Audio
Codec ID : A_DTS
Duration : 2 h 19 min
Bit rate mode : Variable
Bit rate : 2 303 kb/s
Channel(s) : 6 channels
Channel layout : C L R Ls Rs LFE
Sampling rate : 48.0 kHz
Frame rate : 93.750 FPS (512 SPF)
Bit depth : 16 bits
Compression mode : Lossless
Stream size : 2.25 GiB (3%)
Title : DTS-HD MA 5.1
Language : Italian
Default : No
Forced : No
Original source medium : Blu-ray

Audio #7
ID : 8
ID in the original source medium : 4357 (0x1105)
Format : AC-3
Format/Info : Audio Coding 3
Commercial name : Dolby Digital
Codec ID : A_AC3
Duration : 2 h 19 min
Bit rate mode : Constant
Bit rate : 384 kb/s
Channel(s) : 6 channels
Channel layout : L R C LFE Ls Rs
Sampling rate : 48.0 kHz
Frame rate : 31.250 FPS (1536 SPF)
Compression mode : Lossy
Stream size : 384 MiB (0%)
Title : DD 5.1
Language : Spanish
Service kind : Complete Main
Default : No
Forced : No
Original source medium : Blu-ray

Audio #8
ID : 9
ID in the original source medium : 4358 (0x1106)
Format : AC-3
Format/Info : Audio Coding 3
Commercial name : Dolby Digital
Codec ID : A_AC3
Duration : 2 h 19 min
Bit rate mode : Constant
Bit rate : 384 kb/s
Channel(s) : 6 channels
Channel layout : L R C LFE Ls Rs
Sampling rate : 48.0 kHz
Frame rate : 31.250 FPS (1536 SPF)
Compression mode : Lossy
Stream size : 384 MiB (0%)
Title : DD 5.1
Language : Portuguese
Service kind : Complete Main
Default : No
Forced : No
Original source medium : Blu-ray

Audio #9
ID : 10
ID in the original source medium : 4359 (0x1107)
Format : AC-3
Format/Info : Audio Coding 3
Commercial name : Dolby Digital
Codec ID : A_AC3
Duration : 2 h 19 min
Bit rate mode : Constant
Bit rate : 384 kb/s
Channel(s) : 6 channels
Channel layout : L R C LFE Ls Rs
Sampling rate : 48.0 kHz
Frame rate : 31.250 FPS (1536 SPF)
Compression mode : Lossy
Stream size : 384 MiB (0%)
Title : DD 5.1
Language : Czech
Service kind : Complete Main
Default : No
Forced : No
Original source medium : Blu-ray

Audio #10
ID : 11
ID in the original source medium : 4360 (0x1108)
Format : AC-3
Format/Info : Audio Coding 3
Commercial name : Dolby Digital
Codec ID : A_AC3
Duration : 2 h 19 min
Bit rate mode : Constant
Bit rate : 384 kb/s
Channel(s) : 6 channels
Channel layout : L R C LFE Ls Rs
Sampling rate : 48.0 kHz
Frame rate : 31.250 FPS (1536 SPF)
Compression mode : Lossy
Stream size : 384 MiB (0%)
Title : DD 5.1
Language : Hungarian
Service kind : Complete Main
Default : No
Forced : No
Original source medium : Blu-ray

Audio #11
ID : 12
ID in the original source medium : 4361 (0x1109)
Format : AC-3
Format/Info : Audio Coding 3
Commercial name : Dolby Digital
Codec ID : A_AC3
Duration : 2 h 19 min
Bit rate mode : Constant
Bit rate : 384 kb/s
Channel(s) : 6 channels
Channel layout : L R C LFE Ls Rs
Sampling rate : 48.0 kHz
Frame rate : 31.250 FPS (1536 SPF)
Compression mode : Lossy
Stream size : 384 MiB (0%)
Title : DD 5.1
Language : Polish
Service kind : Complete Main
Default : No
Forced : No
Original source medium : Blu-ray

Audio #12
ID : 13
ID in the original source medium : 4362 (0x110A)
Format : AC-3
Format/Info : Audio Coding 3
Commercial name : Dolby Digital
Codec ID : A_AC3
Duration : 2 h 19 min
Bit rate mode : Constant
Bit rate : 384 kb/s
Channel(s) : 6 channels
Channel layout : L R C LFE Ls Rs
Sampling rate : 48.0 kHz
Frame rate : 31.250 FPS (1536 SPF)
Compression mode : Lossy
Stream size : 384 MiB (0%)
Title : DD 5.1
Language : Polish
Service kind : Complete Main
Default : No
Forced : No
Original source medium : Blu-ray

Audio #13
ID : 14
ID in the original source medium : 4363 (0x110B)
Format : AC-3
Format/Info : Audio Coding 3
Commercial name : Dolby Digital
Codec ID : A_AC3
Duration : 2 h 19 min
Bit rate mode : Constant
Bit rate : 384 kb/s
Channel(s) : 6 channels
Channel layout : L R C LFE Ls Rs
Sampling rate : 48.0 kHz
Frame rate : 31.250 FPS (1536 SPF)
Compression mode : Lossy
Stream size : 384 MiB (0%)
Title : DD 5.1
Language : Russian
Service kind : Complete Main
Default : No
Forced : No
Original source medium : Blu-ray

Audio #14
ID : 15
ID in the original source medium : 4364 (0x110C)
Format : AC-3
Format/Info : Audio Coding 3
Commercial name : Dolby Digital
Codec ID : A_AC3
Duration : 2 h 19 min
Bit rate mode : Constant
Bit rate : 384 kb/s
Channel(s) : 6 channels
Channel layout : L R C LFE Ls Rs
Sampling rate : 48.0 kHz
Frame rate : 31.250 FPS (1536 SPF)
Compression mode : Lossy
Stream size : 384 MiB (0%)
Title : DD 5.1
Language : Thai
Service kind : Complete Main
Default : No
Forced : No
Original source medium : Blu-ray

Audio #15
ID : 16
ID in the original source medium : 4365 (0x110D)
Format : AC-3
Format/Info : Audio Coding 3
Commercial name : Dolby Digital
Codec ID : A_AC3
Duration : 2 h 19 min
Bit rate mode : Constant
Bit rate : 384 kb/s
Channel(s) : 6 channels
Channel layout : L R C LFE Ls Rs
Sampling rate : 48.0 kHz
Frame rate : 31.250 FPS (1536 SPF)
Compression mode : Lossy
Stream size : 384 MiB (0%)
Title : DD 5.1
Language : Turkish
Service kind : Complete Main
Default : No
Forced : No
Original source medium : Blu-ray

Text #1
ID : 17
Format : UTF-8
Codec ID : S_TEXT/UTF8
Codec ID/Info : UTF-8 Plain Text
Duration : 2 h 18 min
Bit rate : 52 b/s
Frame rate : 0.192 FPS
Count of elements : 1598
Stream size : 53.6 KiB (0%)
Language : English
Default : Yes
Forced : No

Text #2
ID : 18
Format : UTF-8
Codec ID : S_TEXT/UTF8
Codec ID/Info : UTF-8 Plain Text
Duration : 2 h 18 min
Bit rate : 56 b/s
Frame rate : 0.219 FPS
Count of elements : 1824
Stream size : 57.7 KiB (0%)
Title : SDH
Language : English
Default : No
Forced : No

Text #3
ID : 19
ID in the original source medium : 4768 (0x12A0)
Format : PGS
Muxing mode : zlib
Codec ID : S_HDMV/PGS
Codec ID/Info : Picture based subtitle format used on BDs/HD-DVDs
Duration : 2 h 18 min
Bit rate : 34.2 kb/s
Frame rate : 0.441 FPS
Count of elements : 3680
Stream size : 34.0 MiB (0%)
Language : English
Default : No
Forced : No
Original source medium : Blu-ray

Text #4
ID : 20
ID in the original source medium : 4769 (0x12A1)
Format : PGS
Muxing mode : zlib
Codec ID : S_HDMV/PGS
Codec ID/Info : Picture based subtitle format used on BDs/HD-DVDs
Duration : 2 h 18 min
Bit rate : 25.8 kb/s
Frame rate : 0.384 FPS
Count of elements : 3200
Stream size : 25.6 MiB (0%)
Language : French
Default : No
Forced : No
Original source medium : Blu-ray

Text #5
ID : 21
ID in the original source medium : 4770 (0x12A2)
Format : PGS
Muxing mode : zlib
Codec ID : S_HDMV/PGS
Codec ID/Info : Picture based subtitle format used on BDs/HD-DVDs
Duration : 2 h 19 min
Bit rate : 32.8 kb/s
Frame rate : 0.453 FPS
Count of elements : 3778
Stream size : 32.7 MiB (0%)
Language : Italian
Default : No
Forced : No
Original source medium : Blu-ray

Text #6
ID : 22
ID in the original source medium : 4771 (0x12A3)
Format : PGS
Muxing mode : zlib
Codec ID : S_HDMV/PGS
Codec ID/Info : Picture based subtitle format used on BDs/HD-DVDs
Duration : 2 h 18 min
Bit rate : 28.9 kb/s
Frame rate : 0.371 FPS
Count of elements : 3094
Stream size : 28.8 MiB (0%)
Language : 简体
Default : No
Forced : No
Original source medium : Blu-ray

Text #7
ID : 23
ID in the original source medium : 4772 (0x12A4)
Format : PGS
Muxing mode : zlib
Codec ID : S_HDMV/PGS
Codec ID/Info : Picture based subtitle format used on BDs/HD-DVDs
Duration : 2 h 18 min
Bit rate : 27.7 kb/s
Frame rate : 0.385 FPS
Count of elements : 3214
Stream size : 27.6 MiB (0%)
Language : 繁体
Default : No
Forced : No
Original source medium : Blu-ray

Text #8
ID : 24
ID in the original source medium : 4773 (0x12A5)
Format : PGS
Muxing mode : zlib
Codec ID : S_HDMV/PGS
Codec ID/Info : Picture based subtitle format used on BDs/HD-DVDs
Duration : 2 h 18 min
Bit rate : 18.4 kb/s
Frame rate : 0.389 FPS
Count of elements : 3246
Stream size : 18.2 MiB (0%)
Language : Korean
Default : No
Forced : No
Original source medium : Blu-ray

Text #9
ID : 25
ID in the original source medium : 4774 (0x12A6)
Format : PGS
Muxing mode : zlib
Codec ID : S_HDMV/PGS
Codec ID/Info : Picture based subtitle format used on BDs/HD-DVDs
Duration : 2 h 18 min
Bit rate : 28.2 kb/s
Frame rate : 0.387 FPS
Count of elements : 3226
Stream size : 28.0 MiB (0%)
Language : Spanish
Default : No
Forced : No
Original source medium : Blu-ray

Text #10
ID : 26
ID in the original source medium : 4775 (0x12A7)
Format : PGS
Muxing mode : zlib
Codec ID : S_HDMV/PGS
Codec ID/Info : Picture based subtitle format used on BDs/HD-DVDs
Duration : 2 h 18 min
Bit rate : 29.7 kb/s
Frame rate : 0.386 FPS
Count of elements : 3214
Stream size : 29.5 MiB (0%)
Language : Portuguese
Default : No
Forced : No
Original source medium : Blu-ray

Text #11
ID : 27
ID in the original source medium : 4776 (0x12A8)
Format : PGS
Muxing mode : zlib
Codec ID : S_HDMV/PGS
Codec ID/Info : Picture based subtitle format used on BDs/HD-DVDs
Duration : 2 h 18 min
Bit rate : 17.8 kb/s
Frame rate : 0.397 FPS
Count of elements : 3312
Stream size : 17.7 MiB (0%)
Language : Arabic
Default : No
Forced : No
Original source medium : Blu-ray

Text #12
ID : 28
ID in the original source medium : 4777 (0x12A9)
Format : PGS
Muxing mode : zlib
Codec ID : S_HDMV/PGS
Codec ID/Info : Picture based subtitle format used on BDs/HD-DVDs
Duration : 2 h 18 min
Bit rate : 28.8 kb/s
Frame rate : 0.386 FPS
Count of elements : 3218
Stream size : 28.7 MiB (0%)
Language : Czech
Default : No
Forced : No
Original source medium : Blu-ray

Text #13
ID : 29
ID in the original source medium : 4778 (0x12AA)
Format : PGS
Muxing mode : zlib
Codec ID : S_HDMV/PGS
Codec ID/Info : Picture based subtitle format used on BDs/HD-DVDs
Duration : 2 h 18 min
Bit rate : 27.2 kb/s
Frame rate : 0.303 FPS
Count of elements : 2522
Stream size : 27.0 MiB (0%)
Language : Danish
Default : No
Forced : No
Original source medium : Blu-ray

Text #14
ID : 30
ID in the original source medium : 4779 (0x12AB)
Format : PGS
Muxing mode : zlib
Codec ID : S_HDMV/PGS
Codec ID/Info : Picture based subtitle format used on BDs/HD-DVDs
Duration : 2 h 18 min
Bit rate : 30.3 kb/s
Frame rate : 0.391 FPS
Count of elements : 3260
Stream size : 30.2 MiB (0%)
Language : Finnish
Default : No
Forced : No
Original source medium : Blu-ray

Text #15
ID : 31
ID in the original source medium : 4780 (0x12AC)
Format : PGS
Muxing mode : zlib
Codec ID : S_HDMV/PGS
Codec ID/Info : Picture based subtitle format used on BDs/HD-DVDs
Duration : 2 h 18 min
Bit rate : 26.4 kb/s
Frame rate : 0.304 FPS
Count of elements : 2538
Stream size : 26.2 MiB (0%)
Language : Hungarian
Default : No
Forced : No
Original source medium : Blu-ray

Text #16
ID : 32
ID in the original source medium : 4781 (0x12AD)
Format : PGS
Muxing mode : zlib
Codec ID : S_HDMV/PGS
Codec ID/Info : Picture based subtitle format used on BDs/HD-DVDs
Duration : 2 h 18 min
Bit rate : 25.8 kb/s
Frame rate : 0.305 FPS
Count of elements : 2542
Stream size : 25.6 MiB (0%)
Language : Norwegian
Default : No
Forced : No
Original source medium : Blu-ray

Text #17
ID : 33
ID in the original source medium : 4782 (0x12AE)
Format : PGS
Muxing mode : zlib
Codec ID : S_HDMV/PGS
Codec ID/Info : Picture based subtitle format used on BDs/HD-DVDs
Duration : 2 h 18 min
Bit rate : 25.5 kb/s
Frame rate : 0.353 FPS
Count of elements : 2944
Stream size : 25.4 MiB (0%)
Language : Polish
Default : No
Forced : No
Original source medium : Blu-ray

Text #18
ID : 34
ID in the original source medium : 4783 (0x12AF)
Format : PGS
Muxing mode : zlib
Codec ID : S_HDMV/PGS
Codec ID/Info : Picture based subtitle format used on BDs/HD-DVDs
Duration : 2 h 18 min
Bit rate : 28.1 kb/s
Frame rate : 0.350 FPS
Count of elements : 2918
Stream size : 27.9 MiB (0%)
Language : Romanian
Default : No
Forced : No
Original source medium : Blu-ray

Text #19
ID : 35
ID in the original source medium : 4784 (0x12B0)
Format : PGS
Muxing mode : zlib
Codec ID : S_HDMV/PGS
Codec ID/Info : Picture based subtitle format used on BDs/HD-DVDs
Duration : 2 h 19 min
Bit rate : 30.0 kb/s
Frame rate : 0.338 FPS
Count of elements : 2824
Stream size : 29.9 MiB (0%)
Language : Russian
Default : No
Forced : No
Original source medium : Blu-ray

Text #20
ID : 36
ID in the original source medium : 4785 (0x12B1)
Format : PGS
Muxing mode : zlib
Codec ID : S_HDMV/PGS
Codec ID/Info : Picture based subtitle format used on BDs/HD-DVDs
Duration : 2 h 18 min
Bit rate : 29.1 kb/s
Frame rate : 0.385 FPS
Count of elements : 3212
Stream size : 29.0 MiB (0%)
Language : Swedish
Default : No
Forced : No
Original source medium : Blu-ray

Text #21
ID : 37
ID in the original source medium : 4786 (0x12B2)
Format : PGS
Muxing mode : zlib
Codec ID : S_HDMV/PGS
Codec ID/Info : Picture based subtitle format used on BDs/HD-DVDs
Duration : 2 h 18 min
Bit rate : 28.0 kb/s
Frame rate : 0.389 FPS
Count of elements : 3244
Stream size : 27.8 MiB (0%)
Language : Thai
Default : No
Forced : No
Original source medium : Blu-ray

Text #22
ID : 38
ID in the original source medium : 4787 (0x12B3)
Format : PGS
Muxing mode : zlib
Codec ID : S_HDMV/PGS
Codec ID/Info : Picture based subtitle format used on BDs/HD-DVDs
Duration : 2 h 18 min
Bit rate : 28.8 kb/s
Frame rate : 0.382 FPS
Count of elements : 3188
Stream size : 28.7 MiB (0%)
Language : Turkish
Default : No
Forced : No
Original source medium : Blu-ray

Text #23
ID : 39
ID in the original source medium : 4788 (0x12B4)
Format : PGS
Muxing mode : zlib
Codec ID : S_HDMV/PGS
Codec ID/Info : Picture based subtitle format used on BDs/HD-DVDs
Duration : 2 h 18 min
Bit rate : 355 b/s
Frame rate : 0.004 FPS
Count of elements : 34
Stream size : 362 KiB (0%)
Language : French
Default : No
Forced : No
Original source medium : Blu-ray

Text #24
ID : 40
ID in the original source medium : 4789 (0x12B5)
Format : PGS
Muxing mode : zlib
Codec ID : S_HDMV/PGS
Codec ID/Info : Picture based subtitle format used on BDs/HD-DVDs
Duration : 2 h 18 min
Bit rate : 881 b/s
Frame rate : 0.012 FPS
Count of elements : 100
Stream size : 898 KiB (0%)
Language : Italian
Default : No
Forced : No
Original source medium : Blu-ray

Text #25
ID : 41
ID in the original source medium : 4790 (0x12B6)
Format : PGS
Muxing mode : zlib
Codec ID : S_HDMV/PGS
Codec ID/Info : Picture based subtitle format used on BDs/HD-DVDs
Duration : 2 h 16 min
Bit rate : 711 b/s
Frame rate : 0.010 FPS
Count of elements : 82
Stream size : 710 KiB (0%)
Language : Spanish
Default : No
Forced : No
Original source medium : Blu-ray

Text #26
ID : 42
ID in the original source medium : 4791 (0x12B7)
Format : PGS
Muxing mode : zlib
Codec ID : S_HDMV/PGS
Codec ID/Info : Picture based subtitle format used on BDs/HD-DVDs
Duration : 2 h 16 min
Bit rate : 716 b/s
Frame rate : 0.010 FPS
Count of elements : 84
Stream size : 714 KiB (0%)
Language : Portuguese
Default : No
Forced : No
Original source medium : Blu-ray

Text #27
ID : 43
ID in the original source medium : 4792 (0x12B8)
Format : PGS
Muxing mode : zlib
Codec ID : S_HDMV/PGS
Codec ID/Info : Picture based subtitle format used on BDs/HD-DVDs
Duration : 2 h 18 min
Bit rate : 660 b/s
Frame rate : 0.011 FPS
Count of elements : 88
Stream size : 672 KiB (0%)
Language : Czech
Default : No
Forced : No
Original source medium : Blu-ray

Text #28
ID : 44
ID in the original source medium : 4793 (0x12B9)
Format : PGS
Muxing mode : zlib
Codec ID : S_HDMV/PGS
Codec ID/Info : Picture based subtitle format used on BDs/HD-DVDs
Duration : 2 h 18 min
Bit rate : 402 b/s
Frame rate : 0.006 FPS
Count of elements : 48
Stream size : 410 KiB (0%)
Language : Hungarian
Default : No
Forced : No
Original source medium : Blu-ray

Text #29
ID : 45
ID in the original source medium : 4794 (0x12BA)
Format : PGS
Muxing mode : zlib
Codec ID : S_HDMV/PGS
Codec ID/Info : Picture based subtitle format used on BDs/HD-DVDs
Duration : 2 h 18 min
Bit rate : 268 b/s
Frame rate : 0.005 FPS
Count of elements : 38
Stream size : 273 KiB (0%)
Language : Polish
Default : No
Forced : No
Original source medium : Blu-ray

Text #30
ID : 46
ID in the original source medium : 4795 (0x12BB)
Format : PGS
Muxing mode : zlib
Codec ID : S_HDMV/PGS
Codec ID/Info : Picture based subtitle format used on BDs/HD-DVDs
Duration : 2 h 19 min
Bit rate : 695 b/s
Frame rate : 0.009 FPS
Count of elements : 72
Stream size : 708 KiB (0%)
Language : Russian
Default : No
Forced : No
Original source medium : Blu-ray

Text #31
ID : 47
ID in the original source medium : 4796 (0x12BC)
Format : PGS
Muxing mode : zlib
Codec ID : S_HDMV/PGS
Codec ID/Info : Picture based subtitle format used on BDs/HD-DVDs
Duration : 2 h 18 min
Bit rate : 546 b/s
Frame rate : 0.010 FPS
Count of elements : 82
Stream size : 553 KiB (0%)
Language : Thai
Default : No
Forced : No
Original source medium : Blu-ray

Text #32
ID : 48
ID in the original source medium : 4797 (0x12BD)
Format : PGS
Muxing mode : zlib
Codec ID : S_HDMV/PGS
Codec ID/Info : Picture based subtitle format used on BDs/HD-DVDs
Duration : 2 h 16 min
Bit rate : 660 b/s
Frame rate : 0.011 FPS
Count of elements : 86
Stream size : 659 KiB (0%)
Language : Turkish
Default : No
Forced : No
Original source medium : Blu-ray

关于下载问题:推荐使用qBittorrent、uTorrent等下载软件,有条件的推荐115更好的下载软件!

头号玩家(75.94GB)Ready.Player.One.2018.PROPER.2160p.BluRay.REMUX.HEVC.DTS-HD.MA.TrueHD.7.1.Atmos-FGT-【2160P蓝光REMUX】
游客,如果您要查看本帖隐藏内容请回复




4KQQ海报.gif

上一篇:金刚:骷髅岛 [简繁粤中字]‎ (2017) 4K蓝光REMUX版本下载
下一篇:塔尔 / Tár (2022) 4K蓝光[原盘+REMUX]版本下载
回复

使用道具 举报

0

主题

1

帖子

6

积分

新手上路

Rank: 1

积分
6
发表于 2022-12-22 18:00:46 | 显示全部楼层
dddjkdfgjoeurgndflsjerorigjngbddf
回复 支持 反对

使用道具 举报

0

主题

2

帖子

12

积分

新手上路

Rank: 1

积分
12
发表于 2022-12-24 11:51:00 | 显示全部楼层
看看
回复

使用道具 举报

0

主题

1

帖子

6

积分

新手上路

Rank: 1

积分
6
发表于 2022-12-27 05:25:09 | 显示全部楼层
谢谢分享
回复

使用道具 举报

0

主题

1

帖子

6

积分

新手上路

Rank: 1

积分
6
发表于 2022-12-27 06:27:34 来自手机 | 显示全部楼层
谢谢分享
回复

使用道具 举报

0

主题

1

帖子

6

积分

新手上路

Rank: 1

积分
6
发表于 2022-12-30 22:21:45 来自手机 | 显示全部楼层
谢谢分享
回复

使用道具 举报

0

主题

1

帖子

6

积分

新手上路

Rank: 1

积分
6
发表于 2022-12-31 15:33:48 来自手机 | 显示全部楼层
谢谢分享,查看一下资料
回复 支持 反对

使用道具 举报

0

主题

2

帖子

9

积分

新手上路

Rank: 1

积分
9
发表于 2022-12-31 23:49:52 来自手机 | 显示全部楼层
。。。
回复

使用道具 举报

0

主题

4

帖子

21

积分

新手上路

Rank: 1

积分
21
发表于 2023-1-2 00:07:29 | 显示全部楼层
按时归还收到了哈公司的绿卡公司肯定就
回复 支持 反对

使用道具 举报

0

主题

2

帖子

9

积分

新手上路

Rank: 1

积分
9
发表于 2023-1-2 10:57:09 来自手机 | 显示全部楼层
感谢楼主分享ffyuuuuuhh
回复 支持 反对

使用道具 举报

您需要登录后才可以回帖 登录 | 立即注册

本版积分规则

精彩图文
Archiver|手机版|TAG|Sitemap|新帖|专题|联系我们:邮箱: 4kjia.com@gmail.com   

4k家园   ©2019