[4K电影] 奇异世界 [简繁粤中字] / Strange World (2022) 4K高清版下载

  [复制链接]

主题

帖子

0

积分

超级版主

Rank: 8Rank: 8

积分
0
 楼主| 发表于 2022-12-23 21:29:28 | 显示全部楼层 |阅读模式
奇异世界.png

◎译  名 奇异世界/奇异冒险(台)/奇异大世界(港)
◎片  名 Strange World
◎年  代 2022
◎产  地 美国
◎类  别 喜剧/动作/科幻/动画/家庭/奇幻/冒险
◎语  言 英语
◎上映日期 2022-11-23(美国)
◎IMDb评分 4.8/10 from 10543 users 更新 : 2022-12-23
◎IMDb链接 https://www.imdb.com/title/tt10298840/
◎豆瓣评分 6.6/10 from 421 users 更新 : 2022-12-23
◎豆瓣链接 https://movie.douban.com/subject/35018488/
◎导  演 唐·霍尔 Don Hall / 阮基 Qui Nguyen
◎编  剧 阮基 Qui Nguyen
◎主  演 杰克·吉伦哈尔 Jake Gyllenhaal
       丹尼斯·奎德 Dennis Quaid
       雅布其·杨-怀特 Jaboukie Young-White
       加布里埃尔·尤尼恩 Gabrielle Union
       刘玉玲 Lucy Liu
       卡兰·索尼 Karan Soni
       艾伦·图代克 Alan Tudyk
       亚布拉哈姆·本鲁比 Abraham Benrubi
       尼克·多达尼 Nik Dodani
       弗兰切丝卡·雷阿莱 Francesca Reale
       艾米丽·黑田 Emily Kuroda
       凯蒂·洛斯 Katie Lowes


◎简  介


  影片故事设定在一片神秘的、危机四伏的土地上,讲述奇幻生物和传奇家族克莱德一家的故事——充满冒险精神的克莱德家内部的分歧可能威胁到他们的一次重要任务。

Video
ID : 1
Format : HEVC
Format/Info : High Efficiency Video Coding
Format profile : Main 10@L5@High
HDR format : Dolby Vision, Version 1.0, dvhe.05.06, BL+RPU
Codec ID : V_MPEGH/ISO/HEVC
Duration : 1 h 41 min
Bit rate : 16.3 Mb/s
Width : 3 840 pixels
Height : 2 160 pixels
Display aspect ratio : 16:9
Frame rate mode : Constant
Frame rate : 23.976 (24000/1001) FPS
Color space : YUV
Chroma subsampling : 4:2:0
Bit depth : 10 bits
Bits/(Pixel*Frame) : 0.082
Stream size : 11.6 GiB (95%)
Default : Yes
Forced : No
Color range : Full

Audio
ID : 2
Format : E-AC-3 JOC
Format/Info : Enhanced AC-3 with Joint Object Coding
Commercial name : Dolby Digital Plus with Dolby Atmos
Codec ID : A_EAC3
Duration : 1 h 41 min
Bit rate mode : Constant
Bit rate : 768 kb/s
Channel(s) : 6 channels
Channel layout : L R C LFE Ls Rs
Sampling rate : 48.0 kHz
Frame rate : 31.250 FPS (1536 SPF)
Compression mode : Lossy
Stream size : 559 MiB (4%)
Language : English
Service kind : Complete Main
Default : Yes
Forced : No
Complexity index : 16
Number of dynamic objects : 15
Bed channel count : 1 channel
Bed channel configuration : LFE

Text #1
ID : 3
Format : UTF-8
Codec ID : S_TEXT/UTF8
Codec ID/Info : UTF-8 Plain Text
Duration : 1 h 40 min
Bit rate : 54 b/s
Frame rate : 0.245 FPS
Count of elements : 1481
Stream size : 40.5 KiB (0%)
Title : English
Language : English
Default : No
Forced : No

Text #2
ID : 4
Format : UTF-8
Codec ID : S_TEXT/UTF8
Codec ID/Info : UTF-8 Plain Text
Duration : 1 h 40 min
Bit rate : 72 b/s
Frame rate : 0.327 FPS
Count of elements : 1980
Stream size : 53.8 KiB (0%)
Title : English SDH
Language : English
Default : No
Forced : No

Text #3
ID : 5
Format : UTF-8
Codec ID : S_TEXT/UTF8
Codec ID/Info : UTF-8 Plain Text
Duration : 1 h 39 min
Bit rate : 46 b/s
Frame rate : 0.218 FPS
Count of elements : 1307
Stream size : 34.3 KiB (0%)
Title : Czech
Language : Czech
Default : No
Forced : No

Text #4
ID : 6
Format : UTF-8
Codec ID : S_TEXT/UTF8
Codec ID/Info : UTF-8 Plain Text
Duration : 1 h 39 min
Bit rate : 49 b/s
Frame rate : 0.143 FPS
Count of elements : 856
Stream size : 35.9 KiB (0%)
Title : Danish
Language : Danish
Default : No
Forced : No

Text #5
ID : 7
Format : UTF-8
Codec ID : S_TEXT/UTF8
Codec ID/Info : UTF-8 Plain Text
Duration : 1 h 39 min
Bit rate : 50 b/s
Frame rate : 0.215 FPS
Count of elements : 1290
Stream size : 37.2 KiB (0%)
Title : German
Language : German
Default : No
Forced : No

Text #6
ID : 8
Format : UTF-8
Codec ID : S_TEXT/UTF8
Codec ID/Info : UTF-8 Plain Text
Duration : 1 h 40 min
Bit rate : 64 b/s
Frame rate : 0.205 FPS
Count of elements : 1239
Stream size : 47.4 KiB (0%)
Title : German SDH
Language : German
Default : No
Forced : No

Text #7
ID : 9
Format : UTF-8
Codec ID : S_TEXT/UTF8
Codec ID/Info : UTF-8 Plain Text
Duration : 1 h 39 min
Bit rate : 82 b/s
Frame rate : 0.217 FPS
Count of elements : 1304
Stream size : 60.1 KiB (0%)
Title : Greek
Language : Greek
Default : No
Forced : No

Text #8
ID : 10
Format : UTF-8
Codec ID : S_TEXT/UTF8
Codec ID/Info : UTF-8 Plain Text
Duration : 1 h 39 min
Bit rate : 53 b/s
Frame rate : 0.218 FPS
Count of elements : 1308
Stream size : 39.0 KiB (0%)
Title : Spanish Latin American
Language : Spanish
Default : No
Forced : No

Text #9
ID : 11
Format : UTF-8
Codec ID : S_TEXT/UTF8
Codec ID/Info : UTF-8 Plain Text
Duration : 1 h 39 min
Bit rate : 68 b/s
Frame rate : 0.258 FPS
Count of elements : 1543
Stream size : 50.4 KiB (0%)
Title : Spanish Latin American (SDH)
Language : Spanish
Default : No
Forced : No

Text #10
ID : 12
Format : UTF-8
Codec ID : S_TEXT/UTF8
Codec ID/Info : UTF-8 Plain Text
Duration : 1 h 39 min
Bit rate : 47 b/s
Frame rate : 0.218 FPS
Count of elements : 1306
Stream size : 35.0 KiB (0%)
Title : Spanish European
Language : Spanish
Default : No
Forced : No

Text #11
ID : 13
Format : UTF-8
Codec ID : S_TEXT/UTF8
Codec ID/Info : UTF-8 Plain Text
Duration : 1 h 39 min
Bit rate : 53 b/s
Frame rate : 0.222 FPS
Count of elements : 1330
Stream size : 39.3 KiB (0%)
Title : Finnish
Language : Finnish
Default : No
Forced : No

Text #12
ID : 14
Format : UTF-8
Codec ID : S_TEXT/UTF8
Codec ID/Info : UTF-8 Plain Text
Duration : 1 h 39 min
Bit rate : 58 b/s
Frame rate : 0.222 FPS
Count of elements : 1333
Stream size : 43.0 KiB (0%)
Title : French Canadian
Language : French
Default : No
Forced : No

Text #13
ID : 15
Format : UTF-8
Codec ID : S_TEXT/UTF8
Codec ID/Info : UTF-8 Plain Text
Duration : 1 h 40 min
Bit rate : 79 b/s
Frame rate : 0.337 FPS
Count of elements : 2039
Stream size : 58.4 KiB (0%)
Title : French Canadian (SDH)
Language : French
Default : No
Forced : No

Text #14
ID : 16
Format : UTF-8
Codec ID : S_TEXT/UTF8
Codec ID/Info : UTF-8 Plain Text
Duration : 1 h 30 min
Bit rate : 52 b/s
Frame rate : 0.219 FPS
Count of elements : 1192
Stream size : 35.1 KiB (0%)
Title : French European
Language : French
Default : No
Forced : No

Text #15
ID : 17
Format : UTF-8
Codec ID : S_TEXT/UTF8
Codec ID/Info : UTF-8 Plain Text
Duration : 1 h 40 min
Bit rate : 62 b/s
Frame rate : 0.239 FPS
Count of elements : 1446
Stream size : 46.3 KiB (0%)
Title : French European (SDH)
Language : French
Default : No
Forced : No

Text #16
ID : 18
Format : UTF-8
Codec ID : S_TEXT/UTF8
Codec ID/Info : UTF-8 Plain Text
Duration : 1 h 39 min
Bit rate : 53 b/s
Frame rate : 0.221 FPS
Count of elements : 1326
Stream size : 39.3 KiB (0%)
Title : Hungarian
Language : Hungarian
Default : No
Forced : No

Text #17
ID : 19
Format : UTF-8
Codec ID : S_TEXT/UTF8
Codec ID/Info : UTF-8 Plain Text
Duration : 1 h 30 min
Bit rate : 55 b/s
Frame rate : 0.240 FPS
Count of elements : 1302
Stream size : 36.5 KiB (0%)
Title : Icelandic
Language : Icelandic
Default : No
Forced : No

Text #18
ID : 20
Format : UTF-8
Codec ID : S_TEXT/UTF8
Codec ID/Info : UTF-8 Plain Text
Duration : 1 h 39 min
Bit rate : 47 b/s
Frame rate : 0.218 FPS
Count of elements : 1308
Stream size : 34.9 KiB (0%)
Title : Italian
Language : Italian
Default : No
Forced : No

Text #19
ID : 21
Format : UTF-8
Codec ID : S_TEXT/UTF8
Codec ID/Info : UTF-8 Plain Text
Duration : 1 h 39 min
Bit rate : 63 b/s
Frame rate : 0.240 FPS
Count of elements : 1440
Stream size : 46.8 KiB (0%)
Title : Italian SDH
Language : Italian
Default : No
Forced : No

Text #20
ID : 22
Format : UTF-8
Codec ID : S_TEXT/UTF8
Codec ID/Info : UTF-8 Plain Text
Duration : 1 h 39 min
Bit rate : 42 b/s
Frame rate : 0.190 FPS
Count of elements : 1136
Stream size : 30.8 KiB (0%)
Title : Japanese
Language : Japanese
Default : No
Forced : No

Text #21
ID : 23
Format : UTF-8
Codec ID : S_TEXT/UTF8
Codec ID/Info : UTF-8 Plain Text
Duration : 1 h 28 min
Bit rate : 58 b/s
Frame rate : 0.242 FPS
Count of elements : 1283
Stream size : 38.1 KiB (0%)
Title : Korean
Language : Korean
Default : No
Forced : No

Text #22
ID : 24
Format : UTF-8
Codec ID : S_TEXT/UTF8
Codec ID/Info : UTF-8 Plain Text
Duration : 1 h 39 min
Bit rate : 48 b/s
Frame rate : 0.182 FPS
Count of elements : 1089
Stream size : 35.2 KiB (0%)
Title : Dutch
Language : Dutch
Default : No
Forced : No

Text #23
ID : 25
Format : UTF-8
Codec ID : S_TEXT/UTF8
Codec ID/Info : UTF-8 Plain Text
Duration : 1 h 39 min
Bit rate : 48 b/s
Frame rate : 0.217 FPS
Count of elements : 1299
Stream size : 35.7 KiB (0%)
Title : Norwegian
Language : Norwegian
Default : No
Forced : No

Text #24
ID : 26
Format : UTF-8
Codec ID : S_TEXT/UTF8
Codec ID/Info : UTF-8 Plain Text
Duration : 1 h 39 min
Bit rate : 51 b/s
Frame rate : 0.220 FPS
Count of elements : 1320
Stream size : 37.4 KiB (0%)
Title : Polish
Language : Polish
Default : No
Forced : No

Text #25
ID : 27
Format : UTF-8
Codec ID : S_TEXT/UTF8
Codec ID/Info : UTF-8 Plain Text
Duration : 1 h 39 min
Bit rate : 51 b/s
Frame rate : 0.218 FPS
Count of elements : 1307
Stream size : 37.9 KiB (0%)
Title : Portuguese Brazilian
Language : Portuguese
Default : No
Forced : No

Text #26
ID : 28
Format : UTF-8
Codec ID : S_TEXT/UTF8
Codec ID/Info : UTF-8 Plain Text
Duration : 1 h 29 min
Bit rate : 65 b/s
Frame rate : 0.279 FPS
Count of elements : 1499
Stream size : 42.7 KiB (0%)
Title : Portuguese Brazilian (SDH)
Language : Portuguese
Default : No
Forced : No

Text #27
ID : 29
Format : UTF-8
Codec ID : S_TEXT/UTF8
Codec ID/Info : UTF-8 Plain Text
Duration : 1 h 39 min
Bit rate : 51 b/s
Frame rate : 0.217 FPS
Count of elements : 1304
Stream size : 38.1 KiB (0%)
Title : Portuguese European
Language : Portuguese
Default : No
Forced : No

Text #28
ID : 30
Format : UTF-8
Codec ID : S_TEXT/UTF8
Codec ID/Info : UTF-8 Plain Text
Duration : 1 h 39 min
Bit rate : 52 b/s
Frame rate : 0.205 FPS
Count of elements : 1228
Stream size : 38.4 KiB (0%)
Title : Romanian
Language : Romanian
Default : No
Forced : No

Text #29
ID : 31
Format : UTF-8
Codec ID : S_TEXT/UTF8
Codec ID/Info : UTF-8 Plain Text
Duration : 1 h 39 min
Bit rate : 52 b/s
Frame rate : 0.222 FPS
Count of elements : 1332
Stream size : 38.8 KiB (0%)
Title : Slovak
Language : Slovak
Default : No
Forced : No

Text #30
ID : 32
Format : UTF-8
Codec ID : S_TEXT/UTF8
Codec ID/Info : UTF-8 Plain Text
Duration : 1 h 39 min
Bit rate : 45 b/s
Frame rate : 0.148 FPS
Count of elements : 889
Stream size : 33.5 KiB (0%)
Title : Swedish
Language : Swedish
Default : No
Forced : No

Text #31
ID : 33
Format : UTF-8
Codec ID : S_TEXT/UTF8
Codec ID/Info : UTF-8 Plain Text
Duration : 1 h 39 min
Bit rate : 55 b/s
Frame rate : 0.222 FPS
Count of elements : 1333
Stream size : 40.9 KiB (0%)
Title : Turkish
Language : Turkish
Default : No
Forced : No

Text #32
ID : 34
Format : UTF-8
Codec ID : S_TEXT/UTF8
Codec ID/Info : UTF-8 Plain Text
Duration : 1 h 39 min
Bit rate : 46 b/s
Frame rate : 0.218 FPS
Count of elements : 1308
Stream size : 33.7 KiB (0%)
Title : 粤语
Language : Chinese
Default : No
Forced : No

Text #33
ID : 35
Format : UTF-8
Codec ID : S_TEXT/UTF8
Codec ID/Info : UTF-8 Plain Text
Duration : 1 h 39 min
Bit rate : 45 b/s
Frame rate : 0.218 FPS
Count of elements : 1308
Stream size : 33.6 KiB (0%)
Title : 简体
Language : Chinese
Default : No
Forced : No

Text #34
ID : 36
Format : UTF-8
Codec ID : S_TEXT/UTF8
Codec ID/Info : UTF-8 Plain Text
Duration : 1 h 39 min
Bit rate : 43 b/s
Frame rate : 0.219 FPS
Count of elements : 1315
Stream size : 32.0 KiB (0%)
Title : 繁体
Language : Chinese
Default : No
Forced : No

Menu
00:06:35.646 : en:Scene 1
00:16:47.925 : en:Scene 2
00:29:06.330 : en:Scene 3
00:41:34.036 : en:Scene 4
00:49:53.243 : en:Scene 5
00:58:42.064 : en:Scene 6
01:11:47.182 : en:Scene 7
01:24:24.398 : en:Scene 8
01:29:30.204 : en:Credits


推荐使用qBittorrent、uTorrent、BitComet等下载软件,有条件的推荐115或会员软件下载!

下载地址


游客,如果您要查看本帖隐藏内容请回复

游客,如果您要查看本帖隐藏内容请回复

游客,如果您要查看本帖隐藏内容请回复

游客,如果您要查看本帖隐藏内容请回复

游客,如果您要查看本帖隐藏内容请回复






上一篇:看着不错 [简繁中字] / Good on Paper‎ (2021) 4K高清版下载
下一篇:无间道风云 [DIY简繁&英文] / The Departed (2006)4K高清版下载
回复

使用道具 举报

0

主题

3

帖子

21

积分

4K家园VIP

Rank: 9Rank: 9Rank: 9

积分
21
发表于 2022-12-23 23:30:31 | 显示全部楼层
感谢楼主分享
回复 支持 反对

使用道具 举报

主题

帖子

0

积分

新手上路

Rank: 1

积分
0
发表于 2022-12-24 12:09:31 | 显示全部楼层
谢谢楼主分享
回复 支持 反对

使用道具 举报

主题

帖子

0

积分

新手上路

Rank: 1

积分
0
发表于 2022-12-24 12:24:02 | 显示全部楼层
RE: 奇异世界 [简繁粤中字] / Strange World (2022) 4K高清版下载 [修改]
回复 支持 反对

使用道具 举报

0

主题

2

帖子

12

积分

新手上路

Rank: 1

积分
12
发表于 2022-12-24 14:08:45 | 显示全部楼层
感谢楼主分享
回复 支持 反对

使用道具 举报

0

主题

3

帖子

12

积分

新手上路

Rank: 1

积分
12
发表于 2022-12-24 19:06:52 | 显示全部楼层
厉害厉害
回复

使用道具 举报

0

主题

5

帖子

18

积分

新手上路

Rank: 1

积分
18
发表于 2022-12-24 19:54:14 | 显示全部楼层
奇异世界 [简繁粤中字]  资源优秀 谢谢
回复 支持 反对

使用道具 举报

0

主题

4

帖子

17

积分

新手上路

Rank: 1

积分
17
发表于 2022-12-24 21:28:36 | 显示全部楼层
没有免费的吗
回复 支持 反对

使用道具 举报

0

主题

2

帖子

9

积分

新手上路

Rank: 1

积分
9
发表于 2022-12-25 10:39:14 | 显示全部楼层
楼主这资源不错,我收藏了
回复 支持 反对

使用道具 举报

0

主题

3

帖子

12

积分

新手上路

Rank: 1

积分
12
发表于 2022-12-25 13:42:19 | 显示全部楼层
真的吗
回复

使用道具 举报

您需要登录后才可以回帖 登录 | 立即注册

本版积分规则

精彩图文
Archiver|手机版|TAG|Sitemap|新帖|专题|联系我们:邮箱: 4kjia.com@gmail.com   

4k家园   ©2019