[4K电影] 硬核风暴 [简繁中字] The Hard Way (2019) 4K高清版下载

[复制链接]

主题

帖子

0

积分

超级版主

Rank: 8Rank: 8

积分
0
 楼主| 发表于 2022-12-29 21:50:34 | 显示全部楼层 |阅读模式
本帖最后由 最爱4K哟 于 2022-12-30 12:12 编辑

QQ图片20221230121104_副本.png

◎译  名 硬核风暴/铁血寻仇
◎片  名 The Hard Way
◎年  代 2019
◎产  地 美国
◎类  别 动作/犯罪
◎语  言 英语
◎上映日期 2019-03-05(美国)
◎IMDb评分 4.8/10 from 3400 users 更新 : 2022-12-28
◎IMDb链接 https://www.imdb.com/title/tt9815714/
◎豆瓣评分 4.7/10 from 746 users 更新 : 2022-12-29
◎豆瓣链接 https://douban.com/subject/30479915/
◎片  长 92分钟
◎导  演 基翁尼·韦克斯曼 Keoni Waxman
◎编  剧 基翁尼·韦克斯曼 Keoni Waxman / 托马斯·丘吉尔 Thomas J. Churchill
◎主  演 迈克尔·加·怀特 Michael Jai White
       鲁克·高斯 Luke Goss
       兰迪·库卓 Randy Couture
       奥维度·尼库勒斯库 Ovidiu Niculescu
       伊莱亚斯·费金 Elias Ferkin
       丹·卡德 Dan Cade
       乔治·雷米斯 George Remes
       阿迪娜·斯戴古 Adina Stetcu


◎简  介


  得知弟弟在罗马尼亚执行任务丧命后,一位退伍军人与两名盟友联手向神秘的敌人寻仇...
Video
ID : 1
Format : HEVC
Format/Info : High Efficiency Video Coding
Format profile : Main 10@L5@Main
Codec ID : V_MPEGH/ISO/HEVC
Duration : 1 h 33 min
Bit rate : 11.8 Mb/s
Width : 3 840 pixels
Height : 2 160 pixels
Display aspect ratio : 16:9
Frame rate mode : Constant
Frame rate : 23.976 (24000/1001) FPS
Color space : YUV
Chroma subsampling : 4:2:0
Bit depth : 10 bits
Bits/(Pixel*Frame) : 0.059
Stream size : 7.73 GiB (95%)
Default : Yes
Forced : No
Color range : Limited
Color primaries : BT.709
Transfer characteristics : BT.709
Matrix coefficients : BT.709

Audio
ID : 2
Format : E-AC-3
Format/Info : Enhanced AC-3
Commercial name : Dolby Digital Plus
Codec ID : A_EAC3
Duration : 1 h 33 min
Bit rate mode : Constant
Bit rate : 640 kb/s
Channel(s) : 6 channels
Channel layout : L R C LFE Ls Rs
Sampling rate : 48.0 kHz
Frame rate : 31.250 FPS (1536 SPF)
Compression mode : Lossy
Stream size : 429 MiB (5%)
Language : English
Service kind : Complete Main
Default : Yes
Forced : No

Text #1
ID : 3
Format : UTF-8
Codec ID : S_TEXT/UTF8
Codec ID/Info : UTF-8 Plain Text
Duration : 32 min 35 s
Bit rate : 0 b/s
Frame rate : 0.001 FPS
Count of elements : 2
Stream size : 37.0 Bytes (0%)
Title : Forced
Language : English
Default : No
Forced : Yes

Text #2
ID : 4
Format : UTF-8
Codec ID : S_TEXT/UTF8
Codec ID/Info : UTF-8 Plain Text
Duration : 1 h 29 min
Bit rate : 48 b/s
Frame rate : 0.192 FPS
Count of elements : 1037
Stream size : 32.1 KiB (0%)
Language : English
Default : No
Forced : No

Text #3
ID : 5
Format : UTF-8
Codec ID : S_TEXT/UTF8
Codec ID/Info : UTF-8 Plain Text
Duration : 1 h 29 min
Bit rate : 52 b/s
Frame rate : 0.214 FPS
Count of elements : 1151
Stream size : 34.8 KiB (0%)
Title : SDH
Language : English
Default : No
Forced : No

Text #4
ID : 6
Format : UTF-8
Codec ID : S_TEXT/UTF8
Codec ID/Info : UTF-8 Plain Text
Duration : 1 h 32 min
Bit rate : 69 b/s
Frame rate : 0.186 FPS
Count of elements : 1034
Stream size : 47.0 KiB (0%)
Language : Arabic
Default : No
Forced : No

Text #5
ID : 7
Format : UTF-8
Codec ID : S_TEXT/UTF8
Codec ID/Info : UTF-8 Plain Text
Duration : 1 h 32 min
Bit rate : 40 b/s
Frame rate : 0.186 FPS
Count of elements : 1034
Stream size : 27.8 KiB (0%)
Title : 简体
Language : Chinese (Simplied)

Default : No
Forced : No

Text #6
ID : 8
Format : UTF-8
Codec ID : S_TEXT/UTF8
Codec ID/Info : UTF-8 Plain Text
Duration : 1 h 32 min
Bit rate : 41 b/s
Frame rate : 0.186 FPS
Count of elements : 1034
Stream size : 28.4 KiB (0%)
Title : 繁体
Language : Chinese (Traditional)

Default : No
Forced : No

Text #7
ID : 9
Format : UTF-8
Codec ID : S_TEXT/UTF8
Codec ID/Info : UTF-8 Plain Text
Duration : 1 h 32 min
Bit rate : 41 b/s
Frame rate : 0.131 FPS
Count of elements : 732
Stream size : 28.0 KiB (0%)
Language : Danish
Default : No
Forced : No

Text #8
ID : 10
Format : UTF-8
Codec ID : S_TEXT/UTF8
Codec ID/Info : UTF-8 Plain Text
Duration : 1 h 32 min
Bit rate : 40 b/s
Frame rate : 0.136 FPS
Count of elements : 759
Stream size : 27.2 KiB (0%)
Language : Dutch
Default : No
Forced : No

Text #9
ID : 11
Format : UTF-8
Codec ID : S_TEXT/UTF8
Codec ID/Info : UTF-8 Plain Text
Duration : 1 h 32 min
Bit rate : 40 b/s
Frame rate : 0.133 FPS
Count of elements : 739
Stream size : 27.8 KiB (0%)
Language : Finnish
Default : No
Forced : No

Text #10
ID : 12
Format : UTF-8
Codec ID : S_TEXT/UTF8
Codec ID/Info : UTF-8 Plain Text
Duration : 1 h 32 min
Bit rate : 38 b/s
Frame rate : 0.179 FPS
Count of elements : 995
Stream size : 25.9 KiB (0%)
Language : French
Default : No
Forced : No

Text #11
ID : 13
Format : UTF-8
Codec ID : S_TEXT/UTF8
Codec ID/Info : UTF-8 Plain Text
Duration : 1 h 32 min
Bit rate : 44 b/s
Frame rate : 0.184 FPS
Count of elements : 1028
Stream size : 30.4 KiB (0%)
Language : German
Default : No
Forced : No

Text #12
ID : 14
Format : UTF-8
Codec ID : S_TEXT/UTF8
Codec ID/Info : UTF-8 Plain Text
Duration : 1 h 32 min
Bit rate : 71 b/s
Frame rate : 0.183 FPS
Count of elements : 1019
Stream size : 48.9 KiB (0%)
Language : Greek
Default : No
Forced : No

Text #13
ID : 15
Format : UTF-8
Codec ID : S_TEXT/UTF8
Codec ID/Info : UTF-8 Plain Text
Duration : 1 h 32 min
Bit rate : 65 b/s
Frame rate : 0.184 FPS
Count of elements : 1027
Stream size : 44.2 KiB (0%)
Language : Hebrew
Default : No
Forced : No

Text #14
ID : 16
Format : UTF-8
Codec ID : S_TEXT/UTF8
Codec ID/Info : UTF-8 Plain Text
Duration : 1 h 32 min
Bit rate : 44 b/s
Frame rate : 0.184 FPS
Count of elements : 1026
Stream size : 30.5 KiB (0%)
Language : Indonesian
Default : No
Forced : No

Text #15
ID : 17
Format : UTF-8
Codec ID : S_TEXT/UTF8
Codec ID/Info : UTF-8 Plain Text
Duration : 1 h 32 min
Bit rate : 47 b/s
Frame rate : 0.184 FPS
Count of elements : 1023
Stream size : 32.0 KiB (0%)
Language : Italian
Default : No
Forced : No

Text #16
ID : 18
Format : UTF-8
Codec ID : S_TEXT/UTF8
Codec ID/Info : UTF-8 Plain Text
Duration : 1 h 32 min
Bit rate : 35 b/s
Frame rate : 0.165 FPS
Count of elements : 920
Stream size : 24.3 KiB (0%)
Language : Japanese
Default : No
Forced : No

Text #17
ID : 19
Format : UTF-8
Codec ID : S_TEXT/UTF8
Codec ID/Info : UTF-8 Plain Text
Duration : 1 h 32 min
Bit rate : 44 b/s
Frame rate : 0.186 FPS
Count of elements : 1034
Stream size : 30.5 KiB (0%)
Language : Korean
Default : No
Forced : No

Text #18
ID : 20
Format : UTF-8
Codec ID : S_TEXT/UTF8
Codec ID/Info : UTF-8 Plain Text
Duration : 1 h 32 min
Bit rate : 40 b/s
Frame rate : 0.132 FPS
Count of elements : 733
Stream size : 27.6 KiB (0%)
Language : Norwegian Bokmal
Default : No
Forced : No

Text #19
ID : 21
Format : UTF-8
Codec ID : S_TEXT/UTF8
Codec ID/Info : UTF-8 Plain Text
Duration : 1 h 32 min
Bit rate : 40 b/s
Frame rate : 0.178 FPS
Count of elements : 993
Stream size : 27.4 KiB (0%)
Language : Polish
Default : No
Forced : No

Text #20
ID : 22
Format : UTF-8
Codec ID : S_TEXT/UTF8
Codec ID/Info : UTF-8 Plain Text
Duration : 1 h 32 min
Bit rate : 42 b/s
Frame rate : 0.183 FPS
Count of elements : 1019
Stream size : 29.2 KiB (0%)
Title : Brazilian
Language : Portuguese (BR)
Default : No
Forced : No

Text #21
ID : 23
Format : UTF-8
Codec ID : S_TEXT/UTF8
Codec ID/Info : UTF-8 Plain Text
Duration : 1 h 32 min
Bit rate : 46 b/s
Frame rate : 0.183 FPS
Count of elements : 1021
Stream size : 31.6 KiB (0%)
Title : Iberian
Language : Portuguese (PT)
Default : No
Forced : No

Text #22
ID : 24
Format : UTF-8
Codec ID : S_TEXT/UTF8
Codec ID/Info : UTF-8 Plain Text
Duration : 1 h 32 min
Bit rate : 43 b/s
Frame rate : 0.184 FPS
Count of elements : 1026
Stream size : 29.5 KiB (0%)
Language : Romanian
Default : No
Forced : No

Text #23
ID : 25
Format : UTF-8
Codec ID : S_TEXT/UTF8
Codec ID/Info : UTF-8 Plain Text
Duration : 1 h 32 min
Bit rate : 72 b/s
Frame rate : 0.185 FPS
Count of elements : 1032
Stream size : 49.5 KiB (0%)
Language : Russian
Default : No
Forced : No

Text #24
ID : 26
Format : UTF-8
Codec ID : S_TEXT/UTF8
Codec ID/Info : UTF-8 Plain Text
Duration : 1 h 32 min
Bit rate : 41 b/s
Frame rate : 0.180 FPS
Count of elements : 1002
Stream size : 28.5 KiB (0%)
Title : Castilian
Language : Spanish (ES)
Default : No
Forced : No

Text #25
ID : 27
Format : UTF-8
Codec ID : S_TEXT/UTF8
Codec ID/Info : UTF-8 Plain Text
Duration : 1 h 32 min
Bit rate : 46 b/s
Frame rate : 0.185 FPS
Count of elements : 1028
Stream size : 31.9 KiB (0%)
Title : Latin American
Language : Spanish (Latin America)
Default : No
Forced : No

Text #26
ID : 28
Format : UTF-8
Codec ID : S_TEXT/UTF8
Codec ID/Info : UTF-8 Plain Text
Duration : 1 h 32 min
Bit rate : 43 b/s
Frame rate : 0.133 FPS
Count of elements : 739
Stream size : 29.3 KiB (0%)
Language : Swedish
Default : No
Forced : No

Text #27
ID : 29
Format : UTF-8
Codec ID : S_TEXT/UTF8
Codec ID/Info : UTF-8 Plain Text
Duration : 1 h 32 min
Bit rate : 111 b/s
Frame rate : 0.185 FPS
Count of elements : 1030
Stream size : 76.1 KiB (0%)
Language : Thai
Default : No
Forced : No

Text #28
ID : 30
Format : UTF-8
Codec ID : S_TEXT/UTF8
Codec ID/Info : UTF-8 Plain Text
Duration : 1 h 32 min
Bit rate : 45 b/s
Frame rate : 0.185 FPS
Count of elements : 1032
Stream size : 30.7 KiB (0%)
Language : Turkish
Default : No
Forced : No

推荐使用qBittorrent、uTorrent、BitComet等下载软件,有条件的推荐115或会员软件下载!

下载地址
游客,如果您要查看本帖隐藏内容请回复





上一篇:泰勒·汤姆林森:青年危机 [简繁中字] (2020)4K高清版下载
下一篇:特拉维斯·斯科特:妈妈你看,我会飞[简繁中字](2019) 4K高...
回复

使用道具 举报

您需要登录后才可以回帖 登录 | 立即注册

本版积分规则

精彩图文
Archiver|手机版|TAG|Sitemap|新帖|专题|联系我们:邮箱: 4kjia.com@gmail.com   

4k家园   ©2019