[4K电影] 旺达·塞克丝:不正常 [简繁中字] (2019) 4K高清版下载

[复制链接]

主题

帖子

0

积分

超级版主

Rank: 8Rank: 8

积分
0
 楼主| 发表于 2022-12-29 22:06:34 | 显示全部楼层 |阅读模式


◎译  名 旺达·塞克丝:不正常
◎片  名 Wanda Sykes: Not Normal
◎年  代 2019
◎产  地 美国
◎类  别 喜剧
◎语  言 英语
◎上映日期 2019-05-21(美国)
◎IMDb评分 7.3/10 from 1895 users 更新 : 2022-12-27
◎IMDb链接 http://www.imdb.com/title/tt9169592
◎豆瓣评分 7.9/10 from 715 users 更新 : 2022-12-29
◎豆瓣链接 https://movie.douban.com/subject/33426016/
◎片  长 60分钟
◎导  演 琳达·门多萨 Linda Mendoza
◎编  剧 婉妲·塞克丝 Wanda Sykes
◎主  演 婉妲·塞克丝 Wanda Sykes


◎简  介

  女演员旺达·塞克丝曾荣获艾美奖提名并有 30 年的喜剧经验,她在自己的第一部 Netflix 喜剧特辑《旺达·塞克丝:不正常》中对时事现状发表了机智诙谐而令人捧腹的评论。这部时长 1 小时的特辑讲述了这位喜剧人对目前政治和文化氛围的看法,她只能用“不正常”来形容!
Video
ID : 1
Format : HEVC
Format/Info : High Efficiency Video Coding
Format profile : Main 10@L5@Main
Codec ID : V_MPEGH/ISO/HEVC
Duration : 1 h 6 min
Bit rate : 12.1 Mb/s
Width : 3 840 pixels
Height : 2 160 pixels
Display aspect ratio : 16:9
Frame rate mode : Constant
Frame rate : 23.976 (24000/1001) FPS
Color space : YUV
Chroma subsampling : 4:2:0
Bit depth : 10 bits
Bits/(Pixel*Frame) : 0.061
Stream size : 5.56 GiB (95%)
Default : Yes
Forced : No
Color range : Limited
Color primaries : BT.709
Transfer characteristics : BT.709
Matrix coefficients : BT.709

Audio
ID : 2
Format : E-AC-3
Format/Info : Enhanced AC-3
Commercial name : Dolby Digital Plus
Codec ID : A_EAC3
Duration : 1 h 6 min
Bit rate mode : Constant
Bit rate : 640 kb/s
Channel(s) : 6 channels
Channel layout : L R C LFE Ls Rs
Sampling rate : 48.0 kHz
Frame rate : 31.250 FPS (1536 SPF)
Compression mode : Lossy
Stream size : 302 MiB (5%)
Language : English
Service kind : Complete Main
Default : Yes
Forced : No

Text #1
ID : 3
Format : UTF-8
Codec ID : S_TEXT/UTF8
Codec ID/Info : UTF-8 Plain Text
Duration : 1 h 5 min
Bit rate : 72 b/s
Frame rate : 0.235 FPS
Count of elements : 917
Stream size : 34.4 KiB (0%)
Language : English
Default : No
Forced : No

Text #2
ID : 4
Format : UTF-8
Codec ID : S_TEXT/UTF8
Codec ID/Info : UTF-8 Plain Text
Duration : 1 h 5 min
Bit rate : 80 b/s
Frame rate : 0.288 FPS
Count of elements : 1136
Stream size : 39.0 KiB (0%)
Title : SDH
Language : English
Default : No
Forced : No

Text #3
ID : 5
Format : UTF-8
Codec ID : S_TEXT/UTF8
Codec ID/Info : UTF-8 Plain Text
Duration : 1 h 5 min
Bit rate : 107 b/s
Frame rate : 0.233 FPS
Count of elements : 917
Stream size : 52.0 KiB (0%)
Language : Arabic
Default : No
Forced : No

Text #4
ID : 6
Format : UTF-8
Codec ID : S_TEXT/UTF8
Codec ID/Info : UTF-8 Plain Text
Duration : 1 h 5 min
Bit rate : 66 b/s
Frame rate : 0.233 FPS
Count of elements : 921
Stream size : 32.1 KiB (0%)
Title : 简体
Language : Chinese (Simplied)

Default : No
Forced : No

Text #5
ID : 7
Format : UTF-8
Codec ID : S_TEXT/UTF8
Codec ID/Info : UTF-8 Plain Text
Duration : 1 h 5 min
Bit rate : 73 b/s
Frame rate : 0.233 FPS
Count of elements : 918
Stream size : 35.4 KiB (0%)
Title : 繁体
Language : Chinese (Traditional)

Default : No
Forced : No

Text #6
ID : 8
Format : UTF-8
Codec ID : S_TEXT/UTF8
Codec ID/Info : UTF-8 Plain Text
Duration : 1 h 5 min
Bit rate : 64 b/s
Frame rate : 0.230 FPS
Count of elements : 908
Stream size : 31.2 KiB (0%)
Language : Czech
Default : No
Forced : No

Text #7
ID : 9
Format : UTF-8
Codec ID : S_TEXT/UTF8
Codec ID/Info : UTF-8 Plain Text
Duration : 1 h 5 min
Bit rate : 56 b/s
Frame rate : 0.217 FPS
Count of elements : 858
Stream size : 27.2 KiB (0%)
Language : Danish
Default : No
Forced : No

Text #8
ID : 10
Format : UTF-8
Codec ID : S_TEXT/UTF8
Codec ID/Info : UTF-8 Plain Text
Duration : 1 h 5 min
Bit rate : 69 b/s
Frame rate : 0.221 FPS
Count of elements : 871
Stream size : 33.6 KiB (0%)
Language : Dutch
Default : No
Forced : No

Text #9
ID : 11
Format : UTF-8
Codec ID : S_TEXT/UTF8
Codec ID/Info : UTF-8 Plain Text
Duration : 1 h 5 min
Bit rate : 56 b/s
Frame rate : 0.197 FPS
Count of elements : 779
Stream size : 27.3 KiB (0%)
Language : Finnish
Default : No
Forced : No

Text #10
ID : 12
Format : UTF-8
Codec ID : S_TEXT/UTF8
Codec ID/Info : UTF-8 Plain Text
Duration : 1 h 5 min
Bit rate : 65 b/s
Frame rate : 0.233 FPS
Count of elements : 917
Stream size : 31.5 KiB (0%)
Language : French
Default : No
Forced : No

Text #11
ID : 13
Format : UTF-8
Codec ID : S_TEXT/UTF8
Codec ID/Info : UTF-8 Plain Text
Duration : 1 h 5 min
Bit rate : 68 b/s
Frame rate : 0.231 FPS
Count of elements : 911
Stream size : 32.8 KiB (0%)
Language : German
Default : No
Forced : No

Text #12
ID : 14
Format : UTF-8
Codec ID : S_TEXT/UTF8
Codec ID/Info : UTF-8 Plain Text
Duration : 1 h 5 min
Bit rate : 119 b/s
Frame rate : 0.225 FPS
Count of elements : 888
Stream size : 57.4 KiB (0%)
Language : Greek
Default : No
Forced : No

Text #13
ID : 15
Format : UTF-8
Codec ID : S_TEXT/UTF8
Codec ID/Info : UTF-8 Plain Text
Duration : 1 h 5 min
Bit rate : 109 b/s
Frame rate : 0.219 FPS
Count of elements : 865
Stream size : 52.6 KiB (0%)
Language : Hebrew
Default : No
Forced : No

Text #14
ID : 16
Format : UTF-8
Codec ID : S_TEXT/UTF8
Codec ID/Info : UTF-8 Plain Text
Duration : 1 h 5 min
Bit rate : 64 b/s
Frame rate : 0.233 FPS
Count of elements : 918
Stream size : 31.2 KiB (0%)
Language : Hungarian
Default : No
Forced : No

Text #15
ID : 17
Format : UTF-8
Codec ID : S_TEXT/UTF8
Codec ID/Info : UTF-8 Plain Text
Duration : 1 h 5 min
Bit rate : 61 b/s
Frame rate : 0.200 FPS
Count of elements : 788
Stream size : 29.6 KiB (0%)
Language : Indonesian
Default : No
Forced : No

Text #16
ID : 18
Format : UTF-8
Codec ID : S_TEXT/UTF8
Codec ID/Info : UTF-8 Plain Text
Duration : 1 h 5 min
Bit rate : 57 b/s
Frame rate : 0.214 FPS
Count of elements : 843
Stream size : 27.6 KiB (0%)
Language : Italian
Default : No
Forced : No

Text #17
ID : 19
Format : UTF-8
Codec ID : S_TEXT/UTF8
Codec ID/Info : UTF-8 Plain Text
Duration : 1 h 5 min
Bit rate : 65 b/s
Frame rate : 0.200 FPS
Count of elements : 787
Stream size : 31.3 KiB (0%)
Language : Japanese
Default : No
Forced : No

Text #18
ID : 20
Format : UTF-8
Codec ID : S_TEXT/UTF8
Codec ID/Info : UTF-8 Plain Text
Duration : 1 h 5 min
Bit rate : 83 b/s
Frame rate : 0.234 FPS
Count of elements : 921
Stream size : 40.0 KiB (0%)
Language : Korean
Default : No
Forced : No

Text #19
ID : 21
Format : UTF-8
Codec ID : S_TEXT/UTF8
Codec ID/Info : UTF-8 Plain Text
Duration : 1 h 5 min
Bit rate : 61 b/s
Frame rate : 0.231 FPS
Count of elements : 911
Stream size : 29.5 KiB (0%)
Language : Norwegian Bokmal
Default : No
Forced : No

Text #20
ID : 22
Format : UTF-8
Codec ID : S_TEXT/UTF8
Codec ID/Info : UTF-8 Plain Text
Duration : 1 h 5 min
Bit rate : 58 b/s
Frame rate : 0.219 FPS
Count of elements : 866
Stream size : 28.4 KiB (0%)
Language : Polish
Default : No
Forced : No

Text #21
ID : 23
Format : UTF-8
Codec ID : S_TEXT/UTF8
Codec ID/Info : UTF-8 Plain Text
Duration : 1 h 5 min
Bit rate : 62 b/s
Frame rate : 0.231 FPS
Count of elements : 910
Stream size : 30.2 KiB (0%)
Title : Brazilian
Language : Portuguese (BR)
Default : No
Forced : No

Text #22
ID : 24
Format : UTF-8
Codec ID : S_TEXT/UTF8
Codec ID/Info : UTF-8 Plain Text
Duration : 1 h 5 min
Bit rate : 66 b/s
Frame rate : 0.234 FPS
Count of elements : 913
Stream size : 31.6 KiB (0%)
Title : Iberian
Language : Portuguese (PT)
Default : No
Forced : No

Text #23
ID : 25
Format : UTF-8
Codec ID : S_TEXT/UTF8
Codec ID/Info : UTF-8 Plain Text
Duration : 1 h 5 min
Bit rate : 71 b/s
Frame rate : 0.226 FPS
Count of elements : 892
Stream size : 34.3 KiB (0%)
Language : Romanian
Default : No
Forced : No

Text #24
ID : 26
Format : UTF-8
Codec ID : S_TEXT/UTF8
Codec ID/Info : UTF-8 Plain Text
Duration : 1 h 5 min
Bit rate : 98 b/s
Frame rate : 0.217 FPS
Count of elements : 855
Stream size : 47.3 KiB (0%)
Language : Russian
Default : No
Forced : No

Text #25
ID : 27
Format : UTF-8
Codec ID : S_TEXT/UTF8
Codec ID/Info : UTF-8 Plain Text
Duration : 1 h 5 min
Bit rate : 63 b/s
Frame rate : 0.230 FPS
Count of elements : 909
Stream size : 30.5 KiB (0%)
Title : Castilian
Language : Spanish (ES)
Default : No
Forced : No

Text #26
ID : 28
Format : UTF-8
Codec ID : S_TEXT/UTF8
Codec ID/Info : UTF-8 Plain Text
Duration : 1 h 5 min
Bit rate : 67 b/s
Frame rate : 0.219 FPS
Count of elements : 865
Stream size : 32.5 KiB (0%)
Title : Latin American
Language : Spanish (Latin America)
Default : No
Forced : No

Text #27
ID : 29
Format : UTF-8
Codec ID : S_TEXT/UTF8
Codec ID/Info : UTF-8 Plain Text
Duration : 1 h 5 min
Bit rate : 60 b/s
Frame rate : 0.176 FPS
Count of elements : 695
Stream size : 29.0 KiB (0%)
Language : Swedish
Default : No
Forced : No

Text #28
ID : 30
Format : UTF-8
Codec ID : S_TEXT/UTF8
Codec ID/Info : UTF-8 Plain Text
Duration : 1 h 5 min
Bit rate : 157 b/s
Frame rate : 0.233 FPS
Count of elements : 917
Stream size : 76.0 KiB (0%)
Language : Thai
Default : No
Forced : No

Text #29
ID : 31
Format : UTF-8
Codec ID : S_TEXT/UTF8
Codec ID/Info : UTF-8 Plain Text
Duration : 1 h 5 min
Bit rate : 67 b/s
Frame rate : 0.232 FPS
Count of elements : 916
Stream size : 32.6 KiB (0%)
Language : Turkish
Default : No
Forced : No

Text #30
ID : 32
Format : UTF-8
Codec ID : S_TEXT/UTF8
Codec ID/Info : UTF-8 Plain Text
Duration : 1 h 5 min
Bit rate : 95 b/s
Frame rate : 0.233 FPS
Count of elements : 918
Stream size : 46.1 KiB (0%)
Language : Vietnamese
Default : No
Forced : No

推荐使用qBittorrent、uTorrent、BitComet等下载软件,有条件的推荐115或会员软件下载!

下载地址

游客,如果您要查看本帖隐藏内容请回复





上一篇:特拉维斯·斯科特:妈妈你看,我会飞[简繁中字](2019) 4K高...
下一篇:去他的爱:再次中招 [简繁中字] (2022) 4K高清版下载
回复

使用道具 举报

您需要登录后才可以回帖 登录 | 立即注册

本版积分规则

精彩图文
Archiver|手机版|TAG|Sitemap|新帖|专题|联系我们:邮箱: 4kjia.com@gmail.com   

4k家园   ©2019