[4K电影] 疗伤旅程 [简繁中字] / Yolun Açik Olsun (2022) 4K高清版下载

[复制链接]

主题

帖子

0

积分

超级版主

Rank: 8Rank: 8

积分
0
 楼主| 发表于 2022-12-30 10:44:59 | 显示全部楼层 |阅读模式
本帖最后由 最爱4K哟 于 2022-12-30 11:30 编辑

QQ图片20221230112329_副本.png

◎译  名 疗伤旅程 / Godspeed
◎片  名 Yolun Açik Olsun
◎年  代 2022
◎产  地 土耳其
◎类  别 剧情
◎语  言 土耳其语
◎上映日期 2022-05-23(土耳其)
◎IMDb评分 6.5/10 from 2236 users 更新 : 2022-12-27
◎IMDb链接 https://www.imdb.com/title/tt14766956/
◎豆瓣评分 0/10 from 0 users
◎豆瓣链接 https://movie.douban.com/subject/35884499/
◎导  演 梅米特·艾达·厄兹泰金 / Mehmet Ada Öztekin
◎演  员 恩金.阿克尤莱卡 / Engin Akyürek

◎简  介 

  一名前陆军上尉前往达利安,阻止他朋友的心上人嫁给另一个男人,而一场战斗悲剧带来的悲痛和创伤破坏了他的旅程。

Video
ID : 1
Format : HEVC
Format/Info : High Efficiency Video Coding
Format profile : Main 10@L5@Main
Codec ID : V_MPEGH/ISO/HEVC
Duration : 1 h 58 min
Bit rate : 13.4 Mb/s
Width : 3 840 pixels
Height : 2 160 pixels
Display aspect ratio : 16:9
Frame rate mode : Constant
Frame rate : 24.000 FPS
Color space : YUV
Chroma subsampling : 4:2:0
Bit depth : 10 bits
Bits/(Pixel*Frame) : 0.067
Stream size : 11.1 GiB (95%)
Default : Yes
Forced : No
Color range : Limited
Color primaries : BT.709
Transfer characteristics : BT.709
Matrix coefficients : BT.709

Audio
ID : 2
Format : E-AC-3 JOC
Format/Info : Enhanced AC-3 with Joint Object Coding
Commercial name : Dolby Digital Plus with Dolby Atmos
Codec ID : A_EAC3
Duration : 1 h 58 min
Bit rate mode : Constant
Bit rate : 768 kb/s
Channel(s) : 6 channels
Channel layout : L R C LFE Ls Rs
Sampling rate : 48.0 kHz
Frame rate : 31.250 FPS (1536 SPF)
Compression mode : Lossy
Stream size : 650 MiB (5%)
Language : Turkish
Service kind : Complete Main
Default : Yes
Forced : No
Complexity index : 16
Number of dynamic objects : 15
Bed channel count : 1 channel
Bed channel configuration : LFE

Text #1
ID : 3
Format : UTF-8
Codec ID : S_TEXT/UTF8
Codec ID/Info : UTF-8 Plain Text
Duration : 1 h 57 min
Bit rate : 39 b/s
Frame rate : 0.165 FPS
Count of elements : 1162
Stream size : 34.4 KiB (0%)
Language : English
Default : Yes
Forced : No

Text #2
ID : 4
Format : UTF-8
Codec ID : S_TEXT/UTF8
Codec ID/Info : UTF-8 Plain Text
Duration : 1 h 57 min
Bit rate : 71 b/s
Frame rate : 0.166 FPS
Count of elements : 1172
Stream size : 61.3 KiB (0%)
Language : Arabic
Default : No
Forced : No

Text #3
ID : 5
Format : UTF-8
Codec ID : S_TEXT/UTF8
Codec ID/Info : UTF-8 Plain Text
Duration : 1 h 57 min
Bit rate : 37 b/s
Frame rate : 0.167 FPS
Count of elements : 1178
Stream size : 32.2 KiB (0%)
Title : 简体
Language : Chinese (Simplied)
Default : No
Forced : No

Text #4
ID : 6
Format : UTF-8
Codec ID : S_TEXT/UTF8
Codec ID/Info : UTF-8 Plain Text
Duration : 1 h 57 min
Bit rate : 36 b/s
Frame rate : 0.167 FPS
Count of elements : 1178
Stream size : 31.3 KiB (0%)
Title : 繁体
Language : Chinese (Traditional)
Default : No
Forced : No

Text #5
ID : 7
Format : UTF-8
Codec ID : S_TEXT/UTF8
Codec ID/Info : UTF-8 Plain Text
Duration : 1 h 57 min
Bit rate : 34 b/s
Frame rate : 0.167 FPS
Count of elements : 1178
Stream size : 30.1 KiB (0%)
Language : Croatian
Default : No
Forced : No

Text #6
ID : 8
Format : UTF-8
Codec ID : S_TEXT/UTF8
Codec ID/Info : UTF-8 Plain Text
Duration : 1 h 57 min
Bit rate : 36 b/s
Frame rate : 0.167 FPS
Count of elements : 1177
Stream size : 31.3 KiB (0%)
Language : Czech
Default : No
Forced : No

Text #7
ID : 9
Format : UTF-8
Codec ID : S_TEXT/UTF8
Codec ID/Info : UTF-8 Plain Text
Duration : 1 h 57 min
Bit rate : 38 b/s
Frame rate : 0.161 FPS
Count of elements : 1134
Stream size : 33.2 KiB (0%)
Language : Danish
Default : No
Forced : No

Text #8
ID : 10
Format : UTF-8
Codec ID : S_TEXT/UTF8
Codec ID/Info : UTF-8 Plain Text
Duration : 1 h 57 min
Bit rate : 35 b/s
Frame rate : 0.153 FPS
Count of elements : 1077
Stream size : 30.8 KiB (0%)
Language : Dutch
Default : No
Forced : No

Text #9
ID : 11
Format : UTF-8
Codec ID : S_TEXT/UTF8
Codec ID/Info : UTF-8 Plain Text
Duration : 1 h 57 min
Bit rate : 37 b/s
Frame rate : 0.165 FPS
Count of elements : 1163
Stream size : 32.5 KiB (0%)
Language : Finnish
Default : No
Forced : No

Text #10
ID : 12
Format : UTF-8
Codec ID : S_TEXT/UTF8
Codec ID/Info : UTF-8 Plain Text
Duration : 1 h 57 min
Bit rate : 38 b/s
Frame rate : 0.155 FPS
Count of elements : 1091
Stream size : 33.0 KiB (0%)
Language : French
Default : No
Forced : No

Text #11
ID : 13
Format : UTF-8
Codec ID : S_TEXT/UTF8
Codec ID/Info : UTF-8 Plain Text
Duration : 1 h 57 min
Bit rate : 36 b/s
Frame rate : 0.157 FPS
Count of elements : 1112
Stream size : 31.4 KiB (0%)
Language : German
Default : No
Forced : No

Text #12
ID : 14
Format : UTF-8
Codec ID : S_TEXT/UTF8
Codec ID/Info : UTF-8 Plain Text
Duration : 1 h 57 min
Bit rate : 63 b/s
Frame rate : 0.161 FPS
Count of elements : 1139
Stream size : 55.1 KiB (0%)
Language : Greek
Default : No
Forced : No

Text #13
ID : 15
Format : UTF-8
Codec ID : S_TEXT/UTF8
Codec ID/Info : UTF-8 Plain Text
Duration : 1 h 57 min
Bit rate : 63 b/s
Frame rate : 0.167 FPS
Count of elements : 1180
Stream size : 54.9 KiB (0%)
Language : Hebrew
Default : No
Forced : No

Text #14
ID : 16
Format : UTF-8
Codec ID : S_TEXT/UTF8
Codec ID/Info : UTF-8 Plain Text
Duration : 1 h 57 min
Bit rate : 36 b/s
Frame rate : 0.162 FPS
Count of elements : 1141
Stream size : 31.1 KiB (0%)
Language : Hungarian
Default : No
Forced : No

Text #15
ID : 17
Format : UTF-8
Codec ID : S_TEXT/UTF8
Codec ID/Info : UTF-8 Plain Text
Duration : 1 h 57 min
Bit rate : 38 b/s
Frame rate : 0.167 FPS
Count of elements : 1181
Stream size : 33.5 KiB (0%)
Language : Indonesian
Default : No
Forced : No

Text #16
ID : 18
Format : UTF-8
Codec ID : S_TEXT/UTF8
Codec ID/Info : UTF-8 Plain Text
Duration : 1 h 57 min
Bit rate : 36 b/s
Frame rate : 0.161 FPS
Count of elements : 1139
Stream size : 31.7 KiB (0%)
Language : Italian
Default : No
Forced : No

Text #17
ID : 19
Format : UTF-8
Codec ID : S_TEXT/UTF8
Codec ID/Info : UTF-8 Plain Text
Duration : 1 h 53 min
Bit rate : 34 b/s
Frame rate : 0.179 FPS
Count of elements : 1218
Stream size : 28.7 KiB (0%)
Language : Japanese
Default : No
Forced : No

Text #18
ID : 20
Format : UTF-8
Codec ID : S_TEXT/UTF8
Codec ID/Info : UTF-8 Plain Text
Duration : 1 h 57 min
Bit rate : 42 b/s
Frame rate : 0.165 FPS
Count of elements : 1167
Stream size : 36.8 KiB (0%)
Language : Korean
Default : No
Forced : No

Text #19
ID : 21
Format : UTF-8
Codec ID : S_TEXT/UTF8
Codec ID/Info : UTF-8 Plain Text
Duration : 1 h 57 min
Bit rate : 37 b/s
Frame rate : 0.163 FPS
Count of elements : 1150
Stream size : 32.3 KiB (0%)
Language : Malay
Default : No
Forced : No

Text #20
ID : 22
Format : UTF-8
Codec ID : S_TEXT/UTF8
Codec ID/Info : UTF-8 Plain Text
Duration : 1 h 53 min
Bit rate : 37 b/s
Frame rate : 0.167 FPS
Count of elements : 1138
Stream size : 31.4 KiB (0%)
Language : Norwegian Bokmal
Default : No
Forced : No

Text #21
ID : 23
Format : UTF-8
Codec ID : S_TEXT/UTF8
Codec ID/Info : UTF-8 Plain Text
Duration : 1 h 57 min
Bit rate : 35 b/s
Frame rate : 0.161 FPS
Count of elements : 1135
Stream size : 30.3 KiB (0%)
Language : Polish
Default : No
Forced : No

Text #22
ID : 24
Format : UTF-8
Codec ID : S_TEXT/UTF8
Codec ID/Info : UTF-8 Plain Text
Duration : 1 h 57 min
Bit rate : 38 b/s
Frame rate : 0.165 FPS
Count of elements : 1166
Stream size : 33.4 KiB (0%)
Title : Brazilian
Language : Portuguese (BR)
Default : No
Forced : No

Text #23
ID : 25
Format : UTF-8
Codec ID : S_TEXT/UTF8
Codec ID/Info : UTF-8 Plain Text
Duration : 1 h 57 min
Bit rate : 38 b/s
Frame rate : 0.171 FPS
Count of elements : 1206
Stream size : 33.4 KiB (0%)
Title : Iberian
Language : Portuguese (PT)
Default : No
Forced : No

Text #24
ID : 26
Format : UTF-8
Codec ID : S_TEXT/UTF8
Codec ID/Info : UTF-8 Plain Text
Duration : 1 h 57 min
Bit rate : 37 b/s
Frame rate : 0.149 FPS
Count of elements : 1053
Stream size : 32.7 KiB (0%)
Language : Romanian
Default : No
Forced : No

Text #25
ID : 27
Format : UTF-8
Codec ID : S_TEXT/UTF8
Codec ID/Info : UTF-8 Plain Text
Duration : 1 h 57 min
Bit rate : 62 b/s
Frame rate : 0.159 FPS
Count of elements : 1127
Stream size : 54.0 KiB (0%)
Language : Russian
Default : No
Forced : No

Text #26
ID : 28
Format : UTF-8
Codec ID : S_TEXT/UTF8
Codec ID/Info : UTF-8 Plain Text
Duration : 1 h 57 min
Bit rate : 37 b/s
Frame rate : 0.165 FPS
Count of elements : 1163
Stream size : 32.6 KiB (0%)
Title : Castilian
Language : Spanish (ES)
Default : No
Forced : No

Text #27
ID : 29
Format : UTF-8
Codec ID : S_TEXT/UTF8
Codec ID/Info : UTF-8 Plain Text
Duration : 1 h 57 min
Bit rate : 40 b/s
Frame rate : 0.161 FPS
Count of elements : 1140
Stream size : 35.2 KiB (0%)
Title : Latin American
Language : Spanish (Latin America)
Default : No
Forced : No

Text #28
ID : 30
Format : UTF-8
Codec ID : S_TEXT/UTF8
Codec ID/Info : UTF-8 Plain Text
Duration : 1 h 57 min
Bit rate : 35 b/s
Frame rate : 0.150 FPS
Count of elements : 1056
Stream size : 30.9 KiB (0%)
Language : Swedish
Default : No
Forced : No

Text #29
ID : 31
Format : UTF-8
Codec ID : S_TEXT/UTF8
Codec ID/Info : UTF-8 Plain Text
Duration : 1 h 57 min
Bit rate : 94 b/s
Frame rate : 0.167 FPS
Count of elements : 1181
Stream size : 81.2 KiB (0%)
Language : Thai
Default : No
Forced : No

Text #30
ID : 32
Format : UTF-8
Codec ID : S_TEXT/UTF8
Codec ID/Info : UTF-8 Plain Text
Duration : 1 h 57 min
Bit rate : 47 b/s
Frame rate : 0.182 FPS
Count of elements : 1277
Stream size : 40.8 KiB (0%)
Language : Turkish
Default : No
Forced : No

Text #31
ID : 33
Format : UTF-8
Codec ID : S_TEXT/UTF8
Codec ID/Info : UTF-8 Plain Text
Duration : 1 h 57 min
Bit rate : 56 b/s
Frame rate : 0.216 FPS
Count of elements : 1522
Stream size : 48.8 KiB (0%)
Title : SDH
Language : Turkish
Default : No
Forced : No

Text #32
ID : 34
Format : UTF-8
Codec ID : S_TEXT/UTF8
Codec ID/Info : UTF-8 Plain Text
Duration : 1 h 57 min
Bit rate : 61 b/s
Frame rate : 0.163 FPS
Count of elements : 1152
Stream size : 53.3 KiB (0%)
Language : Ukrainian
Default : No
Forced : No

Text #33
ID : 35
Format : UTF-8
Codec ID : S_TEXT/UTF8
Codec ID/Info : UTF-8 Plain Text
Duration : 1 h 57 min
Bit rate : 47 b/s
Frame rate : 0.167 FPS
Count of elements : 1178
Stream size : 40.8 KiB (0%)
Language : Vietnamese
Default : No
Forced : No

推荐使用qBittorrent、uTorrent、BitComet等下载软件,有条件的推荐115或会员软件下载!

下载地址


游客,如果您要查看本帖隐藏内容请回复






上一篇:谁杀了调查记者 [简繁中字] (2021) 4K高清版下载
下一篇:罪证子弹2 [简繁中字] /Balle perdue 2 (2022) 4K高清版下载
回复

使用道具 举报

您需要登录后才可以回帖 登录 | 立即注册

本版积分规则

精彩图文
Archiver|手机版|TAG|Sitemap|新帖|专题|联系我们:邮箱: 4kjia.com@gmail.com   

4k家园   ©2019