[4K电影] 稳操胜券 [简繁中字] / She's Gotta Have It (1986) 4K高清版下载

[复制链接]

主题

帖子

0

积分

超级版主

Rank: 8Rank: 8

积分
0
 楼主| 发表于 2022-12-30 12:24:17 | 显示全部楼层 |阅读模式
本帖最后由 最爱4K哟 于 2022-12-30 12:44 编辑

QQ图片20221230124612_副本.png

◎译  名 稳操胜券/她说了算/永不妥协/美梦成箴(台)
◎片  名 She's Gotta Have It
◎年  代 1986
◎产  地 美国
◎类  别 喜剧 / 爱情
◎语  言 英语
◎上映日期 1986-08-08
◎IMDb评分 6.8/10 from 14915 users 更新 : 2022-12-28
◎IMDb链接 https://www.imdb.com/title/tt0091939/
◎豆瓣评分 7.8/10 from 466 users
◎豆瓣链接 https://movie.douban.com/subject/1294409/
◎片  长 84分钟
◎导  演 斯派克·李 Spike Lee
◎编  剧 斯派克·李 Spike Lee
◎主  演 翠西·卡米拉·约翰斯 Tracy Camilla Johns
      斯派克·李 Spike Lee
      汤米·雷德蒙德·希克斯 Tommy Redmond Hicks


◎简  介

  诺拉?达林是个住在纽约布鲁克林区的年轻黑人妇女。她与三个男人有性关系:体贴但保护过度的杰米;富有但傲慢的格里尔;风趣但幼稚的马斯。三人都想独占她的爱,但诺拉想维持她的独立,拒绝选定一个单一伴侣。三个追求者的急躁——和不安全感——迫使她做出选择,但不久后,她开始怀疑自己是否选择了那个正确的人,甚至怀疑她到底需不需要一个男人。

◎获奖情况

  第39届戛纳电影节 ?(1986)
  青年电影奖外国电影 斯派克·李
Video
ID : 1
Format : HEVC
Format/Info : High Efficiency Video Coding
Format profile : Main 10@L5@Main
Codec ID : V_MPEGH/ISO/HEVC
Duration : 1 h 24 min
Bit rate : 12.0 Mb/s
Width : 3 840 pixels
Height : 2 160 pixels
Display aspect ratio : 16:9
Frame rate mode : Constant
Frame rate : 23.976 (24000/1001) FPS
Color space : YUV
Chroma subsampling : 4:2:0
Bit depth : 10 bits
Bits/(Pixel*Frame) : 0.060
Stream size : 7.06 GiB (95%)
Default : Yes
Forced : No
Color range : Limited
Color primaries : BT.709
Transfer characteristics : BT.709
Matrix coefficients : BT.709

Audio
ID : 2
Format : E-AC-3
Format/Info : Enhanced AC-3
Commercial name : Dolby Digital Plus
Codec ID : A_EAC3
Duration : 1 h 24 min
Bit rate mode : Constant
Bit rate : 640 kb/s
Channel(s) : 6 channels
Channel layout : L R C LFE Ls Rs
Sampling rate : 48.0 kHz
Frame rate : 31.250 FPS (1536 SPF)
Compression mode : Lossy
Stream size : 385 MiB (5%)
Language : English
Service kind : Complete Main
Default : Yes
Forced : No

Text #1
ID : 3
Format : UTF-8
Codec ID : S_TEXT/UTF8
Codec ID/Info : UTF-8 Plain Text
Duration : 1 h 18 min
Bit rate : 72 b/s
Frame rate : 0.241 FPS
Count of elements : 1132
Stream size : 41.5 KiB (0%)
Language : English
Default : No
Forced : No

Text #2
ID : 4
Format : UTF-8
Codec ID : S_TEXT/UTF8
Codec ID/Info : UTF-8 Plain Text
Duration : 1 h 18 min
Bit rate : 74 b/s
Frame rate : 0.251 FPS
Count of elements : 1178
Stream size : 42.8 KiB (0%)
Title : SDH
Language : English
Default : No
Forced : No

Text #3
ID : 5
Format : UTF-8
Codec ID : S_TEXT/UTF8
Codec ID/Info : UTF-8 Plain Text
Duration : 1 h 24 min
Bit rate : 96 b/s
Frame rate : 0.222 FPS
Count of elements : 1123
Stream size : 59.8 KiB (0%)
Language : Arabic
Default : No
Forced : No

Text #4
ID : 6
Format : UTF-8
Codec ID : S_TEXT/UTF8
Codec ID/Info : UTF-8 Plain Text
Duration : 1 h 24 min
Bit rate : 58 b/s
Frame rate : 0.222 FPS
Count of elements : 1123
Stream size : 36.2 KiB (0%)
Title : 简体
Language : Chinese (Simplied)

Default : No
Forced : No

Text #5
ID : 7
Format : UTF-8
Codec ID : S_TEXT/UTF8
Codec ID/Info : UTF-8 Plain Text
Duration : 1 h 24 min
Bit rate : 55 b/s
Frame rate : 0.222 FPS
Count of elements : 1123
Stream size : 34.4 KiB (0%)
Title : 繁体
Language : Chinese (Traditional)

Default : No
Forced : No

Text #6
ID : 8
Format : UTF-8
Codec ID : S_TEXT/UTF8
Codec ID/Info : UTF-8 Plain Text
Duration : 1 h 24 min
Bit rate : 57 b/s
Frame rate : 0.219 FPS
Count of elements : 1106
Stream size : 35.4 KiB (0%)
Language : Danish
Default : No
Forced : No

Text #7
ID : 9
Format : UTF-8
Codec ID : S_TEXT/UTF8
Codec ID/Info : UTF-8 Plain Text
Duration : 1 h 24 min
Bit rate : 54 b/s
Frame rate : 0.211 FPS
Count of elements : 1065
Stream size : 33.7 KiB (0%)
Language : Dutch
Default : No
Forced : No

Text #8
ID : 10
Format : UTF-8
Codec ID : S_TEXT/UTF8
Codec ID/Info : UTF-8 Plain Text
Duration : 1 h 24 min
Bit rate : 59 b/s
Frame rate : 0.218 FPS
Count of elements : 1101
Stream size : 36.8 KiB (0%)
Language : Finnish
Default : No
Forced : No

Text #9
ID : 11
Format : UTF-8
Codec ID : S_TEXT/UTF8
Codec ID/Info : UTF-8 Plain Text
Duration : 1 h 24 min
Bit rate : 55 b/s
Frame rate : 0.214 FPS
Count of elements : 1082
Stream size : 34.3 KiB (0%)
Language : French
Default : No
Forced : No

Text #10
ID : 12
Format : UTF-8
Codec ID : S_TEXT/UTF8
Codec ID/Info : UTF-8 Plain Text
Duration : 1 h 24 min
Bit rate : 54 b/s
Frame rate : 0.214 FPS
Count of elements : 1080
Stream size : 33.9 KiB (0%)
Language : German
Default : No
Forced : No

Text #11
ID : 13
Format : UTF-8
Codec ID : S_TEXT/UTF8
Codec ID/Info : UTF-8 Plain Text
Duration : 1 h 24 min
Bit rate : 94 b/s
Frame rate : 0.221 FPS
Count of elements : 1115
Stream size : 58.1 KiB (0%)
Language : Greek
Default : No
Forced : No

Text #12
ID : 14
Format : UTF-8
Codec ID : S_TEXT/UTF8
Codec ID/Info : UTF-8 Plain Text
Duration : 1 h 24 min
Bit rate : 86 b/s
Frame rate : 0.222 FPS
Count of elements : 1123
Stream size : 53.1 KiB (0%)
Language : Hebrew
Default : No
Forced : No

Text #13
ID : 15
Format : UTF-8
Codec ID : S_TEXT/UTF8
Codec ID/Info : UTF-8 Plain Text
Duration : 1 h 24 min
Bit rate : 57 b/s
Frame rate : 0.218 FPS
Count of elements : 1100
Stream size : 35.6 KiB (0%)
Language : Italian
Default : No
Forced : No

Text #14
ID : 16
Format : UTF-8
Codec ID : S_TEXT/UTF8
Codec ID/Info : UTF-8 Plain Text
Duration : 1 h 24 min
Bit rate : 49 b/s
Frame rate : 0.233 FPS
Count of elements : 1176
Stream size : 30.3 KiB (0%)
Language : Japanese
Default : No
Forced : No

Text #15
ID : 17
Format : UTF-8
Codec ID : S_TEXT/UTF8
Codec ID/Info : UTF-8 Plain Text
Duration : 1 h 24 min
Bit rate : 63 b/s
Frame rate : 0.222 FPS
Count of elements : 1123
Stream size : 39.4 KiB (0%)
Language : Korean
Default : No
Forced : No

Text #16
ID : 18
Format : UTF-8
Codec ID : S_TEXT/UTF8
Codec ID/Info : UTF-8 Plain Text
Duration : 1 h 24 min
Bit rate : 49 b/s
Frame rate : 0.218 FPS
Count of elements : 1103
Stream size : 30.7 KiB (0%)
Language : Norwegian Bokmal
Default : No
Forced : No

Text #17
ID : 19
Format : UTF-8
Codec ID : S_TEXT/UTF8
Codec ID/Info : UTF-8 Plain Text
Duration : 1 h 24 min
Bit rate : 54 b/s
Frame rate : 0.217 FPS
Count of elements : 1097
Stream size : 33.5 KiB (0%)
Language : Polish
Default : No
Forced : No

Text #18
ID : 20
Format : UTF-8
Codec ID : S_TEXT/UTF8
Codec ID/Info : UTF-8 Plain Text
Duration : 1 h 24 min
Bit rate : 53 b/s
Frame rate : 0.218 FPS
Count of elements : 1102
Stream size : 32.8 KiB (0%)
Title : Brazilian
Language : Portuguese (BR)
Default : No
Forced : No

Text #19
ID : 21
Format : UTF-8
Codec ID : S_TEXT/UTF8
Codec ID/Info : UTF-8 Plain Text
Duration : 1 h 24 min
Bit rate : 57 b/s
Frame rate : 0.219 FPS
Count of elements : 1107
Stream size : 35.1 KiB (0%)
Title : Iberian
Language : Portuguese (PT)
Default : No
Forced : No

Text #20
ID : 22
Format : UTF-8
Codec ID : S_TEXT/UTF8
Codec ID/Info : UTF-8 Plain Text
Duration : 1 h 24 min
Bit rate : 54 b/s
Frame rate : 0.219 FPS
Count of elements : 1105
Stream size : 33.7 KiB (0%)
Language : Romanian
Default : No
Forced : No

Text #21
ID : 23
Format : UTF-8
Codec ID : S_TEXT/UTF8
Codec ID/Info : UTF-8 Plain Text
Duration : 1 h 24 min
Bit rate : 64 b/s
Frame rate : 0.216 FPS
Count of elements : 1091
Stream size : 39.5 KiB (0%)
Title : Castilian
Language : Spanish (ES)
Default : No
Forced : No

Text #22
ID : 24
Format : UTF-8
Codec ID : S_TEXT/UTF8
Codec ID/Info : UTF-8 Plain Text
Duration : 1 h 24 min
Bit rate : 57 b/s
Frame rate : 0.218 FPS
Count of elements : 1102
Stream size : 35.3 KiB (0%)
Title : Latin American
Language : Spanish (Latin America)
Default : No
Forced : No

Text #23
ID : 25
Format : UTF-8
Codec ID : S_TEXT/UTF8
Codec ID/Info : UTF-8 Plain Text
Duration : 1 h 24 min
Bit rate : 55 b/s
Frame rate : 0.218 FPS
Count of elements : 1100
Stream size : 34.1 KiB (0%)
Language : Swedish
Default : No
Forced : No

Text #24
ID : 26
Format : UTF-8
Codec ID : S_TEXT/UTF8
Codec ID/Info : UTF-8 Plain Text
Duration : 1 h 24 min
Bit rate : 147 b/s
Frame rate : 0.222 FPS
Count of elements : 1123
Stream size : 91.1 KiB (0%)
Language : Thai
Default : No
Forced : No

Text #25
ID : 27
Format : UTF-8
Codec ID : S_TEXT/UTF8
Codec ID/Info : UTF-8 Plain Text
Duration : 1 h 24 min
Bit rate : 54 b/s
Frame rate : 0.219 FPS
Count of elements : 1108
Stream size : 33.8 KiB (0%)
Language : Turkish
Default : No
Forced : No

推荐使用qBittorrent、uTorrent、BitComet等下载软件,有条件的推荐115或会员软件下载!

下载地址


游客,如果您要查看本帖隐藏内容请回复





上一篇:罪证子弹2 [简繁中字] /Balle perdue 2 (2022) 4K高清版下载
下一篇:暗网青年毒枭 [简繁中字] /Balle perdue 2 (2021) 4K高清版下载
回复

使用道具 举报

0

主题

4

帖子

15

积分

新手上路

Rank: 1

积分
15
发表于 2023-1-6 19:59:16 来自手机 | 显示全部楼层
下来看看
回复

使用道具 举报

您需要登录后才可以回帖 登录 | 立即注册

本版积分规则

精彩图文
Archiver|手机版|TAG|Sitemap|新帖|专题|联系我们:邮箱: 4kjia.com@gmail.com   

4k家园   ©2019