[4K电影] 我们的父亲 [简繁中字] / Our Father (2022) 4K高清版下载

[复制链接]

主题

帖子

0

积分

超级版主

Rank: 8Rank: 8

积分
0
 楼主| 发表于 2022-12-31 15:14:45 | 显示全部楼层 |阅读模式
本帖最后由 最爱4K哟 于 2022-12-31 15:35 编辑

QQ图片20221231153255_副本.png

◎译  名 我们的父亲/我们的金发蓝眼父亲(台)
◎片  名 Our Father
◎年  代 2022
◎产  地 美国
◎类  别 纪录片/犯罪
◎语  言 英语
◎上映日期 2022-05-11(美国)
◎IMDb评分 6.6/10 from 12270 users 更新 : 2022-12-30
◎IMDb链接 https://www.imdb.com/title/tt19704638/
◎豆瓣评分 7.7/10 from 4026 users 更新 : 2022-12-31
◎豆瓣链接 https://movie.douban.com/subject/35872405/
◎导  演 露西·乔丹 Lucie Jourdan
◎主  演 唐纳德·克莱恩 Donald Cline
       菲尔·麦格劳 Phil McGraw


◎简  介


  一名女子在家进行DNA鉴定,发现自己拥有许多同父异母的手足,从而揭穿一桩涉及精子捐赠和知名生殖医学医师的惊人阴谋。
Video
ID : 1
Format : HEVC
Format/Info : High Efficiency Video Coding
Format profile : Main 10@L5@Main
HDR format : Dolby Vision, Version 1.0, dvhe.08.06, BL+RPU, HDR10 compatible / SMPTE ST 2086, HDR10 compatible
Codec ID : V_MPEGH/ISO/HEVC
Duration : 1 h 35 min
Bit rate : 14.9 Mb/s
Width : 3 840 pixels
Height : 2 160 pixels
Display aspect ratio : 16:9
Frame rate mode : Constant
Frame rate : 23.976 (24000/1001) FPS
Color space : YUV
Chroma subsampling : 4:2:0 (Type 2)
Bit depth : 10 bits
Bits/(Pixel*Frame) : 0.075
Stream size : 10.0 GiB (95%)
Default : Yes
Forced : No
Color range : Limited
Color primaries : BT.2020
Transfer characteristics : PQ
Matrix coefficients : BT.2020 non-constant
Mastering display color primaries : Display P3
Mastering display luminance : min: 0.0001 cd/m2, max: 1000 cd/m2
Maximum Content Light Level : 9290 cd/m2
Maximum Frame-Average Light Level : 142 cd/m2

Audio
ID : 2
Format : E-AC-3 JOC
Format/Info : Enhanced AC-3 with Joint Object Coding
Commercial name : Dolby Digital Plus with Dolby Atmos
Codec ID : A_EAC3
Duration : 1 h 35 min
Bit rate mode : Constant
Bit rate : 768 kb/s
Channel(s) : 6 channels
Channel layout : L R C LFE Ls Rs
Sampling rate : 48.0 kHz
Frame rate : 31.250 FPS (1536 SPF)
Compression mode : Lossy
Stream size : 527 MiB (5%)
Language : English
Service kind : Complete Main
Default : Yes
Forced : No
Complexity index : 16
Number of dynamic objects : 15
Bed channel count : 1 channel
Bed channel configuration : LFE

Text #1
ID : 3
Format : UTF-8
Codec ID : S_TEXT/UTF8
Codec ID/Info : UTF-8 Plain Text
Duration : 56 min 17 s
Bit rate : 13 b/s
Frame rate : 0.034 FPS
Count of elements : 116
Stream size : 5.69 KiB (0%)
Title : Forced
Language : English
Default : No
Forced : Yes

Text #2
ID : 4
Format : UTF-8
Codec ID : S_TEXT/UTF8
Codec ID/Info : UTF-8 Plain Text
Duration : 1 h 34 min
Bit rate : 83 b/s
Frame rate : 0.253 FPS
Count of elements : 1436
Stream size : 57.7 KiB (0%)
Language : English
Default : No
Forced : No

Text #3
ID : 5
Format : UTF-8
Codec ID : S_TEXT/UTF8
Codec ID/Info : UTF-8 Plain Text
Duration : 1 h 35 min
Bit rate : 90 b/s
Frame rate : 0.284 FPS
Count of elements : 1627
Stream size : 63.4 KiB (0%)
Title : SDH
Language : English
Default : No
Forced : No

Text #4
ID : 6
Format : UTF-8
Codec ID : S_TEXT/UTF8
Codec ID/Info : UTF-8 Plain Text
Duration : 1 h 35 min
Bit rate : 116 b/s
Frame rate : 0.247 FPS
Count of elements : 1416
Stream size : 81.6 KiB (0%)
Language : Arabic
Default : No
Forced : No

Text #5
ID : 7
Format : UTF-8
Codec ID : S_TEXT/UTF8
Codec ID/Info : UTF-8 Plain Text
Duration : 1 h 35 min
Bit rate : 69 b/s
Frame rate : 0.250 FPS
Count of elements : 1431
Stream size : 48.4 KiB (0%)
Title : 简体
Language : Chinese (Simplied)

Default : No
Forced : No

Text #6
ID : 8
Format : UTF-8
Codec ID : S_TEXT/UTF8
Codec ID/Info : UTF-8 Plain Text
Duration : 1 h 35 min
Bit rate : 62 b/s
Frame rate : 0.229 FPS
Count of elements : 1311
Stream size : 44.0 KiB (0%)
Title : 繁体
Language : Chinese (Traditional)

Default : No
Forced : No

Text #7
ID : 9
Format : UTF-8
Codec ID : S_TEXT/UTF8
Codec ID/Info : UTF-8 Plain Text
Duration : 1 h 35 min
Bit rate : 67 b/s
Frame rate : 0.231 FPS
Count of elements : 1323
Stream size : 47.2 KiB (0%)
Language : Croatian
Default : No
Forced : No

Text #8
ID : 10
Format : UTF-8
Codec ID : S_TEXT/UTF8
Codec ID/Info : UTF-8 Plain Text
Duration : 1 h 35 min
Bit rate : 76 b/s
Frame rate : 0.228 FPS
Count of elements : 1310
Stream size : 53.4 KiB (0%)
Language : Czech
Default : No
Forced : No

Text #9
ID : 11
Format : UTF-8
Codec ID : S_TEXT/UTF8
Codec ID/Info : UTF-8 Plain Text
Duration : 1 h 35 min
Bit rate : 75 b/s
Frame rate : 0.204 FPS
Count of elements : 1168
Stream size : 52.6 KiB (0%)
Language : Danish
Default : No
Forced : No

Text #10
ID : 12
Format : UTF-8
Codec ID : S_TEXT/UTF8
Codec ID/Info : UTF-8 Plain Text
Duration : 1 h 35 min
Bit rate : 73 b/s
Frame rate : 0.218 FPS
Count of elements : 1252
Stream size : 51.7 KiB (0%)
Language : Dutch
Default : No
Forced : No

Text #11
ID : 13
Format : UTF-8
Codec ID : S_TEXT/UTF8
Codec ID/Info : UTF-8 Plain Text
Duration : 1 h 35 min
Bit rate : 72 b/s
Frame rate : 0.225 FPS
Count of elements : 1291
Stream size : 50.9 KiB (0%)
Language : Finnish
Default : No
Forced : No

Text #12
ID : 14
Format : UTF-8
Codec ID : S_TEXT/UTF8
Codec ID/Info : UTF-8 Plain Text
Duration : 1 h 35 min
Bit rate : 74 b/s
Frame rate : 0.249 FPS
Count of elements : 1429
Stream size : 52.0 KiB (0%)
Language : French
Default : No
Forced : No

Text #13
ID : 15
Format : UTF-8
Codec ID : S_TEXT/UTF8
Codec ID/Info : UTF-8 Plain Text
Duration : 1 h 35 min
Bit rate : 76 b/s
Frame rate : 0.218 FPS
Count of elements : 1252
Stream size : 53.3 KiB (0%)
Language : German
Default : No
Forced : No

Text #14
ID : 16
Format : UTF-8
Codec ID : S_TEXT/UTF8
Codec ID/Info : UTF-8 Plain Text
Duration : 1 h 35 min
Bit rate : 123 b/s
Frame rate : 0.247 FPS
Count of elements : 1416
Stream size : 86.5 KiB (0%)
Language : Greek
Default : No
Forced : No

Text #15
ID : 17
Format : UTF-8
Codec ID : S_TEXT/UTF8
Codec ID/Info : UTF-8 Plain Text
Duration : 1 h 33 min
Bit rate : 117 b/s
Frame rate : 0.250 FPS
Count of elements : 1405
Stream size : 80.4 KiB (0%)
Language : Hebrew
Default : No
Forced : No

Text #16
ID : 18
Format : UTF-8
Codec ID : S_TEXT/UTF8
Codec ID/Info : UTF-8 Plain Text
Duration : 1 h 35 min
Bit rate : 82 b/s
Frame rate : 0.243 FPS
Count of elements : 1396
Stream size : 58.0 KiB (0%)
Language : Hungarian
Default : No
Forced : No

Text #17
ID : 19
Format : UTF-8
Codec ID : S_TEXT/UTF8
Codec ID/Info : UTF-8 Plain Text
Duration : 1 h 35 min
Bit rate : 80 b/s
Frame rate : 0.249 FPS
Count of elements : 1426
Stream size : 56.1 KiB (0%)
Language : Indonesian
Default : No
Forced : No

Text #18
ID : 20
Format : UTF-8
Codec ID : S_TEXT/UTF8
Codec ID/Info : UTF-8 Plain Text
Duration : 1 h 35 min
Bit rate : 75 b/s
Frame rate : 0.233 FPS
Count of elements : 1339
Stream size : 53.0 KiB (0%)
Language : Italian
Default : No
Forced : No

Text #19
ID : 21
Format : UTF-8
Codec ID : S_TEXT/UTF8
Codec ID/Info : UTF-8 Plain Text
Duration : 1 h 35 min
Bit rate : 92 b/s
Frame rate : 0.264 FPS
Count of elements : 1516
Stream size : 64.7 KiB (0%)
Language : Japanese
Default : No
Forced : No

Text #20
ID : 22
Format : UTF-8
Codec ID : S_TEXT/UTF8
Codec ID/Info : UTF-8 Plain Text
Duration : 1 h 35 min
Bit rate : 86 b/s
Frame rate : 0.256 FPS
Count of elements : 1466
Stream size : 60.3 KiB (0%)
Language : Korean
Default : No
Forced : No

Text #21
ID : 23
Format : UTF-8
Codec ID : S_TEXT/UTF8
Codec ID/Info : UTF-8 Plain Text
Duration : 1 h 35 min
Bit rate : 73 b/s
Frame rate : 0.247 FPS
Count of elements : 1418
Stream size : 51.6 KiB (0%)
Language : Malay
Default : No
Forced : No

Text #22
ID : 24
Format : UTF-8
Codec ID : S_TEXT/UTF8
Codec ID/Info : UTF-8 Plain Text
Duration : 1 h 35 min
Bit rate : 70 b/s
Frame rate : 0.202 FPS
Count of elements : 1158
Stream size : 49.6 KiB (0%)
Language : Norwegian Bokmal
Default : No
Forced : No

Text #23
ID : 25
Format : UTF-8
Codec ID : S_TEXT/UTF8
Codec ID/Info : UTF-8 Plain Text
Duration : 1 h 35 min
Bit rate : 64 b/s
Frame rate : 0.238 FPS
Count of elements : 1364
Stream size : 45.4 KiB (0%)
Language : Polish
Default : No
Forced : No

Text #24
ID : 26
Format : UTF-8
Codec ID : S_TEXT/UTF8
Codec ID/Info : UTF-8 Plain Text
Duration : 1 h 35 min
Bit rate : 75 b/s
Frame rate : 0.249 FPS
Count of elements : 1428
Stream size : 52.7 KiB (0%)
Title : Brazilian
Language : Portuguese (BR)
Default : No
Forced : No

Text #25
ID : 27
Format : UTF-8
Codec ID : S_TEXT/UTF8
Codec ID/Info : UTF-8 Plain Text
Duration : 1 h 35 min
Bit rate : 79 b/s
Frame rate : 0.240 FPS
Count of elements : 1375
Stream size : 56.0 KiB (0%)
Title : Iberian
Language : Portuguese (PT)
Default : No
Forced : No

Text #26
ID : 28
Format : UTF-8
Codec ID : S_TEXT/UTF8
Codec ID/Info : UTF-8 Plain Text
Duration : 1 h 35 min
Bit rate : 77 b/s
Frame rate : 0.224 FPS
Count of elements : 1286
Stream size : 54.6 KiB (0%)
Language : Romanian
Default : No
Forced : No

Text #27
ID : 29
Format : UTF-8
Codec ID : S_TEXT/UTF8
Codec ID/Info : UTF-8 Plain Text
Duration : 1 h 35 min
Bit rate : 132 b/s
Frame rate : 0.239 FPS
Count of elements : 1370
Stream size : 92.6 KiB (0%)
Language : Russian
Default : No
Forced : No

Text #28
ID : 30
Format : UTF-8
Codec ID : S_TEXT/UTF8
Codec ID/Info : UTF-8 Plain Text
Duration : 1 h 35 min
Bit rate : 75 b/s
Frame rate : 0.250 FPS
Count of elements : 1431
Stream size : 52.9 KiB (0%)
Title : Castilian
Language : Spanish (ES)
Default : No
Forced : No

Text #29
ID : 31
Format : UTF-8
Codec ID : S_TEXT/UTF8
Codec ID/Info : UTF-8 Plain Text
Duration : 1 h 33 min
Bit rate : 73 b/s
Frame rate : 0.251 FPS
Count of elements : 1405
Stream size : 50.2 KiB (0%)
Title : Latin American
Language : Spanish (Latin America)
Default : No
Forced : No

Text #30
ID : 32
Format : UTF-8
Codec ID : S_TEXT/UTF8
Codec ID/Info : UTF-8 Plain Text
Duration : 1 h 33 min
Bit rate : 69 b/s
Frame rate : 0.199 FPS
Count of elements : 1116
Stream size : 47.3 KiB (0%)
Language : Swedish
Default : No
Forced : No

Text #31
ID : 33
Format : UTF-8
Codec ID : S_TEXT/UTF8
Codec ID/Info : UTF-8 Plain Text
Duration : 1 h 35 min
Bit rate : 201 b/s
Frame rate : 0.254 FPS
Count of elements : 1458
Stream size : 141 KiB (0%)
Language : Thai
Default : No
Forced : No

Text #32
ID : 34
Format : UTF-8
Codec ID : S_TEXT/UTF8
Codec ID/Info : UTF-8 Plain Text
Duration : 1 h 35 min
Bit rate : 74 b/s
Frame rate : 0.217 FPS
Count of elements : 1243
Stream size : 52.5 KiB (0%)
Language : Turkish
Default : No
Forced : No

Text #33
ID : 35
Format : UTF-8
Codec ID : S_TEXT/UTF8
Codec ID/Info : UTF-8 Plain Text
Duration : 1 h 35 min
Bit rate : 117 b/s
Frame rate : 0.250 FPS
Count of elements : 1432
Stream size : 82.3 KiB (0%)
Language : Ukrainian
Default : No
Forced : No

Text #34
ID : 36
Format : UTF-8
Codec ID : S_TEXT/UTF8
Codec ID/Info : UTF-8 Plain Text
Duration : 1 h 35 min
Bit rate : 101 b/s
Frame rate : 0.248 FPS
Count of elements : 1423
Stream size : 71.0 KiB (0%)
Language : Vietnamese
Default : No
Forced : No

推荐使用qBittorrent、uTorrent、BitComet等下载软件,有条件的推荐115或会员软件下载!

下载地址

游客,如果您要查看本帖隐藏内容请回复





上一篇:慕尼黑:战争边缘 [简繁中字] (2022) 4K高清版下载
下一篇:笑到最后 [简繁中字] / The Last Laugh (2019) 4K高清版下载
回复

使用道具 举报

主题

帖子

0

积分

4K家园VIP

Rank: 9Rank: 9Rank: 9

积分
0
发表于 2023-1-1 14:30:49 | 显示全部楼层
感谢楼主分享
回复 支持 反对

使用道具 举报

0

主题

1

帖子

6

积分

新手上路

Rank: 1

积分
6
发表于 2023-1-1 22:23:05 来自手机 | 显示全部楼层
感谢楼主分享
回复 支持 反对

使用道具 举报

您需要登录后才可以回帖 登录 | 立即注册

本版积分规则

精彩图文
Archiver|手机版|TAG|Sitemap|新帖|专题|联系我们:邮箱: 4kjia.com@gmail.com   

4k家园   ©2019