[4K电影] 调皮小精灵 [简繁中字] / Erax (2022) 4K高清版下载

[复制链接]

主题

帖子

0

积分

超级版主

Rank: 8Rank: 8

积分
0
 楼主| 发表于 2023-1-2 13:17:14 | 显示全部楼层 |阅读模式
本帖最后由 最爱4K哟 于 2023-1-2 13:52 编辑

QQ图片20230102135344_副本.png

◎译  名 调皮小精灵
◎片  名 Erax
◎年  代 2022
◎产  地 美国
◎类  别 悬疑/短片/家庭
◎语  言 英语
◎上映日期 2022-02-17(美国)
◎IMDb评分 4.4/10 from 340 users 更新 : 2022-12-31
◎IMDb链接 https://www.imdb.com/title/tt17162512/
◎豆瓣评分 /10 from 0 users
◎豆瓣链接 https://movie.douban.com/subject/35760153/
◎编  剧 亨利·G·M·琼斯 Henry G.M. Jones
◎主  演 兰斯·格罗斯 Lance Gross
       贾思敏·赛法斯·琼斯 Jasmine Cephas Jones


◎简  介


  在这部令人毛骨悚然的短片中,可怕的生物从魔法故事书中跳出来,给奥珀尔姑姑和她的小侄女妮娜带来了混乱和闹剧
Video
ID : 1
Format : HEVC
Format/Info : High Efficiency Video Coding
Format profile : Main 10@L5@Main
HDR format : Dolby Vision, Version 1.0, dvhe.08.06, BL+RPU, HDR10 compatible / SMPTE ST 2086, HDR10 compatible
Codec ID : V_MPEGH/ISO/HEVC
Duration : 12 min 40 s
Bit rate : 14.9 Mb/s
Width : 3 840 pixels
Height : 2 160 pixels
Display aspect ratio : 16:9
Frame rate mode : Constant
Frame rate : 24.000 FPS
Color space : YUV
Chroma subsampling : 4:2:0 (Type 2)
Bit depth : 10 bits
Bits/(Pixel*Frame) : 0.075
Stream size : 1.32 GiB (96%)
Default : Yes
Forced : No
Color range : Limited
Color primaries : BT.2020
Transfer characteristics : PQ
Matrix coefficients : BT.2020 non-constant
Mastering display color primaries : Display P3
Mastering display luminance : min: 0.0001 cd/m2, max: 1000 cd/m2
Maximum Content Light Level : 1074 cd/m2
Maximum Frame-Average Light Level : 719 cd/m2

Audio
ID : 2
Format : E-AC-3
Format/Info : Enhanced AC-3
Commercial name : Dolby Digital Plus
Codec ID : A_EAC3
Duration : 12 min 40 s
Bit rate mode : Constant
Bit rate : 640 kb/s
Channel(s) : 6 channels
Channel layout : L R C LFE Ls Rs
Sampling rate : 48.0 kHz
Frame rate : 31.250 FPS (1536 SPF)
Compression mode : Lossy
Stream size : 58.0 MiB (4%)
Language : English
Service kind : Complete Main
Default : Yes
Forced : No

Text #1
ID : 3
Format : UTF-8
Codec ID : S_TEXT/UTF8
Codec ID/Info : UTF-8 Plain Text
Duration : 11 min 3 s
Bit rate : 52 b/s
Frame rate : 0.164 FPS
Count of elements : 109
Stream size : 4.24 KiB (0%)
Language : English
Default : No
Forced : No

Text #2
ID : 4
Format : UTF-8
Codec ID : S_TEXT/UTF8
Codec ID/Info : UTF-8 Plain Text
Duration : 11 min 47 s
Bit rate : 71 b/s
Frame rate : 0.280 FPS
Count of elements : 198
Stream size : 6.14 KiB (0%)
Title : SDH
Language : English
Default : No
Forced : No

Text #3
ID : 5
Format : UTF-8
Codec ID : S_TEXT/UTF8
Codec ID/Info : UTF-8 Plain Text
Duration : 12 min 26 s
Bit rate : 62 b/s
Frame rate : 0.141 FPS
Count of elements : 105
Stream size : 5.66 KiB (0%)
Language : Arabic
Default : No
Forced : No

Text #4
ID : 6
Format : UTF-8
Codec ID : S_TEXT/UTF8
Codec ID/Info : UTF-8 Plain Text
Duration : 12 min 26 s
Bit rate : 37 b/s
Frame rate : 0.141 FPS
Count of elements : 105
Stream size : 3.39 KiB (0%)
Title : 简体
Language : Chinese (Simplied)

Default : No
Forced : No

Text #5
ID : 7
Format : UTF-8
Codec ID : S_TEXT/UTF8
Codec ID/Info : UTF-8 Plain Text
Duration : 12 min 26 s
Bit rate : 36 b/s
Frame rate : 0.141 FPS
Count of elements : 105
Stream size : 3.33 KiB (0%)
Title : 繁体
Language : Chinese (Traditional)

Default : No
Forced : No

Text #6
ID : 8
Format : UTF-8
Codec ID : S_TEXT/UTF8
Codec ID/Info : UTF-8 Plain Text
Duration : 12 min 26 s
Bit rate : 29 b/s
Frame rate : 0.133 FPS
Count of elements : 99
Stream size : 2.65 KiB (0%)
Language : Croatian
Default : No
Forced : No

Text #7
ID : 9
Format : UTF-8
Codec ID : S_TEXT/UTF8
Codec ID/Info : UTF-8 Plain Text
Duration : 12 min 26 s
Bit rate : 33 b/s
Frame rate : 0.139 FPS
Count of elements : 104
Stream size : 3.01 KiB (0%)
Language : Czech
Default : No
Forced : No

Text #8
ID : 10
Format : UTF-8
Codec ID : S_TEXT/UTF8
Codec ID/Info : UTF-8 Plain Text
Duration : 12 min 26 s
Bit rate : 32 b/s
Frame rate : 0.133 FPS
Count of elements : 99
Stream size : 2.98 KiB (0%)
Language : Danish
Default : No
Forced : No

Text #9
ID : 11
Format : UTF-8
Codec ID : S_TEXT/UTF8
Codec ID/Info : UTF-8 Plain Text
Duration : 11 min 31 s
Bit rate : 33 b/s
Frame rate : 0.142 FPS
Count of elements : 98
Stream size : 2.83 KiB (0%)
Language : Dutch
Default : No
Forced : No

Text #10
ID : 12
Format : UTF-8
Codec ID : S_TEXT/UTF8
Codec ID/Info : UTF-8 Plain Text
Duration : 12 min 26 s
Bit rate : 29 b/s
Frame rate : 0.137 FPS
Count of elements : 102
Stream size : 2.71 KiB (0%)
Language : Finnish
Default : No
Forced : No

Text #11
ID : 13
Format : UTF-8
Codec ID : S_TEXT/UTF8
Codec ID/Info : UTF-8 Plain Text
Duration : 12 min 26 s
Bit rate : 33 b/s
Frame rate : 0.138 FPS
Count of elements : 103
Stream size : 3.08 KiB (0%)
Language : French
Default : No
Forced : No

Text #12
ID : 14
Format : UTF-8
Codec ID : S_TEXT/UTF8
Codec ID/Info : UTF-8 Plain Text
Duration : 12 min 24 s
Bit rate : 33 b/s
Frame rate : 0.138 FPS
Count of elements : 103
Stream size : 3.00 KiB (0%)
Language : German
Default : No
Forced : No

Text #13
ID : 15
Format : UTF-8
Codec ID : S_TEXT/UTF8
Codec ID/Info : UTF-8 Plain Text
Duration : 12 min 26 s
Bit rate : 55 b/s
Frame rate : 0.142 FPS
Count of elements : 106
Stream size : 5.08 KiB (0%)
Language : Greek
Default : No
Forced : No

Text #14
ID : 16
Format : UTF-8
Codec ID : S_TEXT/UTF8
Codec ID/Info : UTF-8 Plain Text
Duration : 12 min 26 s
Bit rate : 55 b/s
Frame rate : 0.141 FPS
Count of elements : 105
Stream size : 5.10 KiB (0%)
Language : Hebrew
Default : No
Forced : No

Text #15
ID : 17
Format : UTF-8
Codec ID : S_TEXT/UTF8
Codec ID/Info : UTF-8 Plain Text
Duration : 11 min 31 s
Bit rate : 89 b/s
Frame rate : 0.142 FPS
Count of elements : 98
Stream size : 7.55 KiB (0%)
Language : Hindi
Default : No
Forced : No

Text #16
ID : 18
Format : UTF-8
Codec ID : S_TEXT/UTF8
Codec ID/Info : UTF-8 Plain Text
Duration : 12 min 26 s
Bit rate : 32 b/s
Frame rate : 0.135 FPS
Count of elements : 101
Stream size : 2.99 KiB (0%)
Language : Hungarian
Default : No
Forced : No

Text #17
ID : 19
Format : UTF-8
Codec ID : S_TEXT/UTF8
Codec ID/Info : UTF-8 Plain Text
Duration : 12 min 26 s
Bit rate : 34 b/s
Frame rate : 0.141 FPS
Count of elements : 105
Stream size : 3.13 KiB (0%)
Language : Indonesian
Default : No
Forced : No

Text #18
ID : 20
Format : UTF-8
Codec ID : S_TEXT/UTF8
Codec ID/Info : UTF-8 Plain Text
Duration : 12 min 26 s
Bit rate : 33 b/s
Frame rate : 0.147 FPS
Count of elements : 110
Stream size : 3.01 KiB (0%)
Language : Italian
Default : No
Forced : No

Text #19
ID : 21
Format : UTF-8
Codec ID : S_TEXT/UTF8
Codec ID/Info : UTF-8 Plain Text
Duration : 12 min 26 s
Bit rate : 34 b/s
Frame rate : 0.151 FPS
Count of elements : 113
Stream size : 3.10 KiB (0%)
Language : Japanese
Default : No
Forced : No

Text #20
ID : 22
Format : UTF-8
Codec ID : S_TEXT/UTF8
Codec ID/Info : UTF-8 Plain Text
Duration : 12 min 26 s
Bit rate : 41 b/s
Frame rate : 0.147 FPS
Count of elements : 110
Stream size : 3.75 KiB (0%)
Language : Korean
Default : No
Forced : No

Text #21
ID : 23
Format : UTF-8
Codec ID : S_TEXT/UTF8
Codec ID/Info : UTF-8 Plain Text
Duration : 12 min 26 s
Bit rate : 33 b/s
Frame rate : 0.135 FPS
Count of elements : 101
Stream size : 3.04 KiB (0%)
Language : Malay
Default : No
Forced : No

Text #22
ID : 24
Format : UTF-8
Codec ID : S_TEXT/UTF8
Codec ID/Info : UTF-8 Plain Text
Duration : 12 min 26 s
Bit rate : 30 b/s
Frame rate : 0.139 FPS
Count of elements : 104
Stream size : 2.76 KiB (0%)
Language : Norwegian Bokmal
Default : No
Forced : No

Text #23
ID : 25
Format : UTF-8
Codec ID : S_TEXT/UTF8
Codec ID/Info : UTF-8 Plain Text
Duration : 12 min 26 s
Bit rate : 29 b/s
Frame rate : 0.141 FPS
Count of elements : 105
Stream size : 2.65 KiB (0%)
Language : Polish
Default : No
Forced : No

Text #24
ID : 26
Format : UTF-8
Codec ID : S_TEXT/UTF8
Codec ID/Info : UTF-8 Plain Text
Duration : 12 min 27 s
Bit rate : 35 b/s
Frame rate : 0.140 FPS
Count of elements : 105
Stream size : 3.26 KiB (0%)
Title : Brazilian
Language : Portuguese (BR)
Default : No
Forced : No

Text #25
ID : 27
Format : UTF-8
Codec ID : S_TEXT/UTF8
Codec ID/Info : UTF-8 Plain Text
Duration : 12 min 26 s
Bit rate : 32 b/s
Frame rate : 0.142 FPS
Count of elements : 106
Stream size : 3.00 KiB (0%)
Title : Iberian
Language : Portuguese (PT)
Default : No
Forced : No

Text #26
ID : 28
Format : UTF-8
Codec ID : S_TEXT/UTF8
Codec ID/Info : UTF-8 Plain Text
Duration : 12 min 26 s
Bit rate : 38 b/s
Frame rate : 0.141 FPS
Count of elements : 105
Stream size : 3.56 KiB (0%)
Language : Romanian
Default : No
Forced : No

Text #27
ID : 29
Format : UTF-8
Codec ID : S_TEXT/UTF8
Codec ID/Info : UTF-8 Plain Text
Duration : 12 min 26 s
Bit rate : 53 b/s
Frame rate : 0.139 FPS
Count of elements : 104
Stream size : 4.89 KiB (0%)
Language : Russian
Default : No
Forced : No

Text #28
ID : 30
Format : UTF-8
Codec ID : S_TEXT/UTF8
Codec ID/Info : UTF-8 Plain Text
Duration : 12 min 26 s
Bit rate : 32 b/s
Frame rate : 0.137 FPS
Count of elements : 102
Stream size : 2.96 KiB (0%)
Title : Castilian
Language : Spanish (ES)
Default : No
Forced : No

Text #29
ID : 31
Format : UTF-8
Codec ID : S_TEXT/UTF8
Codec ID/Info : UTF-8 Plain Text
Duration : 12 min 26 s
Bit rate : 34 b/s
Frame rate : 0.141 FPS
Count of elements : 105
Stream size : 3.18 KiB (0%)
Title : Latin American
Language : Spanish (Latin America)
Default : No
Forced : No

Text #30
ID : 32
Format : UTF-8
Codec ID : S_TEXT/UTF8
Codec ID/Info : UTF-8 Plain Text
Duration : 12 min 26 s
Bit rate : 32 b/s
Frame rate : 0.134 FPS
Count of elements : 100
Stream size : 2.92 KiB (0%)
Language : Swedish
Default : No
Forced : No

Text #31
ID : 33
Format : UTF-8
Codec ID : S_TEXT/UTF8
Codec ID/Info : UTF-8 Plain Text
Duration : 12 min 26 s
Bit rate : 87 b/s
Frame rate : 0.139 FPS
Count of elements : 104
Stream size : 8.00 KiB (0%)
Language : Thai
Default : No
Forced : No

Text #32
ID : 34
Format : UTF-8
Codec ID : S_TEXT/UTF8
Codec ID/Info : UTF-8 Plain Text
Duration : 12 min 26 s
Bit rate : 34 b/s
Frame rate : 0.142 FPS
Count of elements : 106
Stream size : 3.17 KiB (0%)
Language : Turkish
Default : No
Forced : No

Text #33
ID : 35
Format : UTF-8
Codec ID : S_TEXT/UTF8
Codec ID/Info : UTF-8 Plain Text
Duration : 12 min 26 s
Bit rate : 51 b/s
Frame rate : 0.141 FPS
Count of elements : 105
Stream size : 4.71 KiB (0%)
Language : Ukrainian
Default : No
Forced : No

Text #34
ID : 36
Format : UTF-8
Codec ID : S_TEXT/UTF8
Codec ID/Info : UTF-8 Plain Text
Duration : 12 min 26 s
Bit rate : 47 b/s
Frame rate : 0.127 FPS
Count of elements : 95
Stream size : 4.31 KiB (0%)
Language : Vietnamese
Default : No
Forced : No

推荐使用qBittorrent、uTorrent、BitComet等下载软件,有条件的推荐115或会员软件下载!

下载地址

游客,如果您要查看本帖隐藏内容请回复





上一篇:惊弓之鸟 [简繁中字] / Earthquake Bird (2019) 4K高清版下载
下一篇:与母亲的蜜月 [简繁中字]/ Amor De Madre (2022) 4K高清版下载
回复

使用道具 举报

您需要登录后才可以回帖 登录 | 立即注册

本版积分规则

精彩图文
Archiver|手机版|TAG|Sitemap|新帖|专题|联系我们:邮箱: 4kjia.com@gmail.com   

4k家园   ©2019