[4K电影] 裸婚大喜 [简繁中字] / Naked (2017) 4K高清版本下载

[复制链接]

主题

帖子

0

积分

超级版主

Rank: 8Rank: 8

积分
0
 楼主| 发表于 2023-1-2 17:52:54 | 显示全部楼层 |阅读模式
本帖最后由 最爱4K哟 于 2023-1-2 19:01 编辑

QQ图片20230102185845_副本.png

◎译  名 裸婚大喜/裸(台)
◎片  名 Naked
◎年  代 2017
◎产  地 美国
◎类  别 喜剧/爱情/奇幻
◎语  言 英语
◎上映日期 2017-08-11(美国)
◎IMDb评分 5.4/10 from 20228 users 更新 : 2023-01-01
◎IMDb链接 https://www.imdb.com/title/tt6048930/
◎豆瓣评分 5.7/10 from 1874 users 更新 : 2023-01-02
◎豆瓣链接 https://movie.douban.com/subject/26992159/
◎导  演 迈克尔·泰兹 Michael Tiddes
◎编  剧 里克·阿尔瓦雷斯 Rick Alvarez / 马丁·纳森 M?rten Knutsson / 托克尔·纳森 Torkel Knutsson / 科里·科勒 Cory Koller / 马龙·韦恩斯 Marlon Wayans
◎主  演 马龙·韦恩斯 Marlon Wayans
       雷吉娜·赫尔 Regina Hall
       丹尼斯·海斯伯特 Dennis Haysbert
       J·T·杰克逊 J.T. Jackson
       斯考特·佛雷 Scott Foley
       伊丽莎·库伯 Eliza Coupe
       布莱恩·麦肯奈特 Brian McKnight
       洛雷塔·迪瓦恩 Loretta Devine
       科里·哈德里克 Cory Hardrict
       里克·菲茨 Rick Fitts
       戴夫·谢里登 Dave Sheridan
       小尼尔·布朗 Neil Brown Jr.
       妮科娃·斯特普尔顿 Nikeva Stapleton
       大卫·德怀尔 David Dwyer
       康纳·布罗菲 Conor Brophy
       贾罗德·瓦尔沃 Jarod Valvo
       杰森·戴维斯 Jason Davis
       马修·康威尔 Matthew Cornwell
       乔尔·拉什 Joel Rush
       朱万达斯·坎迪斯 Jwaundace Candece
        Labrandon Shead Labrandon Shead
       杰夫·库普伍德 Jeff Coopwood
       大卫·达曼·埃斯科瓦尔 David Dman Escobar
       布伦特·莫雷尔·加斯金斯 Brent Moorer Gaskins
       朱尔斯·黑文 Jules Haven
       敏卡·凯利 Minka Kelly
       杰克·兰德里 Jack Landry
       贾德·罗德曼 Judd Lormand
       杰瑞米·赛克斯 Jeremy Sykes
       梅丽莎·科拉佐 Melissa Collazo


◎简  介


  Netflix出品美国喜剧。由《鬼屋电影》、《惊声尖笑》原班人马最打造剧,改编瑞典R级喜剧《婚前兴行为》,出过爆笑喜剧《小姐好白》的马龙韦恩斯担纲裸男主,讲述新郎在结婚当日早晨,发现自己全裸在电梯间内,他不得不寻找衣服,钱和交通工具,赶往婚礼现场。但事宜愿为,不断地受挫后他回到了家中睡觉,而第二天他又从电梯间裸体醒来,陷入无限循环。

Video
ID : 1
Format : HEVC
Format/Info : High Efficiency Video Coding
Format profile : Main 10@L5@Main
HDR format : Dolby Vision, Version 1.0, dvhe.08.06, BL+RPU, HDR10 compatible / SMPTE ST 2086, HDR10 compatible
Codec ID : V_MPEGH/ISO/HEVC
Duration : 1 h 36 min
Bit rate : 15.4 Mb/s
Width : 3 840 pixels
Height : 2 160 pixels
Display aspect ratio : 16:9
Frame rate mode : Constant
Frame rate : 23.976 (24000/1001) FPS
Color space : YUV
Chroma subsampling : 4:2:0 (Type 2)
Bit depth : 10 bits
Bits/(Pixel*Frame) : 0.077
Stream size : 10.4 GiB (94%)
Default : Yes
Forced : No
Color range : Limited
Color primaries : BT.2020
Transfer characteristics : PQ
Matrix coefficients : BT.2020 non-constant
Mastering display color primaries : Display P3
Mastering display luminance : min: 0.0050 cd/m2, max: 4000 cd/m2
Maximum Content Light Level : 5233 cd/m2
Maximum Frame-Average Light Level : 280 cd/m2

Audio
ID : 2
Format : E-AC-3
Format/Info : Enhanced AC-3
Commercial name : Dolby Digital Plus
Codec ID : A_EAC3
Duration : 1 h 36 min
Bit rate mode : Constant
Bit rate : 640 kb/s
Channel(s) : 6 channels
Channel layout : L R C LFE Ls Rs
Sampling rate : 48.0 kHz
Frame rate : 31.250 FPS (1536 SPF)
Compression mode : Lossy
Stream size : 443 MiB (4%)
Language : English
Service kind : Complete Main
Default : Yes
Forced : No

Text #1
ID : 3
Format : UTF-8
Codec ID : S_TEXT/UTF8
Codec ID/Info : UTF-8 Plain Text
Title : Forced
Language : English
Default : No
Forced : Yes

Text #2
ID : 4
Format : UTF-8
Codec ID : S_TEXT/UTF8
Codec ID/Info : UTF-8 Plain Text
Language : English
Default : No
Forced : No

Text #3
ID : 5
Format : UTF-8
Codec ID : S_TEXT/UTF8
Codec ID/Info : UTF-8 Plain Text
Title : SDH
Language : English
Default : No
Forced : No

Text #4
ID : 6
Format : UTF-8
Codec ID : S_TEXT/UTF8
Codec ID/Info : UTF-8 Plain Text
Language : Arabic
Default : No
Forced : No

Text #5
ID : 7
Format : UTF-8
Codec ID : S_TEXT/UTF8
Codec ID/Info : UTF-8 Plain Text
Title : 简体
Language : Chinese (Simplied)

Default : No
Forced : No

Text #6
ID : 8
Format : UTF-8
Codec ID : S_TEXT/UTF8
Codec ID/Info : UTF-8 Plain Text
Title : 繁体
Language : Chinese (Traditional)

Default : No
Forced : No

Text #7
ID : 9
Format : UTF-8
Codec ID : S_TEXT/UTF8
Codec ID/Info : UTF-8 Plain Text
Language : Danish
Default : No
Forced : No

Text #8
ID : 10
Format : UTF-8
Codec ID : S_TEXT/UTF8
Codec ID/Info : UTF-8 Plain Text
Language : Dutch
Default : No
Forced : No

Text #9
ID : 11
Format : UTF-8
Codec ID : S_TEXT/UTF8
Codec ID/Info : UTF-8 Plain Text
Language : Finnish
Default : No
Forced : No

Text #10
ID : 12
Format : UTF-8
Codec ID : S_TEXT/UTF8
Codec ID/Info : UTF-8 Plain Text
Language : French
Default : No
Forced : No

Text #11
ID : 13
Format : UTF-8
Codec ID : S_TEXT/UTF8
Codec ID/Info : UTF-8 Plain Text
Language : German
Default : No
Forced : No

Text #12
ID : 14
Format : UTF-8
Codec ID : S_TEXT/UTF8
Codec ID/Info : UTF-8 Plain Text
Language : Greek
Default : No
Forced : No

Text #13
ID : 15
Format : UTF-8
Codec ID : S_TEXT/UTF8
Codec ID/Info : UTF-8 Plain Text
Language : Hebrew
Default : No
Forced : No

Text #14
ID : 16
Format : UTF-8
Codec ID : S_TEXT/UTF8
Codec ID/Info : UTF-8 Plain Text
Language : Italian
Default : No
Forced : No

Text #15
ID : 17
Format : UTF-8
Codec ID : S_TEXT/UTF8
Codec ID/Info : UTF-8 Plain Text
Language : Japanese
Default : No
Forced : No

Text #16
ID : 18
Format : UTF-8
Codec ID : S_TEXT/UTF8
Codec ID/Info : UTF-8 Plain Text
Language : Korean
Default : No
Forced : No

Text #17
ID : 19
Format : UTF-8
Codec ID : S_TEXT/UTF8
Codec ID/Info : UTF-8 Plain Text
Language : Norwegian Bokmal
Default : No
Forced : No

Text #18
ID : 20
Format : UTF-8
Codec ID : S_TEXT/UTF8
Codec ID/Info : UTF-8 Plain Text
Language : Polish
Default : No
Forced : No

Text #19
ID : 21
Format : UTF-8
Codec ID : S_TEXT/UTF8
Codec ID/Info : UTF-8 Plain Text
Title : Brazilian
Language : Portuguese (BR)
Default : No
Forced : No

Text #20
ID : 22
Format : UTF-8
Codec ID : S_TEXT/UTF8
Codec ID/Info : UTF-8 Plain Text
Title : Iberian
Language : Portuguese (PT)
Default : No
Forced : No

Text #21
ID : 23
Format : UTF-8
Codec ID : S_TEXT/UTF8
Codec ID/Info : UTF-8 Plain Text
Language : Romanian
Default : No
Forced : No

Text #22
ID : 24
Format : UTF-8
Codec ID : S_TEXT/UTF8
Codec ID/Info : UTF-8 Plain Text
Language : Russian
Default : No
Forced : No

Text #23
ID : 25
Format : UTF-8
Codec ID : S_TEXT/UTF8
Codec ID/Info : UTF-8 Plain Text
Title : Castilian
Language : Spanish (ES)
Default : No
Forced : No

Text #24
ID : 26
Format : UTF-8
Codec ID : S_TEXT/UTF8
Codec ID/Info : UTF-8 Plain Text
Title : Latin American
Language : Spanish (Latin America)
Default : No
Forced : No

Text #25
ID : 27
Format : UTF-8
Codec ID : S_TEXT/UTF8
Codec ID/Info : UTF-8 Plain Text
Language : Swedish
Default : No
Forced : No

Text #26
ID : 28
Format : UTF-8
Codec ID : S_TEXT/UTF8
Codec ID/Info : UTF-8 Plain Text
Language : Thai
Default : No
Forced : No

Text #27
ID : 29
Format : UTF-8
Codec ID : S_TEXT/UTF8
Codec ID/Info : UTF-8 Plain Text
Language : Turkish
Default : No
Forced : No

Text #28
ID : 30
Format : UTF-8
Codec ID : S_TEXT/UTF8
Codec ID/Info : UTF-8 Plain Text
Language : Vietnamese
Default : No
Forced : No

推荐使用qBittorrent、uTorrent、BitComet等下载软件,有条件的推荐115或会员软件下载!

下载地址


游客,如果您要查看本帖隐藏内容请回复






上一篇:伊比萨 [简繁中字] / Ibiza (2018) 4K高清版下载
下一篇:地球的夜晚:夜中取景 [简繁中字] (2020) 4K高清版本...
回复

使用道具 举报

您需要登录后才可以回帖 登录 | 立即注册

本版积分规则

精彩图文
Archiver|手机版|TAG|Sitemap|新帖|专题|联系我们:邮箱: 4kjia.com@gmail.com   

4k家园   ©2019